osu file format v14

[General]
AudioFilename: audio.mp3
AudioLeadIn: 0
PreviewTime: 69011
Countdown: 0
SampleSet: Soft
StackLeniency: 0.2
Mode: 0
LetterboxInBreaks: 0
WidescreenStoryboard: 0

[Editor]
Bookmarks: 261,13061,25861,38661,48261,54661,70661,83461,96261,121861,137861,147461,153861,179461,192261,197861
DistanceSpacing: 1.5
BeatDivisor: 4
GridSize: 16
TimelineZoom: 1

[Metadata]
Title:With a Billion Worldful of Love
TitleUnicode:With a Billion Worldful of Love
Artist:Mili feat. DE DE MOUSE
ArtistUnicode:Mili feat. DÉ DÉ MOUSE
Creator:YelloJello
Version:I'll See You in the Next Life my Darling <3
Source:
Tags:millenium mother momocashew yamato kasai
BeatmapID:1816645
BeatmapSetID:869214

[Difficulty]
HPDrainRate:5
CircleSize:4.8
OverallDifficulty:8.5
ApproachRate:9.4
SliderMultiplier:1.8
SliderTickRate:1

[Events]
//Background and Video events
0,0,"eyes emoji.jpg",0,0
//Break Periods
//Storyboard Layer 0 (Background)
//Storyboard Layer 1 (Fail)
//Storyboard Layer 2 (Pass)
//Storyboard Layer 3 (Foreground)
//Storyboard Sound Samples

[TimingPoints]
261,400,4,3,1,35,1,0
1061,-100,4,3,1,30,0,0
1161,-100,4,3,1,25,0,0
1361,-100,4,3,1,35,0,0
1461,-100,4,3,1,20,0,0
1661,-100,4,3,1,35,0,0
1861,-100,4,3,1,30,0,0
1961,-100,4,3,1,25,0,0
2161,-100,4,3,1,35,0,0
2261,-100,4,3,1,20,0,0
2461,-100,4,3,1,35,0,0
2661,-100,4,3,1,30,0,0
2761,-100,4,3,1,25,0,0
2961,-100,4,3,1,20,0,0
3036,-100,4,3,1,35,0,0
3161,-100,4,3,1,5,0,0
3236,-100,4,3,1,35,0,0
3361,-100,4,3,1,5,0,0
3461,-133.333333333333,4,3,1,35,0,0
5861,-133.333333333333,4,3,1,25,0,0
6761,-133.333333333333,4,3,1,20,0,0
6961,-133.333333333333,4,3,1,30,0,0
7061,-133.333333333333,4,3,1,25,0,0
7261,-133.333333333333,4,3,1,30,0,0
7561,-133.333333333333,4,3,1,25,0,0
7761,-133.333333333333,4,3,1,30,0,0
8261,-133.333333333333,4,3,1,25,0,0
8561,-133.333333333333,4,3,1,30,0,0
8661,-133.333333333333,4,3,1,25,0,0
8861,-133.333333333333,4,3,1,35,0,0
8961,-133.333333333333,4,3,1,15,0,0
9061,-133.333333333333,4,3,1,25,0,0
9361,-133.333333333333,4,3,1,30,0,0
9461,-133.333333333333,4,3,1,25,0,0
9661,-133.333333333333,4,3,1,35,0,0
9761,-133.333333333333,4,3,1,10,0,0
9861,-133.333333333333,4,3,1,20,0,0
10561,-133.333333333333,4,3,1,5,0,0
10661,-133.333333333333,4,3,1,20,0,0
11361,-133.333333333333,4,3,1,5,0,0
11461,-133.333333333333,4,3,1,20,0,0
12161,-133.333333333333,4,3,1,5,0,0
12261,-133.333333333333,4,3,1,20,0,0
12961,-133.333333333333,4,3,1,5,0,0
13061,-62.5,4,2,1,40,0,0
13761,-62.5,4,2,1,5,0,0
13861,-71.4285714285714,4,2,1,40,0,0
14561,-71.4285714285714,4,2,1,5,0,0
14661,-62.5,4,2,1,40,0,0
15361,-62.5,4,2,1,5,0,0
15461,-71.4285714285714,4,2,1,40,0,0
16161,-71.4285714285714,4,2,1,5,0,0
16261,-62.5,4,2,1,40,0,0
17061,-71.4285714285714,4,2,1,40,0,0
17261,-71.4285714285714,4,2,1,40,0,0
17861,-62.5,4,2,1,40,0,0
18661,-71.4285714285714,4,2,1,40,0,0
19361,-71.4285714285714,4,2,1,5,0,0
19461,-62.5,4,2,1,40,0,0
20161,-62.5,4,2,1,5,0,0
20261,-71.4285714285714,4,2,1,40,0,0
20961,-71.4285714285714,4,2,1,5,0,0
21061,-62.5,4,2,1,40,0,0
21761,-62.5,4,2,1,5,0,0
21861,-83.3333333333333,4,2,1,40,0,0
22561,-83.3333333333333,4,2,1,5,0,0
22661,-62.5,4,2,1,40,0,0
23461,-71.4285714285714,4,2,1,40,0,0
24261,-55.5555555555556,4,2,1,40,0,0
25061,-83.3333333333333,4,2,1,40,0,0
25361,-30.7692307692308,4,2,1,40,0,0
25561,-30.7692307692308,4,2,1,5,0,0
25661,-25,4,2,1,40,0,0
25861,-25,4,2,1,35,0,0
26261,-83.3333333333333,4,2,1,35,0,0
37061,-83.3333333333333,4,2,1,20,0,0
39461,-133.333333333333,4,2,1,20,0,0
44461,-100,4,2,1,20,0,0
45061,-285.714285714286,4,2,1,20,0,0
48261,-285.714285714286,4,3,1,20,0,0
53061,-285.714285714286,4,2,1,20,0,0
53861,-133.333333333333,4,2,1,20,0,0
54661,-86.9565217391304,4,3,1,40,0,0
56161,-86.9565217391304,4,3,1,5,0,0
56261,-74.6268656716418,4,3,1,40,0,0
57761,-78.7401574803149,4,3,1,5,0,0
57861,-78.7401574803149,4,3,1,40,0,0
59361,-78.7401574803149,4,3,1,5,0,0
59461,-78.7401574803149,4,3,1,40,0,0
60961,-78.7401574803149,4,3,1,5,0,0
61061,-74.6268656716418,4,3,1,40,0,0
62561,-74.6268656716418,4,3,1,5,0,0
62661,-74.6268656716418,4,3,1,40,0,0
64161,-74.0740740740741,4,3,1,5,0,0
64261,-500,4,3,1,40,0,0
64961,-500,4,3,1,5,0,0
65061,-333.333333333333,4,3,1,40,0,0
65761,-333.333333333333,4,3,1,5,0,0
65861,-133.333333333333,4,3,1,40,0,0
66261,-100,4,3,1,40,0,0
66961,-200,4,3,1,40,0,0
67461,-200,4,2,1,20,0,0
70636,-200,4,2,1,5,0,0
70661,-140.845070422535,4,2,1,55,0,1
71361,-140.845070422535,4,2,1,5,0,1
71461,-140.845070422535,4,2,1,55,0,1
72161,-140.845070422535,4,2,1,5,0,1
72261,-30.7692307692308,4,2,1,55,0,1
72461,-30.7692307692308,4,2,1,5,0,1
72561,-30.7692307692308,4,2,1,55,0,1
72761,-30.7692307692308,4,2,1,5,0,1
72861,-30.7692307692308,4,2,1,55,0,1
72961,-30.7692307692308,4,2,1,5,0,1
73061,-30.7692307692308,4,2,1,55,0,1
73261,-30.7692307692308,4,2,1,5,0,1
73361,-30.7692307692308,4,2,1,55,0,1
73561,-30.7692307692308,4,2,1,5,0,1
73661,-30.7692307692308,4,2,1,55,0,1
73761,-30.7692307692308,4,2,1,5,0,1
73861,-66.6666666666667,4,2,1,55,0,1
75761,-66.6666666666667,4,2,1,5,0,1
75861,-66.6666666666667,4,2,1,55,0,1
76261,-66.6666666666667,4,2,1,55,0,0
77061,-133.333333333333,4,2,1,55,0,1
77761,-133.333333333333,4,2,1,5,0,1
77861,-133.333333333333,4,2,1,55,0,1
78561,-133.333333333333,4,2,1,5,0,1
78661,-30.7692307692308,4,2,1,55,0,1
78861,-30.7692307692308,4,2,1,5,0,1
78961,-30.7692307692308,4,2,1,55,0,1
79161,-30.7692307692308,4,2,1,5,0,1
79261,-25,4,2,1,55,0,1
79361,-25,4,2,1,5,0,1
79461,-30.7692307692308,4,2,1,55,0,1
79561,-30.7692307692308,4,2,1,5,0,1
79661,-30.7692307692308,4,2,1,55,0,1
79861,-30.7692307692308,4,2,1,5,0,1
79961,-25,4,2,1,55,0,1
80161,-25,4,2,1,5,0,1
80261,-66.6666666666667,4,2,1,55,0,1
82161,-66.6666666666667,4,2,1,5,0,1
82261,-66.6666666666667,4,2,1,55,0,1
83461,-133.333333333333,4,2,1,40,0,0
85261,-66.6666666666667,4,2,1,40,0,0
85461,-133.333333333333,4,2,1,40,0,0
86261,-66.6666666666667,4,2,1,40,0,0
86661,-133.333333333333,4,2,1,40,0,0
88461,-66.6666666666667,4,2,1,40,0,0
88661,-133.333333333333,4,2,1,40,0,0
89461,-66.6666666666667,4,2,1,40,0,0
89861,-133.333333333333,4,2,1,40,0,0
91661,-66.6666666666667,4,2,1,40,0,0
91861,-133.333333333333,4,2,1,40,0,0
92661,-66.6666666666667,4,2,1,40,0,0
93061,-133.333333333333,4,2,1,40,0,0
94861,-66.6666666666667,4,2,1,40,0,0
95061,-133.333333333333,4,2,1,40,0,0
95861,-100,4,2,1,40,0,0
96161,-100,4,2,1,5,0,0
96261,-200,4,2,1,20,0,0
97861,-400,4,2,1,20,0,0
98661,-200,4,2,1,20,0,0
103461,-133.333333333333,4,2,1,20,0,0
104261,-100,4,2,1,20,0,0
105861,-200,4,2,1,20,0,0
109861,-133.333333333333,4,2,1,20,0,0
115461,-133.333333333333,4,2,1,20,0,0
120261,-285.714285714286,4,2,1,20,0,0
121861,-285.714285714286,4,3,1,20,0,0
124661,-200,4,3,1,20,0,0
125061,-1000,4,3,1,45,0,0
125861,-33.3333333333333,4,3,1,45,0,1
126661,-1000,4,3,1,45,0,0
127461,-33.3333333333333,4,3,1,45,0,1
128261,-1000,4,3,1,45,0,0
129061,-33.3333333333333,4,3,1,45,0,1
129861,-1000,4,3,1,45,0,0
130661,-33.3333333333333,4,3,1,45,0,1
130861,-33.3333333333333,4,3,1,5,0,0
130961,-33.3333333333333,4,3,1,45,0,1
131161,-33.3333333333333,4,3,1,5,0,0
131261,-33.3333333333333,4,3,1,45,0,1
131361,-33.3333333333333,4,3,1,5,0,1
131461,-1000,4,3,1,45,0,0
132261,-33.3333333333333,4,3,1,45,0,1
133061,-1000,4,3,1,45,0,0
133861,-33.3333333333333,4,3,1,45,0,1
134661,-1000,4,3,1,45,0,0
135461,-33.3333333333333,4,3,1,45,0,1
136261,-1000,4,3,1,45,0,0
137461,-16.6666666666667,4,3,1,45,0,1
137561,-16.6666666666667,4,3,1,45,0,0
137661,-12,4,3,1,45,0,1
137761,-12,4,3,1,5,0,1
137861,-400,4,3,1,25,0,0
138461,-400,4,2,1,15,0,0
139461,-200,4,2,1,15,0,0
139861,-133.333333333333,4,2,1,15,0,0
141061,-133.333333333333,4,3,1,15,0,0
146661,-1000,4,3,1,15,0,0
147061,-1000,4,2,1,15,0,0
147461,-1000,4,3,1,25,0,0
148261,-1000,4,3,1,30,0,0
149061,-1000,4,3,1,35,0,0
149861,-1000,4,3,1,40,0,0
150661,-1000,4,3,1,45,0,0
151461,-1000,4,3,1,50,0,0
152261,-1000,4,3,1,15,0,0
152286,-1000,4,3,1,5,0,0
153861,-93.4579439252336,4,2,1,55,0,1
154561,-93.4579439252336,4,2,1,5,0,1
154661,-93.4579439252336,4,2,1,55,0,1
155361,-93.4579439252336,4,2,1,5,0,1
155461,-30.7692307692308,4,2,1,55,0,1
155661,-30.7692307692308,4,2,1,5,0,1
155761,-30.7692307692308,4,2,1,55,0,1
155961,-30.7692307692308,4,2,1,5,0,1
156061,-30.7692307692308,4,2,1,55,0,1
156161,-30.7692307692308,4,2,1,5,0,1
156261,-400,4,2,1,55,0,0
157061,-100,4,2,1,55,0,1
158961,-100,4,2,1,5,0,1
159061,-100,4,2,1,55,0,1
159461,-100,4,2,1,55,0,0
160261,-133.333333333333,4,2,1,55,0,1
160961,-133.333333333333,4,2,1,5,0,1
161061,-133.333333333333,4,2,1,55,0,1
161761,-133.333333333333,4,2,1,5,0,1
161861,-30.7692307692308,4,2,1,55,0,1
162061,-30.7692307692308,4,2,1,5,0,1
162161,-30.7692307692308,4,2,1,55,0,1
162361,-30.7692307692308,4,2,1,5,0,1
162461,-30.7692307692308,4,2,1,55,0,1
162561,-30.7692307692308,4,2,1,5,0,1
162661,-30.7692307692308,4,2,1,55,0,1
162761,-30.7692307692308,4,2,1,5,0,1
162861,-30.7692307692308,4,2,1,55,0,1
163061,-30.7692307692308,4,2,1,5,0,1
163161,-30.7692307692308,4,2,1,55,0,1
163361,-30.7692307692308,4,2,1,5,0,1
163461,-100,4,2,1,55,0,1
165361,-100,4,2,1,5,0,1
165461,-100,4,2,1,55,0,1
165861,-100,4,2,1,55,0,0
166661,-133.333333333333,4,2,1,55,0,1
167361,-133.333333333333,4,2,1,5,0,1
167461,-133.333333333333,4,2,1,55,0,1
168161,-133.333333333333,4,2,1,5,0,1
168261,-30.7692307692308,4,2,1,55,0,1
168461,-30.7692307692308,4,2,1,5,0,1
168561,-30.7692307692308,4,2,1,55,0,1
168761,-30.7692307692308,4,2,1,5,0,1
168861,-30.7692307692308,4,2,1,55,0,1
168961,-30.7692307692308,4,2,1,5,0,0
169061,-400,4,2,1,55,0,0
169861,-66.6666666666667,4,2,1,55,0,1
171761,-66.6666666666667,4,2,1,5,0,1
171861,-66.6666666666667,4,2,1,55,0,1
172261,-100,4,2,1,55,0,0
173061,-133.333333333333,4,2,1,55,0,1
173761,-133.333333333333,4,2,1,5,0,1
173861,-133.333333333333,4,2,1,55,0,1
174561,-133.333333333333,4,2,1,5,0,1
174661,-28.5714285714286,4,2,1,55,0,1
174861,-28.5714285714286,4,2,1,5,0,1
174961,-28.5714285714286,4,2,1,55,0,1
175161,-28.5714285714286,4,2,1,5,0,1
175261,-28.5714285714286,4,2,1,55,0,1
175361,-28.5714285714286,4,2,1,5,0,1
175461,-28.5714285714286,4,2,1,55,0,1
175561,-28.5714285714286,4,2,1,5,0,1
175661,-28.5714285714286,4,2,1,55,0,1
175861,-28.5714285714286,4,2,1,5,0,1
175961,-28.5714285714286,4,2,1,55,0,1
176161,-28.5714285714286,4,2,1,5,0,1
176261,-66.6666666666667,4,2,1,55,0,1
178161,-66.6666666666667,4,2,1,5,0,1
178261,-66.6666666666667,4,2,1,55,0,1
178661,-100,4,2,1,55,0,0
179461,-133.333333333333,4,2,1,55,0,1
179561,-133.333333333333,4,2,1,40,0,0
181261,-66.6666666666667,4,2,1,40,0,0
181461,-133.333333333333,4,2,1,40,0,0
182261,-66.6666666666667,4,2,1,40,0,0
182661,-133.333333333333,4,2,1,40,0,0
184461,-66.6666666666667,4,2,1,40,0,0
184661,-133.333333333333,4,2,1,40,0,0
185461,-66.6666666666667,4,2,1,40,0,0
185861,-86.9565217391304,4,2,1,40,0,0
186461,-133.333333333333,4,2,1,40,0,0
187661,-66.6666666666667,4,2,1,40,0,0
187861,-133.333333333333,4,2,1,40,0,0
188661,-66.6666666666667,4,2,1,40,0,0
189061,-133.333333333333,4,2,1,40,0,0
190861,-66.6666666666667,4,2,1,40,0,0
191061,-133.333333333333,4,2,1,40,0,0
191861,-66.6666666666667,4,2,1,40,0,0
192261,-100,4,2,1,25,0,0
197061,-1000,4,2,1,25,0,0
197086,-1000,4,2,2,5,0,0

[HitObjects]
109,113,261,5,0,0:0:0:0:
109,113,561,1,0,0:0:0:0:
109,113,861,1,0,0:0:0:0:
206,177,1061,1,0,0:0:0:0:
206,177,1161,1,0,0:0:0:0:
206,177,1361,2,0,L|200:243,1,45
310,125,1661,1,0,0:0:0:0:
199,293,1861,5,0,0:0:0:0:
199,293,1961,1,0,0:0:0:0:
199,293,2161,2,0,L|193:359,1,45
203,212,2461,1,0,0:0:0:0:
300,276,2661,1,0,0:0:0:0:
301,258,2761,1,0,0:0:0:0:
316,268,2836,2,0,L|310:324,1,56.25,2|0,0:0|0:0,0:0:0:0:
383,178,3036,2,0,L|407:236,1,56.25,2|0,0:0|0:0,0:0:0:0:
396,67,3236,2,0,L|441:103,1,56.25,2|0,0:0|0:0,0:0:0:0:
293,112,3461,6,0,P|254:138|169:119,1,135.000005149842,2|2,0:0|0:0,0:0:0:0:
142,64,4261,2,0,P|168:103|144:189,1,135.000005149842,2|2,0:0|0:0,0:0:0:0:
94,213,5061,2,0,P|133:187|222:215,1,135.000005149842,2|2,0:0|0:0,0:0:0:0:
244,260,5861,2,0,L|244:290,3,22.5000008583069,2|0|0|0,0:0|0:0|0:0|0:0,0:0:0:0:
144,183,6161,2,0,L|118:168,3,22.5000008583069,2|0|0|0,0:0|0:0|0:0|0:0,0:0:0:0:
260,134,6461,2,0,L|285:119,2,22.5000008583069,2|0|0,0:0|0:0|0:0,0:0:0:0:
306,195,6661,6,0,P|316:218|334:229,1,33.7500012874604,2|0,0:0|0:0,0:0:0:0:
306,195,6961,2,0,P|316:218|334:229,1,33.7500012874604
419,276,7261,1,0,0:0:0:0:
433,138,7461,1,0,0:0:0:0:
433,138,7561,1,0,0:0:0:0:
433,138,7761,2,0,P|431:161|412:190,1,33.7500012874604
275,138,8061,1,0,0:0:0:0:
194,276,8261,5,0,0:0:0:0:
194,276,8361,1,0,0:0:0:0:
194,276,8561,2,0,P|194:243|205:221,1,33.7500012874604
194,276,8861,2,0,P|194:243|205:221,1,33.7500012874604
274,137,9061,5,0,0:0:0:0:
274,137,9161,1,0,0:0:0:0:
274,137,9361,2,0,B|250:151|220:151,1,33.7500012874604
274,137,9661,2,0,B|250:151|220:151,1,33.7500012874604
89,47,9861,6,0,P|140:40|189:57,1,101.250003862381,2|0,0:2|0:0,0:0:0:0:
443,88,10461,2,0,P|416:81|387:80,1,33.7500012874604
443,88,10661,2,0,P|391:81|345:96,1,101.250003862381,2|0,0:2|0:0,0:0:0:0:
89,129,11261,2,0,P|111:136|141:133,1,33.7500012874604
89,129,11461,2,0,P|140:136|189:118,1,101.250003862381,2|0,0:2|0:0,0:0:0:0:
443,169,12061,2,0,P|416:163|383:163,1,33.7500012874604
443,169,12261,2,0,P|391:175|343:158,1,101.250003862381,2|0,0:2|0:0,0:0:0:0:
193,17,12861,2,0,P|203:46|201:72,1,33.7500012874604
313,220,13061,6,0,B|342:289|279:283|314:359,1,144,8|0,0:3|0:0,0:0:0:0:
376,325,13361,2,0,P|367:386|312:357,1,144
248,331,13661,2,0,L|174:337,1,72
108,301,13861,2,0,P|49:283|47:338,1,125.999996154785,4|0,0:0|0:0,0:0:0:0:
41,331,14161,2,0,B|37:286|37:286|13:256|13:256|8:206,1,125.999996154785
72,168,14461,2,0,B|102:178|102:178|138:167,1,62.9999980773926
204,136,14661,6,0,B|295:92|295:92|242:94,1,144,8|0,0:3|0:0,0:0:0:0:
267,181,14961,2,0,B|334:148|334:148|410:156,1,144
425,229,15261,2,0,L|342:221,1,72
474,170,15461,2,0,P|498:210|467:294,1,125.999996154785,4|0,0:0|0:0,0:0:0:0:
407,301,15761,2,0,P|362:313|327:399,1,125.999996154785
321,294,16061,2,0,P|304:270|259:246,1,62.9999980773926
144,299,16261,6,0,P|187:349|252:318,1,144,8|0,0:3|0:0,0:0:0:0:
277,252,16561,2,0,B|284:149|284:149|254:199,1,144
338,196,16861,2,0,B|372:192|372:192|420:202,1,72
468,237,17061,2,0,P|480:203|464:152,1,62.9999980773926,4|0,0:0|0:0,0:0:0:0:
434,68,17261,1,0,0:0:0:0:
434,68,17361,2,0,P|422:102|440:155,1,62.9999980773926
482,246,17561,1,0,0:0:0:0:
482,246,17661,2,0,P|494:212|475:155,1,62.9999980773926
300,56,17861,6,0,P|341:29|429:67,1,144,8|0,0:3|0:0,0:0:0:0:
351,113,18161,2,0,P|317:131|264:120,1,72
228,80,18361,1,0,0:0:0:0:
228,79,18461,2,0,P|211:110|211:146,1,72
169,258,18661,2,0,P|168:223|99:145,1,125.999996154785,4|0,0:0|0:0,0:0:0:0:
73,262,18961,2,0,P|61:221|85:261,1,125.999996154785
181,363,19261,2,0,P|151:359|122:343,1,62.9999980773926
300,315,19461,6,0,P|361:312|418:250,1,144,8|0,0:3|0:0,0:0:0:0:
387,190,19761,2,0,P|354:240|417:253,1,144
512,163,20061,2,0,P|486:171|457:205,1,72
439,137,20261,2,0,P|389:92|326:105,1,125.999996154785,4|0,0:0|0:0,0:0:0:0:
349,81,20561,2,0,L|210:68,1,125.999996154785
161,32,20861,2,0,L|154:97,1,62.9999980773926
0,156,21061,6,0,L|145:167,1,144,8|0,0:3|0:0,0:0:0:0:
200,222,21361,2,0,B|163:245|163:245|53:237,1,144
44,312,21661,2,0,L|119:319,1,72
173,374,21861,2,0,B|193:319|193:319|184:271,1,107.999996704102,4|0,0:0|0:0,0:0:0:0:
302,340,22161,2,0,B|265:305|265:305|251:249,1,107.999996704102
380,238,22461,2,0,B|359:255|359:255|325:266,1,53.9999983520508
384,145,22661,6,0,P|443:168|470:262,1,144,8|0,0:3|0:0,0:0:0:0:
380,238,22961,2,0,P|332:224|310:206,1,72
237,143,23161,1,0,0:0:0:0:
237,143,23261,2,0,P|285:129|309:106,1,72
252,5,23461,2,0,P|241:45|249:84,1,62.9999980773926,4|0,0:0|0:0,0:0:0:0:
364,86,23661,1,0,0:0:0:0:
364,86,23761,2,0,P|327:51|295:45,1,62.9999980773926
174,44,23961,1,0,0:0:0:0:
174,44,24061,2,0,P|211:9|240:1,1,62.9999980773926
170,122,24261,6,0,P|133:157|35:124,1,161.999995056153,8|0,0:3|0:0,0:0:0:0:
0,58,24561,2,0,L|10:161,1,80.9999975280763
112,258,24761,1,0,0:0:0:0:
112,258,24861,2,0,L|119:175,1,80.9999975280763
34,307,25061,2,0,P|90:302|145:343,1,107.999996704102,4|0,0:0|0:0,0:0:0:0:
208,256,25361,6,0,B|285:235|285:235|264:158|264:158|187:178|187:178|203:240,1,292.500008368492,4|0,3:0|0:0,0:0:0:0:
208,256,25661,2,0,B|236:208|285:235|285:235|236:208|264:158|264:158|236:208|187:178|187:178|236:208|208:256,1,360,4|2,3:0|0:0,0:0:0:0:
350,185,26261,6,0,L|460:184,1,107.999996704102,8|0,0:0|0:0,0:0:0:0:
502,135,26661,2,0,P|470:170|474:235,1,107.999996704102,2|0,0:0|0:0,0:0:0:0:
477,238,26961,1,0,0:0:0:0:
482,246,27061,2,0,L|423:246,1,53.9999983520508,10|0,0:0|0:0,0:0:0:0:
315,317,27261,6,0,L|426:317,1,107.999996704102,2|0,0:0|0:0,0:0:0:0:
350,185,27661,1,2,0:0:0:0:
350,185,27761,1,2,0:0:0:0:
350,185,27861,2,0,L|350:246,1,53.9999983520508,10|0,0:0|0:0,0:0:0:0:
271,159,28061,2,0,L|271:98,1,53.9999983520508,2|0,0:0|0:0,0:0:0:0:
192,185,28261,2,0,L|192:311,1,107.999996704102,2|0,0:0|0:0,0:0:0:0:
59,92,28661,1,10,0:0:0:0:
208,103,28861,1,2,0:0:0:0:
275,237,29061,6,0,B|327:236|327:236|376:265,1,107.999996704102,2|0,0:0|0:0,0:0:0:0:
383,272,29361,1,0,0:0:0:0:
392,281,29461,2,0,B|393:229|393:229|421:180,1,107.999996704102,10|0,0:0|0:0,0:0:0:0:
429,172,29761,1,0,0:0:0:0:
436,164,29861,2,0,B|384:164|384:164|335:135,1,107.999996704102,2|0,0:0|0:0,0:0:0:0:
315,117,30161,1,0,0:0:0:0:
326,127,30261,2,0,L|325:193,1,53.9999983520508,10|0,0:0|0:0,0:0:0:0:
231,78,30461,6,0,P|255:43|319:23,1,107.999996704102,2|0,0:0|0:0,0:0:0:0:
456,52,30861,1,2,0:0:0:0:
460,59,30961,1,2,0:0:0:0:
464,66,31061,2,0,L|397:66,1,53.9999983520508,8|0,0:0|0:0,0:0:0:0:
340,144,31261,6,0,L|377:183,1,53.9999983520508,2|0,0:0|0:0,0:0:0:0:
315,216,31461,2,0,P|328:239|340:263,1,53.9999983520508,2|0,0:0|0:0,0:0:0:0:
266,275,31661,2,0,P|271:303|273:328,1,53.9999983520508,2|0,0:2|0:2,0:2:0:0:
196,307,31861,2,0,P|192:333|180:358,1,53.9999983520508,10|0,0:2|0:2,0:2:0:0:
118,298,32061,2,0,P|108:273|107:247,1,53.9999983520508,2|0,0:2|0:2,0:2:0:0:
145,162,32261,6,0,P|92:153|45:178,1,107.999996704102,2|0,0:0|0:0,0:0:0:0:
40,188,32561,1,0,0:0:0:0:
40,188,32661,1,8,0:0:0:0:
40,188,32861,6,0,P|35:161|40:128,1,53.9999983520508,2|0,0:0|0:0,0:0:0:0:
151,102,33061,2,0,P|156:129|151:162,1,53.9999983520508,2|0,0:0|0:0,0:0:0:0:
89,48,33261,1,0,0:0:0:0:
108,29,33361,1,2,0:0:0:0:
133,20,33461,2,0,P|166:19|198:34,1,53.9999983520508,8|0,0:0|0:0,0:0:0:0:
337,97,33661,6,0,P|285:109|235:94,1,107.999996704102,2|0,0:0|0:0,0:0:0:0:
227,85,33961,1,0,0:0:0:0:
238,82,34061,2,0,P|248:93|253:135,1,53.9999983520508,2|0,0:0|0:0,0:0:0:0:
158,220,34261,2,0,P|163:205|197:180,1,53.9999983520508,8|0,0:0|0:0,0:0:0:0:
318,221,34461,2,0,P|280:213|254:189,1,53.9999983520508,2|0,0:0|0:0,0:0:0:0:
406,171,34661,1,2,0:0:0:0:
406,171,34861,6,0,P|417:207|408:243,1,53.9999983520508,2|0,0:0|0:0,0:0:0:0:
431,101,35061,2,0,P|464:118|483:150,1,53.9999983520508,10|0,0:0|0:0,0:0:0:0:
392,35,35261,2,0,P|428:24|464:32,1,53.9999983520508,2|0,0:0|0:0,0:0:0:0:
340,83,35461,6,0,P|304:94|275:31,1,107.999996704102,2|0,0:0|0:0,0:0:0:0:
276,29,35761,1,0,0:0:0:0:
270,42,35861,2,0,P|238:52|208:47,1,53.9999983520508,10|0,0:0|0:0,0:0:0:0:
141,0,36061,2,0,P|148:25|142:66,1,53.9999983520508
184,112,36261,2,0,P|131:129|84:100,1,107.999996704102,2|0,0:0|0:0,0:0:0:0:
81,95,36561,1,0,0:0:0:0:
88,106,36661,2,0,P|95:131|89:172,1,53.9999983520508,8|0,0:0|0:0,0:0:0:0:
0,251,36861,2,0,P|18:232|56:217,1,53.9999983520508
121,232,37061,5,0,0:0:0:0:
140,256,37261,1,0,0:0:0:0:
177,271,37461,1,0,0:0:0:0:
224,259,37661,1,0,0:0:0:0:
333,215,37861,1,0,0:0:0:0:
331,233,38061,1,0,0:0:0:0:
329,252,38261,1,0,0:0:0:0:
327,263,38461,1,0,0:0:0:0:
241,143,38661,5,2,0:0:0:0:
273,55,38861,1,2,0:0:0:0:
148,126,39061,1,2,0:0:0:0:
180,214,39261,1,2,0:0:0:0:
139,298,39461,2,0,P|176:293|216:306,1,67.5000025749208,2|0,0:0|0:0,0:0:0:0:
214,305,39761,1,0,0:0:0:0:
222,312,39861,1,2,0:0:0:0:
327,324,40061,1,0,0:0:0:0:
345,166,40261,5,2,0:0:0:0:
291,239,40461,1,2,0:0:0:0:
245,153,40661,1,2,0:0:0:0:
253,155,40727,2,0,L|248:107,1,45.0000017166138,0|2,0:0|0:0,0:0:0:0:
132,42,41061,2,0,P|167:46|204:48,1,67.5000025749208,2|0,0:0|0:0,0:0:0:0:
395,91,41461,2,0,P|360:95|322:97,1,67.5000025749208
480,144,41861,5,2,0:0:0:0:
480,144,42061,1,0,0:0:0:0:
409,218,42261,5,2,0:0:0:0:
404,231,42461,1,0,0:0:0:0:
309,193,42661,6,0,P|269:177|232:182,1,67.5000025749208,2|0,0:0|0:0,0:0:0:0:
118,120,43061,5,2,0:0:0:0:
164,241,43261,1,0,0:0:0:0:
222,49,43461,6,0,L|149:55,1,67.5000025749208,2|0,0:0|0:0,0:0:0:0:
85,9,43861,1,2,0:0:0:0:
85,9,44061,1,0,0:0:0:0:
0,70,44261,1,2,0:0:0:0:
61,155,44461,2,0,P|69:196|53:251,2,90,2|2|2,0:0|0:0|0:0,0:0:0:0:
177,253,45061,6,0,P|220:275|279:255,1,110.249996635437,2|0,0:0|0:0,0:0:0:0:
282,251,45861,2,0,L|277:300,1,47.2499985580445,2|0,0:0|0:0,0:0:0:0:
275,314,46261,2,0,L|270:363,1,47.2499985580445,2|0,0:0|0:0,0:0:0:0:
361,324,46661,5,2,0:0:0:0:
437,339,46861,1,0,0:0:0:0:
499,384,47061,1,0,0:0:0:0:
499,384,47261,1,0,0:0:0:0:
434,319,47461,5,0,0:0:0:0:
434,225,47661,1,0,0:0:0:0:
500,158,47861,2,0,L|456:154,1,31.4999990386963,2|0,0:0|0:0,0:0:0:0:
314,86,48261,5,0,0:0:0:0:
383,128,48461,1,0,0:0:0:0:
324,74,48661,1,0,0:0:0:0:
247,98,48861,1,0,0:0:0:0:
223,21,49061,2,0,P|211:11|173:4,1,47.2499985580445
102,26,49461,1,0,0:0:0:0:
160,105,49661,1,0,0:0:0:0:
160,94,49761,1,0,0:0:0:0:
160,83,49861,6,0,L|154:142,1,47.2499985580445
175,205,50261,1,0,0:0:0:0:
96,222,50461,1,0,0:0:0:0:
199,129,50661,5,0,0:0:0:0:
175,205,50861,1,0,0:0:0:0:
154,273,51061,1,0,0:0:0:0:
136,334,51261,1,0,0:0:0:0:
346,287,51461,6,0,P|326:276|273:272,1,62.9999980773926,2|2,0:0|0:0,0:0:0:0:
175,205,52261,2,0,P|195:194|248:190,1,62.9999980773926,2|2,0:0|0:0,0:0:0:0:
355,203,53061,1,0,0:0:0:0:
371,202,53261,1,0,0:0:0:0:
386,199,53461,1,0,0:0:0:0:
401,194,53661,1,0,0:0:0:0:
415,186,53861,6,0,L|419:232,1,45.0000017166138
422,239,54061,1,0,0:0:0:0:
424,232,54127,1,0,0:0:0:0:
434,382,54261,2,0,P|402:365|374:360,1,45.0000017166138
378,361,54461,1,0,0:0:0:0:
387,357,54527,1,0,0:0:0:0:
246,384,54661,6,0,B|241:332|241:332|255:302|255:302|236:274|236:274|231:230|231:230|219:291|164:317|75:311|59:205|86:172|132:136|183:150|183:150|149:165|138:190|143:212|143:212|136:113|136:113|118:83|118:83|126:52|126:52|123:13,1,776.250014805794,8|0,0:0|0:0,2:0:0:0:
230,72,56261,2,0,B|271:90|276:148|276:148|272:95|310:64|361:56|421:100|392:153|381:171|380:173|380:173|379:173|357:207|370:265|442:281|494:242|483:184|483:184|477:165|456:148|483:110|506:98|506:98|517:93|559:69|547:12|518:-24|440:-30|383:32|413:96|451:131|498:112|508:96|513:94|513:94,1,904.499957215121,8|0,0:0|0:0,2:0:0:0:
333,139,57861,6,0,B|366:103|371:57|362:22|362:22|316:10|275:22|249:51|249:51|197:46|197:46|217:97|217:97|192:122|194:151|194:151|211:185|197:207|197:207|188:266|95:271|86:190|110:141|171:145|199:168|197:207|197:207|183:320|183:320|174:293,1,857.249993459702,8|0,0:0|0:0,2:0:0:0:
257,268,59461,2,0,B|315:276|315:276|354:316|354:316|414:324|414:324|465:295|465:295|457:260|478:234|478:234|451:254|414:262|344:205|388:129|455:123|482:161|485:165|485:165|511:111|484:65|484:65|452:54|446:13|446:13|430:38|406:45|406:45|379:41|363:23|363:23|372:70|355:110,1,857.249993459702,8|0,0:0|0:0,2:0:0:0:
290,175,61061,6,0,B|223:160|231:84|259:64|297:58|297:58|255:74|217:59|217:59|178:60|178:60|142:94|142:94|98:96|98:96|91:74|91:74|117:76|117:76|150:118|106:166|106:166|92:201|118:243|118:243|153:227|153:227|175:278|175:278|151:318|151:318|96:299|39:316|16:352,1,904.499957215121,8|0,0:0|0:0,2:0:0:0:
151,387,62661,2,0,B|215:383|196:342|250:343|250:343|283:361|332:375|359:351|359:351|402:360|424:304|424:304|387:258|352:278|352:278|332:263|300:258|275:271|275:271|251:215|251:215|290:175|290:175|307:191|340:196|366:177|366:177|382:218|446:237|492:168|452:122|452:122|493:126,1,904.499957215121,8|0,0:0|0:0,2:0:0:0:
512,0,64261,6,0,L|506:67,1,63,8|0,0:0|0:0,2:0:0:0:
389,62,65061,2,0,L|380:157,1,94.4999971160889,8|0,0:0|0:0,2:0:0:0:
266,124,65861,6,0,L|259:191,1,67.5000025749208,8|0,0:0|0:0,2:0:0:0:
142,185,66261,2,0,L|132:291,1,90,8|0,0:0|0:0,2:0:0:0:
18,246,66661,5,8,0:0:0:0:
9,335,66761,1,8,0:0:0:0:
27,157,66861,1,8,0:0:0:0:
172,261,66961,2,0,P|191:288|190:368,1,112.5,8|2,0:0|0:0,0:0:0:0:
256,192,69061,12,0,70636,0:0:0:0:
228,169,70661,6,0,B|219:197|219:197|233:221|233:221|261:229|261:229|285:215|285:215|293:186|293:186|277:162|277:162|250:157|250:157|228:169,1,223.649988738328,8|0,3:0|0:0,0:0:0:0:
58,81,71461,2,0,B|120:101|120:101|197:72|197:72|271:93,1,223.649988738328,4|0,3:0|0:0,0:0:0:0:
316,58,72261,6,0,P|246:41|323:116,1,292.500008368492,8|0,3:0|0:0,0:0:0:0:
434,100,72561,2,0,P|502:83|428:160,1,292.500008368492,8|0,3:0|0:0,0:0:0:0:
319,121,72861,2,0,P|345:53|419:16,1,146.250004184246,8|0,3:0|0:0,0:0:0:0:
270,257,73061,2,0,B|179:267|179:267|115:340|115:340|8:354,1,292.500008368492,6|0,3:0|0:0,0:0:0:0:
61,72,73361,2,0,B|175:156|175:156|74:269,1,292.500008368492,8|0,3:0|0:0,0:0:0:0:
308,159,73661,2,0,B|237:188|237:188|175:156,1,146.250004184246,8|0,3:0|0:0,0:0:0:0:
310,66,73861,6,0,P|373:91|381:219,2,202.500007724762,10|2|2,3:0|0:0|0:0,0:0:0:0:
466,260,74661,2,0,P|412:302|297:244,2,202.500007724762,8|2|2,3:0|0:0|0:0,0:0:0:0:
219,298,75461,2,0,P|209:230|316:160,1,202.500007724762,8|0,3:0|0:0,0:0:0:0:
212,162,75861,2,0,L|78:151,1,135.000005149842,8|0,3:0|0:0,0:0:0:0:
512,63,76261,1,4,3:0:0:0:
512,63,77061,6,0,B|495:121|502:160|502:160|475:138|475:138|491:197|471:265,1,236.250009012223,8|0,3:0|0:0,0:0:0:0:
333,187,77861,2,0,P|379:283|477:239,1,236.250009012223,4|0,3:0|0:0,0:0:0:0:
405,211,78661,6,0,B|331:217|331:217|227:284|227:284|125:293,1,292.500008368492,8|0,3:0|0:0,0:0:0:0:
19,175,78961,2,0,B|37:385|37:385|59:306,1,292.500008368492,8|0,3:0|0:0,0:0:0:0:
227,134,79261,2,0,P|252:166|213:132,1,180,8|0,3:0|0:0,0:0:0:0:
372,0,79461,6,0,L|357:156,1,146.250004184246,6|0,3:0|0:0,0:0:0:0:
346,242,79661,1,2,0:0:0:0:
81,121,79761,6,0,L|237:134,1,146.250004184246,10|0,3:0|0:0,0:0:0:0:
358,145,79961,1,2,0:0:0:0:
95,30,80061,6,0,P|22:51|0:165,1,180,10|0,3:0|0:0,0:0:0:0:
118,212,80261,6,0,B|203:261|203:261|313:240,2,202.500007724762,10|2|2,3:0|0:0|0:0,0:0:0:0:
428,326,81061,2,0,B|427:227|427:227|354:143,2,202.500007724762,10|2|0,3:0|0:0|0:0,0:0:0:0:
371,2,81861,2,0,B|286:51|286:51|249:156,1,202.500007724762,8|0,3:0|0:0,0:0:0:0:
486,98,82261,2,0,B|423:120|423:120|356:106,1,135.000005149842,8|0,3:0|0:0,0:0:0:0:
0,0,82661,1,4,3:0:0:0:
0,0,83461,6,0,P|19:34|19:130,1,135.000005149842,10|0,3:0|0:0,0:0:0:0:
198,224,84061,2,0,P|187:186|119:118,1,135.000005149842,10|0,3:0|0:0,0:0:0:0:
282,167,84661,2,0,P|347:181|397:225,1,135.000005149842,10|0,3:0|0:0,0:0:0:0:
508,118,85261,2,0,P|475:122|444:135,1,67.5000025749208,10|0,3:0|0:0,0:0:0:0:
295,24,85461,2,0,P|351:59|417:64,1,135.000005149842,10|0,3:0|0:0,0:0:0:0:
512,0,86261,2,0,L|512:138,1,135.000005149842,10|0,3:0|0:0,0:0:0:0:
463,319,86661,6,0,P|429:300|333:300,1,135.000005149842,10|0,3:0|0:0,0:0:0:0:
126,309,87261,2,0,P|164:308|248:260,1,135.000005149842,10|0,3:0|0:0,0:0:0:0:
0,153,87861,2,0,P|65:167|115:211,1,135.000005149842,10|0,3:0|0:0,0:0:0:0:
289,106,88461,2,0,P|256:110|225:123,1,67.5000025749208,10|0,3:0|0:0,0:0:0:0:
390,18,88661,2,0,P|445:54|512:58,1,135.000005149842,10|0,3:0|0:0,0:0:0:0:
512,0,89461,2,0,L|512:138,1,135.000005149842,10|0,3:0|0:0,0:0:0:0:
442,276,89861,6,0,P|445:210|415:150,1,135.000005149842,10|0,3:0|0:0,0:0:0:0:
229,234,90461,2,0,P|284:270|350:274,1,135.000005149842,10|0,3:0|0:0,0:0:0:0:
371,70,91061,2,0,P|312:99|275:155,1,135.000005149842,10|0,3:0|0:0,0:0:0:0:
182,311,91661,2,0,P|172:267|148:235,1,67.5000025749208,10|0,3:0|0:0,0:0:0:0:
102,32,91861,2,0,P|166:45|216:89,1,135.000005149842,10|4,3:0|0:0,0:0:0:0:
512,0,92661,2,0,L|512:135,1,135.000005149842,10|0,3:0|0:0,0:0:0:0:
347,192,93061,6,0,P|298:147|233:134,1,135.000005149842,10|0,3:0|0:0,0:0:0:0:
30,193,93661,2,0,P|95:206|158:186,1,135.000005149842,10|0,3:0|0:0,0:0:0:0:
363,192,94261,2,0,P|309:143|237:128,1,135.000005149842,10|0,3:0|0:0,0:0:0:0:
170,11,94861,2,0,P|153:62|156:98,1,67.5000025749208,10|0,3:0|0:0,0:0:0:0:
254,236,95061,2,0,P|274:299|261:365,1,135.000005149842,10|4,3:0|0:0,0:0:0:0:
512,0,95861,2,0,L|512:135,1,135.000005149842,10|0,3:0|0:0,0:0:0:0:
512,135,96261,6,0,P|487:122|423:128,1,90
359,192,97061,1,2,0:0:0:0:
359,192,97661,1,0,0:0:0:0:
338,182,97761,1,0,0:0:0:0:
316,180,97861,2,0,L|261:180,1,45,2|0,0:0|0:0,0:0:0:0:
161,225,98561,1,0,0:0:0:0:
161,225,98661,2,0,L|206:225,1,45,2|0,0:0|0:0,0:0:0:0:
316,180,99061,2,0,L|261:180,1,45
175,87,99461,5,2,0:0:0:0:
102,95,99661,1,0,0:0:0:0:
50,147,99861,1,0,0:0:0:0:
40,219,100061,1,0,0:0:0:0:
171,297,100261,1,2,0:0:0:0:
161,225,100461,1,0,0:0:0:0:
293,312,100661,1,2,0:0:0:0:
283,384,100861,1,0,0:0:0:0:
405,225,101061,5,2,0:0:0:0:
339,178,101261,1,0,0:0:0:0:
262,200,101461,1,0,0:0:0:0:
230,272,101661,1,2,0:0:0:0:
406,318,101861,2,0,L|296:327,1,90,2|0,0:0|0:0,0:0:0:0:
316,325,102661,6,0,L|319:281,1,45
183,208,103061,2,0,L|179:164,1,45
389,34,103461,2,0,P|395:66|387:99,1,67.5000025749208,2|0,0:0|0:0,0:0:0:0:
123,34,103861,2,0,P|116:66|124:99,1,67.5000025749208,2|0,0:0|0:0,0:0:0:0:
316,146,104261,6,0,P|271:115|191:146,1,135.000005149842,2|0,0:0|0:0,0:0:0:0:
198,136,104661,5,2,0:0:0:0:
148,268,104861,1,0,0:0:0:0:
310,282,105061,5,2,0:0:0:0:
210,217,105261,1,0,0:0:0:0:
152,357,105461,5,2,0:0:0:0:
241,278,105661,1,0,0:0:0:0:
340,343,105861,6,0,P|384:362|423:352,1,90,2|0,0:0|0:0,0:0:0:0:
474,297,106461,1,2,0:0:0:0:
494,177,106661,2,0,L|490:223,1,45,2|0,0:0|0:0,0:0:0:0:
417,144,107061,2,0,L|421:189,1,45,2|0,0:0|0:0,0:0:0:0:
334,124,107461,6,0,P|306:116|276:115,1,45,2|0,0:0|0:0,0:0:0:0:
221,138,107861,5,2,0:0:0:0:
199,228,108061,1,0,0:0:0:0:
38,162,108261,5,2,0:0:0:0:
130,164,108461,1,0,0:0:0:0:
131,0,108661,5,2,0:0:0:0:
87,82,108861,1,0,0:0:0:0:
306,40,109061,6,0,P|266:20|222:22,1,90,2|0,0:0|0:0,0:0:0:0:
181,80,109661,1,2,0:0:0:0:
284,198,109861,2,0,P|253:184|226:163,1,67.5,2|0,0:0|0:0,0:0:0:0:
65,181,110261,2,0,P|98:176|130:163,1,67.5,2|0,0:0|0:0,0:0:0:0:
178,248,110661,6,0,L|175:346,1,67.5000025749208,2|0,0:0|0:0,0:0:0:0:
134,384,111061,5,2,0:0:0:0:
90,257,111261,1,0,0:0:0:0:
219,188,111461,5,2,0:0:0:0:
175,315,111661,1,0,0:0:0:0:
304,384,111861,5,2,0:0:0:0:
260,257,112061,1,0,0:0:0:0:
391,282,112261,5,2,0:0:0:0:
320,308,112461,1,0,0:0:0:0:
320,308,112861,5,2,0:0:0:0:
349,142,113061,2,0,L|334:218,1,67.5000025749208,2|0,0:0|0:0,0:0:0:0:
163,142,113461,2,0,L|178:218,1,67.5000025749208,2|0,0:0|0:0,0:0:0:0:
231,76,113861,5,2,0:0:0:0:
171,48,114061,1,0,0:0:0:0:
107,66,114261,1,2,0:0:0:0:
71,122,114461,1,0,0:0:0:0:
28,221,114661,5,2,0:0:0:0:
98,186,114861,1,0,0:0:0:0:
176,208,115061,1,2,0:0:0:0:
219,276,115261,1,0,0:0:0:0:
205,356,115461,6,0,B|282:332|254:379|349:357,1,135.000005149842,2|0,0:0|0:0,0:0:0:0:
405,311,116061,1,2,0:0:0:0:
347,183,116261,2,0,P|376:199|396:227,1,67.5000025749208,2|0,0:0|0:0,0:0:0:0:
405,311,116661,1,2,0:0:0:0:
475,197,116861,1,2,0:0:0:0:
396,227,117061,5,2,0:0:0:0:
326,113,117261,1,2,0:0:0:0:
263,231,117461,2,0,P|223:240|187:237,1,67.5000025749208,2|0,0:0|0:0,0:0:0:0:
107,140,117861,1,2,0:0:0:0:
107,140,118261,2,0,P|84:174|78:212,1,67.5000025749208,2|0,0:0|0:0,0:0:0:0:
41,43,118661,6,0,B|119:27|84:71|187:63,1,135.000005149842,2|0,0:0|0:0,0:0:0:0:
256,110,119261,1,2,0:0:0:0:
471,43,119461,2,0,B|393:27|428:71|325:63,1,135.000005149842,2|0,0:0|0:0,0:0:0:0:
256,110,120061,1,2,0:0:0:0:
257,369,120261,6,0,B|299:262|219:294|257:176,1,188.999994232178,2|0,0:0|0:0,0:0:0:0:
256,110,121861,6,0,L|256:86,1,15.7499995193482
256,110,122061,2,0,L|256:86,1,15.7499995193482
187,144,122461,6,0,L|170:127,1,15.7499995193482
256,110,122661,2,0,L|256:86,1,15.7499995193482
325,144,122861,2,0,L|342:127,1,15.7499995193482
325,144,123261,6,0,L|342:127,1,15.7499995193482
256,110,123461,2,0,L|256:86,1,15.7499995193482
187,144,123661,2,0,L|170:127,1,15.7499995193482
187,144,124061,6,0,L|170:128,1,15.7499995193482
325,144,124261,2,0,L|342:127,1,15.7499995193482
256,110,124461,2,0,L|256:86,1,15.7499995193482
289,212,124661,2,0,P|254:220|221:213,1,67.5
223,213,125061,6,0,L|223:240,1,27,8|0,3:0|0:0,2:0:0:0:
290,146,125861,2,0,B|225:92|156:124|134:183|134:183|157:98|83:33|30:40|30:40|95:89|174:46|174:46|253:8|322:46|322:46|249:75|181:28,1,810.000030899049,4|0,3:0|0:0,2:0:0:0:
465,192,126661,6,0,L|436:192,1,27,8|0,3:0|0:0,2:0:0:0:
371,125,127461,2,0,B|317:190|349:259|408:281|408:281|411:221|302:178|234:246|234:246|167:313|126:282|126:282|190:248|243:325|243:325|177:386|104:358,1,810.000030899049,4|0,3:0|0:0,2:0:0:0:
32,253,128261,6,0,L|32:226,1,27,8|0,3:0|0:0,2:0:0:0:
102,127,129061,2,0,B|252:88|249:161|258:214|317:200|409:182|466:91|388:-15|326:-38|246:-9|204:28|204:104|240:145|240:145|250:194|206:243|206:243|149:230|138:192,1,810.000030899049,4|0,3:0|0:0,2:0:0:0:
313,235,129861,6,0,L|313:262,1,27,8|0,3:0|0:0,2:0:0:0:
195,357,130661,2,0,B|333:294|286:401|461:352,1,270.000010299683,4|0,3:0|0:0,2:0:0:0:
454,269,130961,2,0,P|350:285|285:140,1,270.000010299683,4|0,3:0|0:0,2:0:0:0:
350,0,131261,2,0,P|377:57|360:127,1,135.000005149842,4|0,3:0|0:0,2:0:0:0:
199,120,131461,6,0,L|172:120,1,27,8|0,3:0|0:0,2:0:0:0:
116,25,132261,2,0,B|50:68|43:136|75:218|155:229|155:229|126:161|41:149|-40:170|-95:276|-15:366|-15:366|71:315|45:255|45:255|31:297,1,810.000030899049,4|0,3:0|0:0,2:0:0:0:
288,384,133061,6,0,L|315:384,1,27,8|0,3:0|0:0,2:0:0:0:
511,303,133861,2,0,B|506:204|417:178|354:179|307:248|307:248|368:182|348:91|280:54|236:56|236:56|335:-16|436:59|436:59|433:99|394:129,1,810.000030899049,4|0,3:0|0:0,2:0:0:0:
229,167,134661,6,0,L|202:167,1,27,8|0,3:0|0:0,2:0:0:0:
133,81,135461,2,0,B|31:177|143:298|216:274|216:274|162:214|54:258|39:347|39:347|215:325|102:401|224:406|274:382|296:366|320:343|343:221,1,810.000030899049,4|0,3:0|0:0,2:0:0:0:
313,176,136261,6,0,L|313:188,1,9,8|0,3:0|0:0,2:0:0:0:
312,323,136661,2,0,L|312:311,1,9,8|0,3:0|0:0,2:0:0:0:
313,185,137061,5,8,3:0:0:0:
312,314,137161,1,8,3:0:0:0:
313,176,137261,1,8,3:0:0:0:
312,323,137361,1,8,3:0:0:0:
440,251,137461,6,0,B|476:229|527:241|527:241|478:212|475:171|475:171|478:212|431:262,1,270.000010299683,8|0,3:0|0:0,2:0:0:0:
313,176,137661,2,0,B|284:127|335:96|335:96|284:127|255:74|255:74|284:127|235:154|235:154|284:127|312:175,1,375,4|2,3:0|0:0,2:0:0:0:
312,323,137861,5,2,0:0:0:0:
312,323,138461,1,2,0:0:0:0:
303,330,138561,1,2,0:0:0:0:
292,333,138661,2,0,L|234:333,1,45,2|2,0:0|0:0,0:0:0:0:
175,243,139461,6,0,L|171:290,1,45,2|0,0:0|0:0,0:0:0:0:
46,189,139861,2,0,L|51:256,1,67.5000025749208,2|0,0:0|0:0,0:0:0:0:
175,135,140261,1,2,0:0:0:0:
175,135,141061,5,10,0:0:0:0:
232,98,141361,1,8,0:0:0:0:
297,111,141661,1,8,0:0:0:0:
175,135,141861,5,10,0:0:0:0:
232,98,142161,1,8,0:0:0:0:
297,111,142461,1,8,0:0:0:0:
215,273,142661,5,10,0:0:0:0:
280,286,142961,1,8,0:0:0:0:
337,249,143261,1,8,0:0:0:0:
215,273,143461,5,10,0:0:0:0:
215,273,144261,5,10,0:0:0:0:
98,185,144561,1,8,0:0:0:0:
81,331,144861,1,8,0:0:0:0:
215,273,145061,5,10,0:0:0:0:
98,185,145361,1,8,0:0:0:0:
81,331,145661,1,8,0:0:0:0:
182,196,145861,5,10,0:0:0:0:
245,344,146161,1,8,0:0:0:0:
341,214,146461,1,8,0:0:0:0:
81,331,146661,6,0,L|81:311,1,18,2|2,0:0|0:0,0:0:0:0:
81,53,147461,5,10,0:0:0:0:
80,56,147561,1,0,0:0:0:0:
79,60,147661,1,0,0:0:0:0:
79,64,147761,1,8,0:0:0:0:
80,68,147861,1,0,0:0:0:0:
81,72,147961,1,0,0:0:0:0:
82,76,148061,1,8,0:0:0:0:
83,79,148161,1,0,0:0:0:0:
85,83,148261,1,10,0:0:0:0:
92,79,148361,1,0,0:0:0:0:
98,76,148461,1,0,0:0:0:0:
105,74,148561,1,8,0:0:0:0:
112,73,148661,1,0,0:0:0:0:
120,73,148761,1,0,0:0:0:0:
127,73,148861,1,8,0:0:0:0:
134,75,148961,1,0,0:0:0:0:
141,77,149061,5,10,0:0:0:0:
152,83,149161,1,0,0:0:0:0:
165,88,149261,1,0,0:0:0:0:
178,90,149361,1,8,0:0:0:0:
192,91,149461,1,0,0:0:0:0:
205,90,149561,1,0,0:0:0:0:
218,86,149661,1,8,0:0:0:0:
230,81,149761,1,0,0:0:0:0:
242,73,149861,1,10,0:0:0:0:
235,86,149961,1,0,0:0:0:0:
231,100,150061,1,0,0:0:0:0:
228,114,150161,1,8,0:0:0:0:
228,129,150261,1,0,0:0:0:0:
229,143,150361,1,0,0:0:0:0:
232,157,150461,1,8,0:0:0:0:
237,171,150561,1,0,0:0:0:0:
243,184,150661,5,10,0:0:0:0:
260,199,150761,1,0,0:0:0:0:
281,210,150861,1,0,0:0:0:0:
304,215,150961,1,8,0:0:0:0:
327,214,151061,1,0,0:0:0:0:
350,207,151161,1,0,0:0:0:0:
370,194,151261,1,8,0:0:0:0:
385,177,151361,1,0,0:0:0:0:
396,156,151461,1,10,0:0:0:0:
401,120,151561,1,0,0:0:0:0:
393,86,151661,1,0,0:0:0:0:
371,57,151761,1,8,0:0:0:0:
339,40,151861,1,0,0:0:0:0:
304,37,151961,1,0,0:0:0:0:
270,49,152061,1,8,0:0:0:0:
242,73,152161,2,0,L|244:67,1,4.5
256,192,152286,12,0,153836,0:0:0:0:
202,210,153861,6,0,B|215:153|215:153|270:136|270:136|310:178|310:178|296:232|296:232|242:247|242:247|205:211,1,337.049989714051,8|0,3:0|0:0,0:0:0:0:
137,65,154661,2,0,B|23:98|23:98|109:180|109:180|145:60,1,337.049989714051,4|0,3:0|0:0,0:0:0:0:
236,49,155461,6,0,B|444:2|444:2|374:56,1,292.500008368492,8|0,3:0|0:0,0:0:0:0:
268,136,155761,2,0,P|243:260|368:243,1,292.500008368492,8|0,3:0|0:0,0:0:0:0:
423,190,156061,2,0,P|357:167|300:209,1,146.250004184246,8|0,3:0|0:0,0:0:0:0:
222,384,156261,2,0,L|222:346,2,33.75,6|2|2,3:0|0:0|0:0,0:0:0:0:
222,384,157061,6,0,P|228:329|281:267,2,135,10|2|2,3:0|0:0|0:0,0:0:0:0:
146,285,157861,2,0,P|125:233|58:187,2,135,10|2|2,3:0|0:0|0:0,0:0:0:0:
325,154,158661,2,0,P|281:188|200:195,1,135,8|0,3:0|0:0,0:0:0:0:
161,94,159061,2,0,P|197:119|241:128,1,90,8|0,3:0|3:0,0:0:0:0:
512,0,159461,5,4,3:0:0:0:
512,0,159861,1,2,3:0:0:0:
480,60,159961,1,2,3:0:0:0:
420,0,160061,1,2,3:0:0:0:
372,90,160161,1,2,3:0:0:0:
318,3,160261,6,0,P|230:39|299:125,1,236.250009012223,8|0,3:0|0:0,0:0:0:0:
452,169,161061,2,0,B|383:175|383:175|314:225|314:225|230:232,1,236.250009012223,4|0,3:0|0:0,0:0:0:0:
169,159,161861,6,0,B|151:364|151:364|111:287,1,292.500008368492,8|0,3:0|0:0,0:0:0:0:
79,131,162161,2,0,P|171:64|254:198,1,292.500008368492,8|0,3:0|0:0,0:0:0:0:
474,79,162461,2,0,P|402:83|344:126,1,146.250004184246,8|0,3:0|0:0,0:0:0:0:
321,384,162661,6,0,L|333:238,1,146.250004184246,10|0,3:0|0:0,0:0:0:0:
344,126,162861,1,2,0:0:0:0:
231,292,162961,6,0,L|218:146,1,146.250004184246,10|0,3:0|0:0,0:0:0:0:
207,34,163161,1,2,0:0:0:0:
124,217,163261,6,0,L|86:75,1,146.250004184246,10|0,3:0|0:0,0:0:0:0:
36,282,163461,6,0,P|93:324|168:317,2,135,10|2|2,3:0|0:0|0:0,0:0:0:0:
218,134,164261,2,0,P|152:162|121:230,2,135,10|2|2,3:0|0:0|0:0,0:0:0:0:
255,365,165061,2,0,P|262:293|219:232,1,135,10|2,3:0|0:0,0:0:0:0:
316,229,165461,2,0,P|341:219|413:227,1,90,8|0,3:0|0:0,0:0:0:0:
512,384,165861,5,4,3:0:0:0:
512,384,166261,1,2,3:0:0:0:
439,343,166361,1,2,3:0:0:0:
495,276,166461,1,2,3:0:0:0:
387,246,166561,1,2,3:0:0:0:
483,149,166661,6,0,B|430:117|366:146|366:146|299:180|253:127,1,236.250009012223,8|0,3:0|0:0,2:0:0:0:
83,143,167461,2,0,P|133:146|182:-9,1,236.250009012223,4|0,3:0|0:0,0:0:0:0:
43,58,168261,6,0,P|7:89|126:229,1,292.500008368492,8|0,3:0|0:0,0:0:0:0:
238,117,168561,2,0,B|287:69|287:69|268:311,1,292.500008368492,8|0,3:0|0:0,0:0:0:0:
433,384,168861,2,0,B|444:238,1,146.250004184246,8|0,3:0|0:0,0:0:0:0:
463,0,169061,2,0,L|463:36,2,33.75,4|2|2,3:3|0:0|0:0,0:0:0:0:
463,0,169861,6,0,P|393:58|294:9,2,202.500007724762,10|2|2,3:0|0:0|0:0,0:0:0:0:
83,143,170661,2,0,P|153:85|252:134,2,202.500007724762,10|2|2,3:0|0:0|0:0,0:0:0:0:
146,269,171461,2,0,B|181:319|181:319|169:178,1,202.500007724762,8|0,3:0|0:0,0:0:0:0:
331,166,171861,2,0,B|303:197|303:197|311:290,1,135.000005149842,8|0,3:0|0:0,0:0:0:0:
512,384,172261,5,4,3:0:0:0:
512,384,172661,1,2,3:0:0:0:
481,313,172761,1,2,3:0:0:0:
407,384,172861,1,2,3:0:0:0:
365,258,172961,1,2,3:0:0:0:
277,358,173061,6,0,B|248:378|248:378|248:216|248:216|280:252,1,236.250009012223,8|0,3:0|0:0,0:0:0:0:
381,147,173861,2,0,P|455:214|364:257,1,236.250009012223,4|0,3:0|0:0,0:0:0:0:
298,83,174661,6,0,B|117:29|191:179|-30:118,1,315.000003004074,8|0,3:0|0:0,0:0:0:0:
346,2,174961,2,0,P|387:52|235:155,1,315.000003004074,8|0,3:0|0:0,0:0:0:0:
114,50,175261,2,0,P|182:11|260:9,1,157.500001502037,8|0,3:0|0:0,0:0:0:0:
467,62,175461,6,0,L|451:238,1,157.500001502037,10|0,3:0|0:0,0:0:0:0:
440,384,175661,1,2,0:0:0:0:
260,9,175761,6,0,L|275:185,1,157.500001502037,10|0,3:0|0:0,0:0:0:0:
287,331,175961,1,2,0:0:0:0:
45,1,176061,6,0,L|90:171,1,157.500001502037,10|0,3:0|0:0,0:0:0:0:
127,313,176261,6,0,P|105:271|78:355,2,202.500007724762,10|2|2,3:0|0:0|0:0,0:0:0:0:
308,226,177061,2,0,P|244:277|244:196,2,202.500007724762,10|2|2,3:0|0:0|0:0,0:0:0:0:
79,82,177861,2,0,P|155:111|85:153,1,202.500007724762,10|2,3:0|0:0,0:0:0:0:
198,33,178261,2,0,B|255:62|255:62|339:45,1,135.000005149842,8|0,3:0|0:0,0:0:0:0:
512,0,178661,5,4,3:0:0:0:
512,0,179061,1,2,3:0:0:0:
491,88,179161,1,2,3:0:0:0:
373,25,179261,1,2,3:0:0:0:
361,166,179361,1,2,3:0:0:0:
213,90,179461,6,0,P|179:109|131:193,1,135.000005149842,10|0,3:0|0:0,0:0:0:0:
0,234,180061,2,0,P|38:234|122:282,1,135.000005149842,10|0,3:0|0:0,0:0:0:0:
256,252,180661,2,0,P|222:271|174:355,1,135.000005149842,10|0,3:0|0:0,0:0:0:0:
237,176,181261,2,0,P|271:176|313:197,1,67.5000025749208,10|0,3:0|0:0,0:0:0:0:
344,307,181461,2,0,P|377:287|425:203,1,135.000005149842,10|4,3:0|0:0,0:0:0:0:
512,0,182261,2,0,L|512:84,1,67.5000025749208,10|0,3:0|0:0,0:0:0:0:
418,125,182461,2,0,L|418:41,1,67.5000025749208,2|0,3:0|0:0,0:0:0:0:
324,114,182661,6,0,P|290:95|194:94,1,135.000005149842,10|0,3:0|0:0,0:0:0:0:
167,281,183261,2,0,P|200:261|248:177,1,135.000005149842,10|0,3:0|0:0,0:0:0:0:
126,54,183861,2,0,P|119:120|145:181,1,135.000005149842,10|0,3:0|0:0,0:0:0:0:
296,339,184461,2,0,P|287:307|269:279,1,67.5000025749208,10|0,3:0|0:0,0:0:0:0:
367,268,184661,2,0,P|429:291|495:282,1,135.000005149842,10|4,3:0|0:0,0:0:0:0:
512,0,185461,2,0,L|512:138,1,135.000005149842,10|0,3:0|0:0,0:0:0:0:
391,173,185861,6,0,B|265:170|328:241|198:237,1,207.000003948212,10|0,3:0|0:0,0:0:0:0:
64,149,186461,2,0,P|105:201|116:267,1,135.000005149842,10|0,3:0|0:0,0:0:0:0:
281,74,187061,2,0,P|215:85|163:127,1,135.000005149842,10|0,3:0|0:0,0:0:0:0:
257,145,187661,2,0,P|301:144|336:155,1,67.5000025749208,10|0,3:0|0:0,0:0:0:0:
427,259,187861,2,0,P|403:196|412:130,1,135.000005149842,10|4,3:0|0:0,0:0:0:0:
512,0,188661,2,0,L|512:84,1,67.5000025749208,10|0,3:0|0:0,0:0:0:0:
418,125,188861,2,0,L|418:41,1,67.5000025749208,2|0,3:0|0:0,0:0:0:0:
324,114,189061,6,0,P|290:132|194:133,1,135.000005149842,10|0,3:0|0:0,0:0:0:0:
78,50,189661,2,0,P|96:84|97:179,1,135.000005149842,10|0,3:0|0:0,0:0:0:0:
14,296,190261,2,0,P|48:277|143:276,1,135.000005149842,10|0,3:0|0:0,0:0:0:0:
260,360,190861,2,0,P|241:326|235:273,1,67.5000025749208,10|0,3:0|0:0,0:0:0:0:
287,137,191061,2,0,P|305:171|306:266,1,135.000005149842,10|4,3:0|0:0,0:0:0:0:
512,0,191861,2,0,L|512:138,1,135.000005149842,10|0,3:0|0:0,0:0:0:0:
436,150,192261,5,0,0:0:0:0:
389,250,192394,1,0,0:0:0:0:
326,159,192527,1,0,0:0:0:0:
442,153,192661,5,0,0:0:0:0:
383,253,192794,1,0,0:0:0:0:
326,152,192927,1,0,0:0:0:0:
447,157,193061,5,0,0:0:0:0:
377,256,193194,1,0,0:0:0:0:
326,145,193327,1,0,0:0:0:0:
453,161,193461,5,0,0:0:0:0:
371,258,193594,1,0,0:0:0:0:
328,138,193727,1,0,0:0:0:0:
445,239,193861,5,0,0:0:0:0:
307,213,193994,1,0,0:0:0:0:
398,107,194127,1,0,0:0:0:0:
443,247,194261,5,0,0:0:0:0:
301,207,194394,1,0,0:0:0:0:
406,104,194527,1,0,0:0:0:0:
437,252,194661,5,0,0:0:0:0:
300,200,194794,1,0,0:0:0:0:
413,107,194927,1,0,0:0:0:0:
434,259,195061,5,0,0:0:0:0:
295,193,195194,1,0,0:0:0:0:
421,106,195327,1,0,0:0:0:0:
340,274,195461,5,0,0:0:0:0:
325,104,195594,1,0,0:0:0:0:
479,177,195727,1,0,0:0:0:0:
255,272,195861,5,0,0:0:0:0:
380,184,195994,1,0,0:0:0:0:
392,335,196127,1,0,0:0:0:0:
295,193,196261,5,0,0:0:0:0:
340,274,196394,1,0,0:0:0:0:
292,353,196527,1,0,0:0:0:0:
290,205,196661,5,0,0:0:0:0:
328,273,196794,1,0,0:0:0:0:
288,340,196927,1,0,0:0:0:0:
255,272,197061,6,0,L|217:272,1,36
