osu file format v14

[General]
AudioFilename: audio.mp3
AudioLeadIn: 0
PreviewTime: 58782
Countdown: 0
SampleSet: None
StackLeniency: 0.7
Mode: 3
LetterboxInBreaks: 0
SpecialStyle: 0
WidescreenStoryboard: 0

[Editor]
Bookmarks: 136782,137705
DistanceSpacing: 1
BeatDivisor: 4
GridSize: 4
TimelineZoom: 1.5

[Metadata]
Title:world.execute(me);
TitleUnicode:world.execute(me);
Artist:Mili
ArtistUnicode:Mili
Creator:playin14
Version:Execution
Source:
Tags:
BeatmapID:1171439
BeatmapSetID:553248

[Difficulty]
HPDrainRate:8
CircleSize:4
OverallDifficulty:7
ApproachRate:5
SliderMultiplier:1.4
SliderTickRate:1

[Events]
//Background and Video events
0,0,"maxresdefault.jpg",0,0
//Break Periods
//Storyboard Layer 0 (Background)
//Storyboard Layer 1 (Fail)
//Storyboard Layer 2 (Pass)
//Storyboard Layer 3 (Foreground)
//Storyboard Sound Samples

[TimingPoints]
167,461.538461538462,4,2,1,40,1,0
59243,-100,4,2,1,40,0,1
74013,-100,4,2,1,40,0,0
162628,-100,4,2,1,40,0,1
192167,-100,4,2,1,40,0,0

[HitObjects]
320,192,167,5,0,0:0:0:0:
320,192,628,1,0,0:0:0:0:
320,192,1090,1,0,0:0:0:0:
320,192,1551,1,0,0:0:0:0:
320,192,2013,1,0,0:0:0:0:
320,192,2474,1,0,0:0:0:0:
320,192,2936,1,0,0:0:0:0:
320,192,3397,1,0,0:0:0:0:
192,192,3859,1,0,0:0:0:0:
192,192,4320,1,0,0:0:0:0:
192,192,4782,1,0,0:0:0:0:
192,192,5243,1,0,0:0:0:0:
192,192,5705,1,0,0:0:0:0:
192,192,6167,1,0,0:0:0:0:
192,192,6628,1,0,0:0:0:0:
192,192,7090,1,0,0:0:0:0:
448,192,7551,1,0,0:0:0:0:
448,192,8013,1,0,0:0:0:0:
448,192,8474,1,0,0:0:0:0:
448,192,8936,1,0,0:0:0:0:
448,192,9397,1,0,0:0:0:0:
448,192,9859,1,0,0:0:0:0:
448,192,10320,1,0,0:0:0:0:
448,192,10782,1,0,0:0:0:0:
64,192,11243,1,0,0:0:0:0:
64,192,11705,1,0,0:0:0:0:
64,192,12167,1,0,0:0:0:0:
64,192,12628,1,0,0:0:0:0:
64,192,13090,1,0,0:0:0:0:
64,192,13551,1,0,0:0:0:0:
64,192,14936,128,0,15167:0:0:0:0:
192,192,14936,1,0,0:0:0:0:
320,192,14936,1,0,0:0:0:0:
448,192,14936,1,0,0:0:0:0:
192,192,15167,128,0,15397:0:0:0:0:
320,192,15167,1,0,0:0:0:0:
448,192,15167,128,0,15282:0:0:0:0:
320,192,15397,128,0,15628:0:0:0:0:
64,192,15397,1,0,0:0:0:0:
448,192,15397,1,0,0:0:0:0:
448,192,15628,128,0,15859:0:0:0:0:
192,192,15628,1,0,0:0:0:0:
64,192,15628,128,0,15743:0:0:0:0:
192,192,15859,128,0,16090:0:0:0:0:
64,192,15859,1,0,0:0:0:0:
320,192,15859,1,0,0:0:0:0:
64,192,16090,128,0,16320:0:0:0:0:
448,192,16090,1,0,0:0:0:0:
320,192,16090,128,0,16205:0:0:0:0:
448,192,16320,128,0,16551:0:0:0:0:
320,192,16320,1,0,0:0:0:0:
192,192,16320,1,0,0:0:0:0:
320,192,16551,128,0,16782:0:0:0:0:
192,192,16551,1,0,0:0:0:0:
64,192,16551,128,0,16667:0:0:0:0:
192,192,16782,128,0,17013:0:0:0:0:
64,192,16782,1,0,0:0:0:0:
448,192,16782,1,0,0:0:0:0:
448,192,17013,128,0,17243:0:0:0:0:
320,192,17013,1,0,0:0:0:0:
64,192,17013,128,0,17128:0:0:0:0:
320,192,17243,128,0,17474:0:0:0:0:
64,192,17243,1,0,0:0:0:0:
192,192,17243,1,0,0:0:0:0:
64,192,17474,128,0,17705:0:0:0:0:
448,192,17474,1,0,0:0:0:0:
192,192,17474,128,0,17590:0:0:0:0:
448,192,17705,128,0,17936:0:0:0:0:
320,192,17705,1,0,0:0:0:0:
192,192,17705,1,0,0:0:0:0:
192,192,17936,128,0,18167:0:0:0:0:
320,192,17936,1,0,0:0:0:0:
64,192,17936,128,0,18051:0:0:0:0:
320,192,18167,128,0,18397:0:0:0:0:
64,192,18167,1,0,0:0:0:0:
448,192,18167,1,0,0:0:0:0:
448,192,18397,128,0,18628:0:0:0:0:
192,192,18397,1,0,0:0:0:0:
64,192,18397,128,0,18513:0:0:0:0:
192,192,18628,128,0,18859:0:0:0:0:
64,192,18628,1,0,0:0:0:0:
320,192,18628,1,0,0:0:0:0:
320,192,18859,128,0,19090:0:0:0:0:
64,192,18859,1,0,0:0:0:0:
448,192,18859,128,0,18974:0:0:0:0:
64,192,19090,128,0,19320:0:0:0:0:
192,192,19090,1,0,0:0:0:0:
448,192,19090,1,0,0:0:0:0:
320,192,19320,1,0,0:0:0:0:
192,192,19320,128,0,19551:0:0:0:0:
448,192,19320,128,0,19436:0:0:0:0:
320,192,19551,128,0,19782:0:0:0:0:
448,192,19551,1,0,0:0:0:0:
64,192,19551,1,0,0:0:0:0:
64,192,19782,128,0,20013:0:0:0:0:
448,192,19782,1,0,0:0:0:0:
192,192,19782,128,0,19897:0:0:0:0:
448,192,20013,128,0,20243:0:0:0:0:
192,192,20013,1,0,0:0:0:0:
320,192,20013,1,0,0:0:0:0:
192,192,20243,128,0,20474:0:0:0:0:
320,192,20243,1,0,0:0:0:0:
64,192,20243,128,0,20359:0:0:0:0:
320,192,20474,128,0,20705:0:0:0:0:
64,192,20474,1,0,0:0:0:0:
448,192,20474,1,0,0:0:0:0:
64,192,20705,128,0,20936:0:0:0:0:
448,192,20705,1,0,0:0:0:0:
192,192,20705,128,0,20820:0:0:0:0:
448,192,20936,128,0,21167:0:0:0:0:
320,192,20936,1,0,0:0:0:0:
192,192,20936,1,0,0:0:0:0:
192,192,21167,128,0,21397:0:0:0:0:
64,192,21167,1,0,0:0:0:0:
320,192,21167,128,0,21282:0:0:0:0:
320,192,21397,128,0,21628:0:0:0:0:
64,192,21397,1,0,0:0:0:0:
448,192,21397,1,0,0:0:0:0:
448,192,21513,1,0,0:0:0:0:
64,192,21628,128,0,21859:0:0:0:0:
448,192,21628,128,0,21743:0:0:0:0:
192,192,21628,128,0,21743:0:0:0:0:
192,192,21859,128,0,22090:0:0:0:0:
320,192,21859,1,0,0:0:0:0:
448,192,21859,1,0,0:0:0:0:
448,192,22090,128,0,22320:0:0:0:0:
64,192,22090,1,0,0:0:0:0:
320,192,22090,128,0,22205:0:0:0:0:
320,192,22320,1,0,0:0:0:0:
192,192,22320,1,0,0:0:0:0:
64,192,22320,128,0,22551:0:0:0:0:
192,192,22551,128,0,22782:0:0:0:0:
448,192,22551,1,0,0:0:0:0:
320,192,22551,128,0,22667:0:0:0:0:
448,192,22782,128,0,23013:0:0:0:0:
64,192,22782,1,0,0:0:0:0:
320,192,22782,1,0,0:0:0:0:
320,192,23013,128,0,23243:0:0:0:0:
192,192,23013,1,0,0:0:0:0:
64,192,23013,128,0,23128:0:0:0:0:
192,192,23243,128,0,23474:0:0:0:0:
64,192,23243,1,0,0:0:0:0:
448,192,23243,1,0,0:0:0:0:
448,192,23474,128,0,23705:0:0:0:0:
64,192,23474,1,0,0:0:0:0:
320,192,23474,128,0,23590:0:0:0:0:
64,192,23705,128,0,23936:0:0:0:0:
192,192,23705,1,0,0:0:0:0:
320,192,23705,1,0,0:0:0:0:
320,192,23936,128,0,24167:0:0:0:0:
448,192,23936,1,0,0:0:0:0:
192,192,23936,128,0,24051:0:0:0:0:
192,192,24167,128,0,24397:0:0:0:0:
64,192,24167,1,0,0:0:0:0:
448,192,24167,1,0,0:0:0:0:
64,192,24397,128,0,24628:0:0:0:0:
320,192,24397,1,0,0:0:0:0:
448,192,24397,128,0,24513:0:0:0:0:
320,192,24628,128,0,24859:0:0:0:0:
192,192,24628,1,0,0:0:0:0:
448,192,24628,1,0,0:0:0:0:
448,192,24859,128,0,25090:0:0:0:0:
64,192,24859,1,0,0:0:0:0:
192,192,24859,128,0,24974:0:0:0:0:
64,192,25090,128,0,25320:0:0:0:0:
192,192,25090,1,0,0:0:0:0:
320,192,25090,1,0,0:0:0:0:
192,192,25320,128,0,25551:0:0:0:0:
320,192,25320,1,0,0:0:0:0:
448,192,25320,128,0,25436:0:0:0:0:
320,192,25551,128,0,25782:0:0:0:0:
64,192,25551,1,0,0:0:0:0:
448,192,25551,1,0,0:0:0:0:
448,192,25782,128,0,26013:0:0:0:0:
192,192,25782,1,0,0:0:0:0:
64,192,25782,128,0,25897:0:0:0:0:
192,192,26013,128,0,26243:0:0:0:0:
64,192,26013,1,0,0:0:0:0:
320,192,26013,1,0,0:0:0:0:
320,192,26243,128,0,26474:0:0:0:0:
64,192,26243,1,0,0:0:0:0:
448,192,26243,128,0,26359:0:0:0:0:
64,192,26474,128,0,26705:0:0:0:0:
192,192,26474,1,0,0:0:0:0:
448,192,26474,1,0,0:0:0:0:
448,192,26705,128,0,26936:0:0:0:0:
320,192,26705,1,0,0:0:0:0:
192,192,26705,128,0,26820:0:0:0:0:
320,192,26936,128,0,27167:0:0:0:0:
64,192,26936,1,0,0:0:0:0:
192,192,26936,1,0,0:0:0:0:
192,192,27167,128,0,27397:0:0:0:0:
448,192,27167,1,0,0:0:0:0:
64,192,27167,128,0,27282:0:0:0:0:
448,192,27397,128,0,27628:0:0:0:0:
64,192,27397,1,0,0:0:0:0:
320,192,27397,1,0,0:0:0:0:
64,192,27628,128,0,27859:0:0:0:0:
192,192,27628,1,0,0:0:0:0:
320,192,27628,128,0,27743:0:0:0:0:
192,192,27859,128,0,28090:0:0:0:0:
320,192,27859,1,0,0:0:0:0:
448,192,27859,1,0,0:0:0:0:
320,192,28090,128,0,28320:0:0:0:0:
64,192,28090,1,0,0:0:0:0:
448,192,28090,128,0,28205:0:0:0:0:
64,192,28320,128,0,28551:0:0:0:0:
192,192,28320,1,0,0:0:0:0:
448,192,28320,1,0,0:0:0:0:
192,192,28551,128,0,28782:0:0:0:0:
448,192,28551,1,0,0:0:0:0:
320,192,28551,128,0,28667:0:0:0:0:
448,192,28782,128,0,29013:0:0:0:0:
64,192,28782,1,0,0:0:0:0:
320,192,28782,1,0,0:0:0:0:
192,192,28897,1,0,0:0:0:0:
320,192,28897,1,0,0:0:0:0:
320,192,29013,128,0,29243:0:0:0:0:
64,192,29013,1,0,0:0:0:0:
192,192,29013,128,0,29128:0:0:0:0:
64,192,29243,128,0,29474:0:0:0:0:
192,192,29243,1,0,0:0:0:0:
448,192,29243,1,0,0:0:0:0:
192,192,29474,128,0,29705:0:0:0:0:
320,192,29474,1,0,0:0:0:0:
448,192,29474,128,0,29590:0:0:0:0:
64,192,29705,1,0,0:0:0:0:
320,192,29705,1,0,0:0:0:0:
448,192,29705,1,0,0:0:0:0:
192,192,29820,1,0,0:0:0:0:
320,192,29936,1,0,0:0:0:0:
448,192,30051,1,0,0:0:0:0:
320,192,30167,1,0,0:0:0:0:
64,192,30167,1,0,0:0:0:0:
192,192,30282,1,0,0:0:0:0:
448,192,30397,1,0,0:0:0:0:
320,192,30628,1,0,0:0:0:0:
192,192,30628,1,0,0:0:0:0:
448,192,30743,1,0,0:0:0:0:
64,192,30859,1,0,0:0:0:0:
320,192,31090,1,0,0:0:0:0:
448,192,31090,1,0,0:0:0:0:
192,192,31320,1,0,0:0:0:0:
320,192,31551,1,0,0:0:0:0:
64,192,31551,1,0,0:0:0:0:
448,192,31551,128,0,31667:0:0:0:0:
320,192,31782,1,0,0:0:0:0:
192,192,31782,1,0,0:0:0:0:
64,192,31782,128,0,31897:0:0:0:0:
192,192,32013,1,0,0:0:0:0:
320,192,32013,1,0,0:0:0:0:
448,192,32013,128,0,32128:0:0:0:0:
192,192,32243,1,0,0:0:0:0:
448,192,32243,1,0,0:0:0:0:
64,192,32243,128,0,32359:0:0:0:0:
320,192,32474,1,0,0:0:0:0:
64,192,32474,1,0,0:0:0:0:
448,192,32474,128,0,32590:0:0:0:0:
192,192,32705,1,0,0:0:0:0:
320,192,32705,1,0,0:0:0:0:
64,192,32705,128,0,32820:0:0:0:0:
192,192,32936,1,0,0:0:0:0:
320,192,32936,1,0,0:0:0:0:
448,192,32936,128,0,33051:0:0:0:0:
192,192,33167,1,0,0:0:0:0:
448,192,33167,1,0,0:0:0:0:
64,192,33167,128,0,33282:0:0:0:0:
320,192,33397,1,0,0:0:0:0:
64,192,33397,1,0,0:0:0:0:
448,192,33397,1,0,0:0:0:0:
192,192,33513,1,0,0:0:0:0:
320,192,33628,1,0,0:0:0:0:
192,192,33859,1,0,0:0:0:0:
448,192,33859,1,0,0:0:0:0:
320,192,33974,1,0,0:0:0:0:
64,192,34090,1,0,0:0:0:0:
192,192,34205,1,0,0:0:0:0:
320,192,34320,1,0,0:0:0:0:
448,192,34320,1,0,0:0:0:0:
64,192,34436,1,0,0:0:0:0:
192,192,34551,1,0,0:0:0:0:
64,192,34782,1,0,0:0:0:0:
448,192,34782,1,0,0:0:0:0:
320,192,35013,1,0,0:0:0:0:
64,192,35243,128,0,35359:0:0:0:0:
192,192,35243,1,0,0:0:0:0:
448,192,35243,1,0,0:0:0:0:
448,192,35474,128,0,35590:0:0:0:0:
192,192,35474,1,0,0:0:0:0:
320,192,35474,1,0,0:0:0:0:
64,192,35705,128,0,35820:0:0:0:0:
192,192,35705,1,0,0:0:0:0:
320,192,35705,1,0,0:0:0:0:
448,192,35936,128,0,36051:0:0:0:0:
320,192,35936,1,0,0:0:0:0:
64,192,35936,1,0,0:0:0:0:
64,192,36167,128,0,36282:0:0:0:0:
448,192,36167,1,0,0:0:0:0:
192,192,36167,1,0,0:0:0:0:
448,192,36397,128,0,36513:0:0:0:0:
320,192,36397,1,0,0:0:0:0:
192,192,36397,1,0,0:0:0:0:
64,192,36628,128,0,36743:0:0:0:0:
320,192,36628,1,0,0:0:0:0:
192,192,36628,1,0,0:0:0:0:
448,192,36859,128,0,36974:0:0:0:0:
64,192,36859,1,0,0:0:0:0:
320,192,36859,1,0,0:0:0:0:
64,192,37090,1,0,0:0:0:0:
192,192,37090,1,0,0:0:0:0:
448,192,37090,1,0,0:0:0:0:
320,192,37205,1,0,0:0:0:0:
192,192,37320,1,0,0:0:0:0:
64,192,37551,1,0,0:0:0:0:
320,192,37551,1,0,0:0:0:0:
192,192,37667,1,0,0:0:0:0:
448,192,37782,1,0,0:0:0:0:
64,192,37897,1,0,0:0:0:0:
192,192,38013,1,0,0:0:0:0:
320,192,38013,1,0,0:0:0:0:
448,192,38128,1,0,0:0:0:0:
192,192,38243,1,0,0:0:0:0:
320,192,38474,1,0,0:0:0:0:
448,192,38474,1,0,0:0:0:0:
64,192,38705,1,0,0:0:0:0:
320,192,38936,1,0,0:0:0:0:
192,192,38936,1,0,0:0:0:0:
448,192,38936,128,0,39051:0:0:0:0:
192,192,39167,1,0,0:0:0:0:
448,192,39167,1,0,0:0:0:0:
64,192,39167,128,0,39282:0:0:0:0:
320,192,39397,1,0,0:0:0:0:
64,192,39397,1,0,0:0:0:0:
448,192,39397,128,0,39513:0:0:0:0:
192,192,39628,1,0,0:0:0:0:
320,192,39628,1,0,0:0:0:0:
64,192,39628,128,0,39743:0:0:0:0:
192,192,39859,1,0,0:0:0:0:
320,192,39859,1,0,0:0:0:0:
448,192,39859,128,0,39974:0:0:0:0:
448,192,40090,1,0,0:0:0:0:
192,192,40090,1,0,0:0:0:0:
64,192,40090,128,0,40205:0:0:0:0:
64,192,40320,1,0,0:0:0:0:
320,192,40320,1,0,0:0:0:0:
448,192,40320,128,0,40436:0:0:0:0:
192,192,40551,1,0,0:0:0:0:
320,192,40551,1,0,0:0:0:0:
64,192,40551,128,0,40667:0:0:0:0:
192,192,40782,1,0,0:0:0:0:
320,192,40782,1,0,0:0:0:0:
448,192,40782,1,0,0:0:0:0:
64,192,40897,1,0,0:0:0:0:
192,192,41013,1,0,0:0:0:0:
448,192,41128,1,0,0:0:0:0:
320,192,41243,1,0,0:0:0:0:
64,192,41243,1,0,0:0:0:0:
192,192,41359,1,0,0:0:0:0:
448,192,41474,1,0,0:0:0:0:
320,192,41590,1,0,0:0:0:0:
192,192,41705,1,0,0:0:0:0:
64,192,41705,1,0,0:0:0:0:
320,192,41820,1,0,0:0:0:0:
64,192,41936,1,0,0:0:0:0:
192,192,42167,1,0,0:0:0:0:
448,192,42167,1,0,0:0:0:0:
64,192,42397,1,0,0:0:0:0:
448,192,42513,1,0,0:0:0:0:
192,192,42628,1,0,0:0:0:0:
320,192,42628,1,0,0:0:0:0:
64,192,42628,128,0,42743:0:0:0:0:
320,192,42859,1,0,0:0:0:0:
64,192,42859,1,0,0:0:0:0:
448,192,42859,128,0,42974:0:0:0:0:
64,192,43090,128,0,43205:0:0:0:0:
448,192,43090,1,0,0:0:0:0:
192,192,43090,1,0,0:0:0:0:
448,192,43320,128,0,43436:0:0:0:0:
320,192,43320,1,0,0:0:0:0:
192,192,43320,1,0,0:0:0:0:
192,192,43551,1,0,0:0:0:0:
64,192,43551,128,0,43667:0:0:0:0:
320,192,43551,1,0,0:0:0:0:
448,192,43782,128,0,43897:0:0:0:0:
64,192,43782,1,0,0:0:0:0:
320,192,43782,1,0,0:0:0:0:
448,192,44013,1,0,0:0:0:0:
192,192,44013,1,0,0:0:0:0:
64,192,44013,128,0,44128:0:0:0:0:
448,192,44243,128,0,44359:0:0:0:0:
192,192,44243,1,0,0:0:0:0:
320,192,44243,1,0,0:0:0:0:
64,192,44474,1,0,0:0:0:0:
320,192,44474,1,0,0:0:0:0:
192,192,44474,1,0,0:0:0:0:
448,192,44628,1,0,0:0:0:0:
192,192,44782,1,0,0:0:0:0:
320,192,44936,1,0,0:0:0:0:
448,192,44936,1,0,0:0:0:0:
64,192,45090,1,0,0:0:0:0:
192,192,45243,1,0,0:0:0:0:
448,192,45397,1,0,0:0:0:0:
64,192,45397,1,0,0:0:0:0:
320,192,45513,1,0,0:0:0:0:
192,192,45628,1,0,0:0:0:0:
320,192,45743,1,0,0:0:0:0:
192,192,45859,1,0,0:0:0:0:
448,192,45859,1,0,0:0:0:0:
64,192,45974,1,0,0:0:0:0:
192,192,46090,1,0,0:0:0:0:
320,192,46205,1,0,0:0:0:0:
192,192,46320,1,0,0:0:0:0:
64,192,46320,1,0,0:0:0:0:
320,192,46436,1,0,0:0:0:0:
448,192,46551,1,0,0:0:0:0:
64,192,46782,1,0,0:0:0:0:
320,192,46782,1,0,0:0:0:0:
192,192,46782,1,0,0:0:0:0:
64,192,47013,1,0,0:0:0:0:
448,192,47243,1,0,0:0:0:0:
192,192,47243,1,0,0:0:0:0:
320,192,47359,1,0,0:0:0:0:
448,192,47474,1,0,0:0:0:0:
320,192,47590,1,0,0:0:0:0:
448,192,47705,1,0,0:0:0:0:
64,192,47705,1,0,0:0:0:0:
192,192,47705,1,0,0:0:0:0:
192,192,47936,1,0,0:0:0:0:
320,192,48167,1,0,0:0:0:0:
448,192,48167,1,0,0:0:0:0:
64,192,48282,1,0,0:0:0:0:
192,192,48397,1,0,0:0:0:0:
320,192,48513,1,0,0:0:0:0:
64,192,48628,1,0,0:0:0:0:
192,192,48628,1,0,0:0:0:0:
448,192,48628,1,0,0:0:0:0:
320,192,48743,1,0,0:0:0:0:
192,192,48859,1,0,0:0:0:0:
64,192,48974,1,0,0:0:0:0:
320,192,49090,1,0,0:0:0:0:
192,192,49090,1,0,0:0:0:0:
448,192,49205,1,0,0:0:0:0:
320,192,49320,1,0,0:0:0:0:
192,192,49436,1,0,0:0:0:0:
448,192,49551,1,0,0:0:0:0:
320,192,49551,1,0,0:0:0:0:
64,192,49551,1,0,0:0:0:0:
192,192,49667,1,0,0:0:0:0:
320,192,49782,1,0,0:0:0:0:
448,192,49897,1,0,0:0:0:0:
192,192,50013,1,0,0:0:0:0:
64,192,50013,1,0,0:0:0:0:
320,192,50128,1,0,0:0:0:0:
64,192,50243,1,0,0:0:0:0:
192,192,50474,1,0,0:0:0:0:
320,192,50474,1,0,0:0:0:0:
448,192,50474,1,0,0:0:0:0:
64,192,50590,1,0,0:0:0:0:
448,192,50705,1,0,0:0:0:0:
192,192,50936,1,0,0:0:0:0:
320,192,50936,1,0,0:0:0:0:
64,192,51051,1,0,0:0:0:0:
448,192,51167,1,0,0:0:0:0:
320,192,51397,1,0,0:0:0:0:
192,192,51397,1,0,0:0:0:0:
64,192,51397,1,0,0:0:0:0:
448,192,51513,1,0,0:0:0:0:
64,192,51628,1,0,0:0:0:0:
192,192,51743,1,0,0:0:0:0:
320,192,51859,1,0,0:0:0:0:
448,192,51859,1,0,0:0:0:0:
192,192,51974,1,0,0:0:0:0:
64,192,52090,1,0,0:0:0:0:
448,192,52205,1,0,0:0:0:0:
320,192,52320,1,0,0:0:0:0:
192,192,52320,1,0,0:0:0:0:
64,192,52320,1,0,0:0:0:0:
448,192,52436,1,0,0:0:0:0:
64,192,52551,1,0,0:0:0:0:
192,192,52667,1,0,0:0:0:0:
320,192,52782,1,0,0:0:0:0:
448,192,52782,1,0,0:0:0:0:
64,192,52897,1,0,0:0:0:0:
320,192,53013,1,0,0:0:0:0:
192,192,53128,1,0,0:0:0:0:
448,192,53243,1,0,0:0:0:0:
320,192,53243,1,0,0:0:0:0:
64,192,53243,1,0,0:0:0:0:
192,192,53359,1,0,0:0:0:0:
448,192,53474,1,0,0:0:0:0:
320,192,53590,1,0,0:0:0:0:
192,192,53705,1,0,0:0:0:0:
64,192,53705,1,0,0:0:0:0:
320,192,53936,1,0,0:0:0:0:
448,192,54051,1,0,0:0:0:0:
320,192,54167,1,0,0:0:0:0:
192,192,54167,1,0,0:0:0:0:
64,192,54167,1,0,0:0:0:0:
448,192,54282,1,0,0:0:0:0:
320,192,54397,1,0,0:0:0:0:
192,192,54513,1,0,0:0:0:0:
64,192,54628,1,0,0:0:0:0:
448,192,54628,1,0,0:0:0:0:
320,192,54743,1,0,0:0:0:0:
192,192,54859,1,0,0:0:0:0:
320,192,54974,1,0,0:0:0:0:
192,192,55090,1,0,0:0:0:0:
64,192,55090,1,0,0:0:0:0:
448,192,55090,1,0,0:0:0:0:
320,192,55205,1,0,0:0:0:0:
448,192,55320,1,0,0:0:0:0:
320,192,55436,1,0,0:0:0:0:
448,192,55551,1,0,0:0:0:0:
192,192,55551,1,0,0:0:0:0:
64,192,55724,1,0,0:0:0:0:
192,192,55782,1,0,0:0:0:0:
64,192,55955,1,0,0:0:0:0:
192,192,56013,1,0,0:0:0:0:
320,192,56013,1,0,0:0:0:0:
448,192,56013,1,0,0:0:0:0:
64,192,56186,1,0,0:0:0:0:
192,192,56243,1,0,0:0:0:0:
448,192,56417,1,0,0:0:0:0:
320,192,56474,1,0,0:0:0:0:
64,192,56474,1,0,0:0:0:0:
448,192,56647,1,0,0:0:0:0:
320,192,56705,1,0,0:0:0:0:
448,192,56878,1,0,0:0:0:0:
320,192,56936,1,0,0:0:0:0:
192,192,56936,1,0,0:0:0:0:
64,192,56936,1,0,0:0:0:0:
448,192,57109,1,0,0:0:0:0:
320,192,57167,1,0,0:0:0:0:
448,192,57340,1,0,0:0:0:0:
320,192,57397,1,0,0:0:0:0:
448,192,57570,1,0,0:0:0:0:
64,192,57628,1,0,0:0:0:0:
192,192,57628,1,0,0:0:0:0:
320,192,57628,1,0,0:0:0:0:
448,192,57801,1,0,0:0:0:0:
64,192,57859,1,0,0:0:0:0:
192,192,57859,1,0,0:0:0:0:
320,192,57859,1,0,0:0:0:0:
64,192,58032,1,0,0:0:0:0:
192,192,58090,1,0,0:0:0:0:
64,192,58263,1,0,0:0:0:0:
192,192,58320,1,0,0:0:0:0:
320,192,58320,1,0,0:0:0:0:
448,192,58320,1,0,0:0:0:0:
64,192,58493,1,0,0:0:0:0:
192,192,58551,1,0,0:0:0:0:
320,192,58551,1,0,0:0:0:0:
448,192,58551,1,0,0:0:0:0:
64,192,58782,128,0,59128:0:0:0:0:
192,192,58897,128,0,59128:0:0:0:0:
320,192,59013,128,0,59128:0:0:0:0:
448,192,59128,128,0,59243:0:0:0:0:
192,192,59243,1,0,0:0:0:0:
320,192,59243,1,0,0:0:0:0:
64,192,59243,128,0,59359:0:0:0:0:
320,192,59359,128,0,59474:0:0:0:0:
192,192,59474,128,0,59590:0:0:0:0:
448,192,59590,128,0,59705:0:0:0:0:
192,192,59705,1,0,0:0:0:0:
64,192,59705,1,0,0:0:0:0:
320,192,59705,128,0,59820:0:0:0:0:
64,192,59820,128,0,59936:0:0:0:0:
192,192,59936,128,0,60051:0:0:0:0:
448,192,60051,128,0,60167:0:0:0:0:
320,192,60167,1,0,0:0:0:0:
64,192,60167,128,0,60282:0:0:0:0:
320,192,60282,128,0,60397:0:0:0:0:
192,192,60397,128,0,60513:0:0:0:0:
448,192,60513,128,0,60628:0:0:0:0:
192,192,60628,1,0,0:0:0:0:
320,192,60628,1,0,0:0:0:0:
64,192,60628,128,0,60743:0:0:0:0:
320,192,60743,128,0,60859:0:0:0:0:
192,192,60859,128,0,60974:0:0:0:0:
448,192,60974,128,0,61090:0:0:0:0:
64,192,61090,1,0,0:0:0:0:
320,192,61090,128,0,61205:0:0:0:0:
64,192,61205,128,0,61320:0:0:0:0:
192,192,61320,128,0,61436:0:0:0:0:
448,192,61436,128,0,61551:0:0:0:0:
192,192,61551,1,0,0:0:0:0:
320,192,61551,1,0,0:0:0:0:
64,192,61551,128,0,61667:0:0:0:0:
192,192,61667,128,0,61782:0:0:0:0:
448,192,61782,128,0,61897:0:0:0:0:
320,192,61897,128,0,62013:0:0:0:0:
192,192,62013,1,0,0:0:0:0:
64,192,62013,128,0,62128:0:0:0:0:
320,192,62128,128,0,62243:0:0:0:0:
448,192,62243,128,0,62359:0:0:0:0:
192,192,62359,128,0,62474:0:0:0:0:
320,192,62474,1,0,0:0:0:0:
448,192,62474,1,0,0:0:0:0:
64,192,62474,128,0,62590:0:0:0:0:
320,192,62590,128,0,62705:0:0:0:0:
448,192,62705,128,0,62820:0:0:0:0:
192,192,62820,128,0,62936:0:0:0:0:
64,192,62936,128,0,63282:0:0:0:0:
320,192,62936,1,0,0:0:0:0:
448,192,63051,128,0,63167:0:0:0:0:
192,192,63167,128,0,63282:0:0:0:0:
320,192,63282,128,0,63397:0:0:0:0:
192,192,63397,1,0,0:0:0:0:
64,192,63397,128,0,63513:0:0:0:0:
448,192,63397,1,0,0:0:0:0:
192,192,63513,128,0,63628:0:0:0:0:
448,192,63628,128,0,63743:0:0:0:0:
320,192,63743,128,0,63859:0:0:0:0:
64,192,63859,128,0,64205:0:0:0:0:
192,192,63859,128,0,63974:0:0:0:0:
448,192,63974,128,0,64090:0:0:0:0:
320,192,64090,128,0,64205:0:0:0:0:
448,192,64205,128,0,64320:0:0:0:0:
64,192,64320,1,0,0:0:0:0:
320,192,64320,1,0,0:0:0:0:
192,192,64320,128,0,64436:0:0:0:0:
320,192,64436,128,0,64551:0:0:0:0:
64,192,64551,128,0,64667:0:0:0:0:
192,192,64667,128,0,64782:0:0:0:0:
320,192,64782,1,0,0:0:0:0:
448,192,64782,128,0,65128:0:0:0:0:
64,192,64897,128,0,65013:0:0:0:0:
320,192,65013,128,0,65128:0:0:0:0:
192,192,65128,128,0,65243:0:0:0:0:
320,192,65243,1,0,0:0:0:0:
64,192,65243,1,0,0:0:0:0:
448,192,65243,128,0,65359:0:0:0:0:
320,192,65359,128,0,65474:0:0:0:0:
192,192,65474,128,0,65590:0:0:0:0:
64,192,65590,128,0,65705:0:0:0:0:
192,192,65705,1,0,0:0:0:0:
448,192,65705,128,0,65820:0:0:0:0:
320,192,65705,1,0,0:0:0:0:
320,192,65820,128,0,65936:0:0:0:0:
192,192,65820,1,0,0:0:0:0:
64,192,65936,128,0,66051:0:0:0:0:
192,192,66051,128,0,66167:0:0:0:0:
448,192,66051,1,0,0:0:0:0:
448,192,66167,1,0,0:0:0:0:
64,192,66167,1,0,0:0:0:0:
320,192,66167,128,0,66282:0:0:0:0:
64,192,66282,128,0,66397:0:0:0:0:
448,192,66397,128,0,66513:0:0:0:0:
192,192,66513,128,0,66628:0:0:0:0:
64,192,66628,1,0,0:0:0:0:
320,192,66628,128,0,66743:0:0:0:0:
64,192,66743,128,0,66859:0:0:0:0:
448,192,66859,128,0,66974:0:0:0:0:
192,192,66974,128,0,67090:0:0:0:0:
448,192,67090,1,0,0:0:0:0:
64,192,67090,1,0,0:0:0:0:
320,192,67090,128,0,67205:0:0:0:0:
64,192,67205,128,0,67320:0:0:0:0:
192,192,67320,128,0,67436:0:0:0:0:
448,192,67436,128,0,67551:0:0:0:0:
64,192,67551,1,0,0:0:0:0:
320,192,67551,128,0,67667:0:0:0:0:
192,192,67667,128,0,67782:0:0:0:0:
64,192,67782,128,0,67897:0:0:0:0:
448,192,67897,128,0,68013:0:0:0:0:
320,192,68013,1,0,0:0:0:0:
64,192,68013,1,0,0:0:0:0:
192,192,68013,128,0,68128:0:0:0:0:
448,192,68128,128,0,68243:0:0:0:0:
320,192,68243,128,0,68359:0:0:0:0:
64,192,68359,128,0,68474:0:0:0:0:
320,192,68474,1,0,0:0:0:0:
192,192,68474,128,0,68590:0:0:0:0:
448,192,68590,128,0,68705:0:0:0:0:
64,192,68705,128,0,68820:0:0:0:0:
320,192,68820,128,0,68936:0:0:0:0:
192,192,68936,1,0,0:0:0:0:
64,192,68936,1,0,0:0:0:0:
448,192,68936,1,0,0:0:0:0:
192,192,69051,128,0,69167:0:0:0:0:
448,192,69167,128,0,69282:0:0:0:0:
64,192,69282,128,0,69397:0:0:0:0:
192,192,69397,1,0,0:0:0:0:
320,192,69397,128,0,69513:0:0:0:0:
448,192,69513,128,0,69628:0:0:0:0:
64,192,69628,128,0,69743:0:0:0:0:
192,192,69743,128,0,69859:0:0:0:0:
320,192,69859,1,0,0:0:0:0:
64,192,69859,1,0,0:0:0:0:
448,192,69859,128,0,69974:0:0:0:0:
320,192,69974,128,0,70090:0:0:0:0:
64,192,70090,128,0,70205:0:0:0:0:
192,192,70205,128,0,70320:0:0:0:0:
320,192,70320,1,0,0:0:0:0:
448,192,70320,128,0,70667:0:0:0:0:
64,192,70436,128,0,70551:0:0:0:0:
320,192,70551,128,0,70667:0:0:0:0:
192,192,70667,128,0,70782:0:0:0:0:
448,192,70782,1,0,0:0:0:0:
64,192,70782,128,0,70897:0:0:0:0:
320,192,70897,128,0,71013:0:0:0:0:
192,192,71013,128,0,71128:0:0:0:0:
320,192,71128,128,0,71243:0:0:0:0:
448,192,71243,128,0,71590:0:0:0:0:
64,192,71243,1,0,0:0:0:0:
192,192,71359,128,0,71474:0:0:0:0:
64,192,71474,128,0,71590:0:0:0:0:
320,192,71590,128,0,71705:0:0:0:0:
64,192,71705,1,0,0:0:0:0:
448,192,71705,1,0,0:0:0:0:
192,192,71705,128,0,71820:0:0:0:0:
448,192,71820,128,0,71936:0:0:0:0:
320,192,71936,128,0,72051:0:0:0:0:
64,192,72051,128,0,72167:0:0:0:0:
448,192,72167,1,0,0:0:0:0:
192,192,72167,128,0,72282:0:0:0:0:
320,192,72167,1,0,0:0:0:0:
320,192,72282,128,0,72397:0:0:0:0:
448,192,72397,128,0,72513:0:0:0:0:
64,192,72513,128,0,72628:0:0:0:0:
192,192,72628,128,0,72743:0:0:0:0:
320,192,72628,1,0,0:0:0:0:
448,192,72628,1,0,0:0:0:0:
320,192,72743,128,0,72859:0:0:0:0:
64,192,72743,1,0,0:0:0:0:
448,192,72859,128,0,72974:0:0:0:0:
192,192,72859,1,0,0:0:0:0:
64,192,72974,128,0,73090:0:0:0:0:
320,192,72974,1,0,0:0:0:0:
192,192,73090,128,0,73205:0:0:0:0:
320,192,73090,1,0,0:0:0:0:
448,192,73090,1,0,0:0:0:0:
320,192,73205,128,0,73320:0:0:0:0:
64,192,73205,1,0,0:0:0:0:
448,192,73320,128,0,73436:0:0:0:0:
192,192,73320,1,0,0:0:0:0:
64,192,73436,128,0,73551:0:0:0:0:
320,192,73436,1,0,0:0:0:0:
192,192,73551,128,0,73667:0:0:0:0:
320,192,73551,1,0,0:0:0:0:
448,192,73551,1,0,0:0:0:0:
320,192,73667,128,0,73782:0:0:0:0:
64,192,73667,1,0,0:0:0:0:
448,192,73782,128,0,73897:0:0:0:0:
192,192,73782,1,0,0:0:0:0:
64,192,73897,128,0,74013:0:0:0:0:
320,192,73897,1,0,0:0:0:0:
448,192,74013,1,0,0:0:0:0:
448,192,75397,1,0,0:0:0:0:
64,192,75628,1,0,0:0:0:0:
320,192,75743,1,0,0:0:0:0:
64,192,75859,1,0,0:0:0:0:
192,192,75859,1,0,0:0:0:0:
448,192,75859,1,0,0:0:0:0:
320,192,76090,1,0,0:0:0:0:
448,192,76090,1,0,0:0:0:0:
64,192,76090,1,0,0:0:0:0:
192,192,77013,1,0,0:0:0:0:
320,192,77013,1,0,0:0:0:0:
448,192,77243,1,0,0:0:0:0:
64,192,77474,1,0,0:0:0:0:
64,192,77705,1,0,0:0:0:0:
192,192,77705,1,0,0:0:0:0:
320,192,77705,1,0,0:0:0:0:
64,192,77936,1,0,0:0:0:0:
192,192,77936,1,0,0:0:0:0:
320,192,78051,1,0,0:0:0:0:
448,192,78051,1,0,0:0:0:0:
64,192,78282,1,0,0:0:0:0:
192,192,78282,1,0,0:0:0:0:
320,192,78397,1,0,0:0:0:0:
448,192,78397,1,0,0:0:0:0:
64,192,78628,1,0,0:0:0:0:
64,192,79090,1,0,0:0:0:0:
448,192,79551,1,0,0:0:0:0:
64,192,79551,1,0,0:0:0:0:
320,192,79705,1,0,0:0:0:0:
192,192,79859,1,0,0:0:0:0:
448,192,80013,1,0,0:0:0:0:
64,192,80013,1,0,0:0:0:0:
192,192,80167,1,0,0:0:0:0:
320,192,80320,1,0,0:0:0:0:
192,192,80474,1,0,0:0:0:0:
64,192,80474,1,0,0:0:0:0:
320,192,80551,1,0,0:0:0:0:
192,192,80628,1,0,0:0:0:0:
320,192,80705,1,0,0:0:0:0:
448,192,80705,1,0,0:0:0:0:
192,192,80782,1,0,0:0:0:0:
320,192,80859,1,0,0:0:0:0:
448,192,80936,1,0,0:0:0:0:
64,192,80936,1,0,0:0:0:0:
320,192,81013,1,0,0:0:0:0:
192,192,81090,1,0,0:0:0:0:
64,192,81167,1,0,0:0:0:0:
448,192,81243,1,0,0:0:0:0:
320,192,81320,1,0,0:0:0:0:
192,192,81397,1,0,0:0:0:0:
64,192,81397,1,0,0:0:0:0:
448,192,81397,1,0,0:0:0:0:
320,192,83243,1,0,0:0:0:0:
320,192,83474,1,0,0:0:0:0:
192,192,85090,1,0,0:0:0:0:
192,192,85320,1,0,0:0:0:0:
192,192,86936,1,0,0:0:0:0:
192,192,87167,1,0,0:0:0:0:
448,192,88782,1,0,0:0:0:0:
320,192,88936,1,0,0:0:0:0:
192,192,89090,1,0,0:0:0:0:
320,192,89243,1,0,0:0:0:0:
192,192,89397,1,0,0:0:0:0:
64,192,89551,1,0,0:0:0:0:
320,192,89705,1,0,0:0:0:0:
192,192,89782,1,0,0:0:0:0:
320,192,89859,1,0,0:0:0:0:
192,192,89936,1,0,0:0:0:0:
64,192,89936,1,0,0:0:0:0:
320,192,90013,1,0,0:0:0:0:
448,192,90013,1,0,0:0:0:0:
192,192,90090,1,0,0:0:0:0:
64,192,90090,1,0,0:0:0:0:
320,192,90167,1,0,0:0:0:0:
448,192,90167,1,0,0:0:0:0:
192,192,90243,1,0,0:0:0:0:
64,192,90320,1,0,0:0:0:0:
448,192,90397,1,0,0:0:0:0:
320,192,90474,1,0,0:0:0:0:
192,192,90551,1,0,0:0:0:0:
64,192,90628,1,0,0:0:0:0:
320,192,90628,1,0,0:0:0:0:
448,192,90628,1,0,0:0:0:0:
192,192,90859,1,0,0:0:0:0:
64,192,90859,128,0,91090:0:0:0:0:
320,192,91397,1,0,0:0:0:0:
192,192,91474,1,0,0:0:0:0:
320,192,91551,1,0,0:0:0:0:
448,192,91551,1,0,0:0:0:0:
64,192,91551,1,0,0:0:0:0:
192,192,91782,1,0,0:0:0:0:
64,192,91782,128,0,92013:0:0:0:0:
64,192,92474,1,0,0:0:0:0:
192,192,92628,1,0,0:0:0:0:
320,192,92782,1,0,0:0:0:0:
192,192,92936,1,0,0:0:0:0:
320,192,93090,1,0,0:0:0:0:
448,192,93243,1,0,0:0:0:0:
320,192,93397,1,0,0:0:0:0:
192,192,93551,1,0,0:0:0:0:
64,192,93705,1,0,0:0:0:0:
448,192,93859,1,0,0:0:0:0:
320,192,94013,1,0,0:0:0:0:
192,192,94167,1,0,0:0:0:0:
448,192,94320,1,0,0:0:0:0:
64,192,94320,128,0,94551:0:0:0:0:
192,192,94782,1,0,0:0:0:0:
320,192,94782,1,0,0:0:0:0:
64,192,95013,128,0,95243:0:0:0:0:
448,192,95013,1,0,0:0:0:0:
192,192,95474,1,0,0:0:0:0:
320,192,95474,1,0,0:0:0:0:
64,192,95705,128,0,95936:0:0:0:0:
448,192,95705,1,0,0:0:0:0:
320,192,95936,1,0,0:0:0:0:
192,192,96013,1,0,0:0:0:0:
320,192,96090,1,0,0:0:0:0:
448,192,96167,1,0,0:0:0:0:
64,192,96167,1,0,0:0:0:0:
192,192,96397,1,0,0:0:0:0:
448,192,97320,128,0,97551:0:0:0:0:
64,192,97320,1,0,0:0:0:0:
448,192,97782,128,0,98013:0:0:0:0:
64,192,97782,1,0,0:0:0:0:
320,192,98013,1,0,0:0:0:0:
192,192,98167,1,0,0:0:0:0:
320,192,98320,1,0,0:0:0:0:
192,192,98474,1,0,0:0:0:0:
448,192,98628,1,0,0:0:0:0:
64,192,98782,1,0,0:0:0:0:
320,192,98936,1,0,0:0:0:0:
192,192,99013,1,0,0:0:0:0:
320,192,99090,1,0,0:0:0:0:
192,192,99167,1,0,0:0:0:0:
64,192,99167,1,0,0:0:0:0:
320,192,99243,1,0,0:0:0:0:
192,192,99320,1,0,0:0:0:0:
320,192,99397,1,0,0:0:0:0:
448,192,99397,128,0,99628:0:0:0:0:
64,192,99859,1,0,0:0:0:0:
192,192,100013,1,0,0:0:0:0:
320,192,100167,1,0,0:0:0:0:
192,192,100320,1,0,0:0:0:0:
320,192,100474,1,0,0:0:0:0:
448,192,100628,1,0,0:0:0:0:
320,192,100782,1,0,0:0:0:0:
192,192,100936,1,0,0:0:0:0:
320,192,101090,1,0,0:0:0:0:
192,192,101243,1,0,0:0:0:0:
64,192,101397,1,0,0:0:0:0:
192,192,101551,1,0,0:0:0:0:
448,192,101705,1,0,0:0:0:0:
320,192,101859,1,0,0:0:0:0:
192,192,102013,1,0,0:0:0:0:
320,192,102167,1,0,0:0:0:0:
192,192,102320,1,0,0:0:0:0:
64,192,102474,1,0,0:0:0:0:
192,192,102628,1,0,0:0:0:0:
320,192,102782,1,0,0:0:0:0:
64,192,102936,1,0,0:0:0:0:
448,192,103090,1,0,0:0:0:0:
448,192,103551,128,0,103667:0:0:0:0:
320,192,103551,1,0,0:0:0:0:
64,192,103551,1,0,0:0:0:0:
448,192,103782,128,0,103897:0:0:0:0:
192,192,103782,128,0,103897:0:0:0:0:
448,192,104013,128,0,104128:0:0:0:0:
64,192,104013,1,0,0:0:0:0:
320,192,104013,1,0,0:0:0:0:
448,192,104243,128,0,104359:0:0:0:0:
64,192,104243,128,0,104359:0:0:0:0:
64,192,104474,1,0,0:0:0:0:
320,192,104474,128,0,104590:0:0:0:0:
320,192,104705,128,0,104820:0:0:0:0:
64,192,104705,128,0,104820:0:0:0:0:
192,192,104936,1,0,0:0:0:0:
320,192,104936,128,0,105051:0:0:0:0:
64,192,104936,1,0,0:0:0:0:
320,192,105167,128,0,105282:0:0:0:0:
448,192,105167,128,0,105282:0:0:0:0:
64,192,105397,1,0,0:0:0:0:
192,192,105397,128,0,105513:0:0:0:0:
192,192,105628,128,0,105743:0:0:0:0:
320,192,105628,128,0,105743:0:0:0:0:
320,192,105859,1,0,0:0:0:0:
192,192,105859,128,0,105974:0:0:0:0:
448,192,105859,1,0,0:0:0:0:
192,192,106090,128,0,106205:0:0:0:0:
448,192,106090,128,0,106205:0:0:0:0:
320,192,106320,1,0,0:0:0:0:
64,192,106320,128,0,106436:0:0:0:0:
64,192,106551,128,0,106667:0:0:0:0:
448,192,106551,1,0,0:0:0:0:
448,192,106609,1,0,0:0:0:0:
448,192,106667,1,0,0:0:0:0:
448,192,106724,1,0,0:0:0:0:
448,192,106782,1,0,0:0:0:0:
64,192,106782,128,0,106897:0:0:0:0:
192,192,106782,1,0,0:0:0:0:
64,192,107013,128,0,107128:0:0:0:0:
320,192,107013,128,0,107128:0:0:0:0:
448,192,107243,1,0,0:0:0:0:
192,192,107243,128,0,107359:0:0:0:0:
192,192,107474,128,0,107590:0:0:0:0:
320,192,107474,128,0,107590:0:0:0:0:
320,192,107705,1,0,0:0:0:0:
192,192,107705,128,0,107820:0:0:0:0:
448,192,107705,1,0,0:0:0:0:
192,192,107936,128,0,108051:0:0:0:0:
64,192,107936,128,0,108051:0:0:0:0:
320,192,108167,1,0,0:0:0:0:
448,192,108167,128,0,108282:0:0:0:0:
448,192,108397,128,0,108513:0:0:0:0:
192,192,108397,128,0,108513:0:0:0:0:
320,192,108628,1,0,0:0:0:0:
448,192,108628,128,0,108743:0:0:0:0:
64,192,108628,1,0,0:0:0:0:
448,192,108859,128,0,108974:0:0:0:0:
320,192,108859,128,0,108974:0:0:0:0:
192,192,109090,1,0,0:0:0:0:
64,192,109090,128,0,109205:0:0:0:0:
64,192,109320,128,0,109436:0:0:0:0:
448,192,109320,128,0,109436:0:0:0:0:
320,192,109551,1,0,0:0:0:0:
64,192,109551,128,0,109667:0:0:0:0:
192,192,109551,1,0,0:0:0:0:
64,192,109782,128,0,109897:0:0:0:0:
192,192,109782,128,0,109897:0:0:0:0:
448,192,110013,1,0,0:0:0:0:
320,192,110013,128,0,110128:0:0:0:0:
192,192,110013,1,0,0:0:0:0:
64,192,110128,1,0,0:0:0:0:
320,192,110243,128,0,110359:0:0:0:0:
192,192,110243,128,0,110359:0:0:0:0:
448,192,110474,1,0,0:0:0:0:
320,192,110474,128,0,110590:0:0:0:0:
64,192,110474,1,0,0:0:0:0:
320,192,110705,128,0,110820:0:0:0:0:
64,192,110705,128,0,110820:0:0:0:0:
64,192,110936,1,0,0:0:0:0:
320,192,110936,1,0,0:0:0:0:
192,192,110936,128,0,111051:0:0:0:0:
448,192,110936,128,0,111167:0:0:0:0:
192,192,111167,128,0,111282:0:0:0:0:
192,192,111397,128,0,111513:0:0:0:0:
64,192,111397,128,0,111513:0:0:0:0:
320,192,111397,1,0,0:0:0:0:
192,192,111628,128,0,111743:0:0:0:0:
448,192,111628,128,0,111743:0:0:0:0:
192,192,111859,128,0,111974:0:0:0:0:
320,192,111859,128,0,112090:0:0:0:0:
64,192,111859,1,0,0:0:0:0:
192,192,112090,128,0,112205:0:0:0:0:
192,192,112320,128,0,112436:0:0:0:0:
64,192,112320,128,0,112436:0:0:0:0:
448,192,112320,1,0,0:0:0:0:
192,192,112551,128,0,112667:0:0:0:0:
448,192,112551,128,0,112667:0:0:0:0:
320,192,112782,128,0,112897:0:0:0:0:
64,192,112782,128,0,113013:0:0:0:0:
192,192,112782,1,0,0:0:0:0:
320,192,113013,128,0,113128:0:0:0:0:
320,192,113243,128,0,113359:0:0:0:0:
192,192,113243,128,0,113359:0:0:0:0:
64,192,113243,1,0,0:0:0:0:
320,192,113474,128,0,113590:0:0:0:0:
448,192,113474,128,0,113590:0:0:0:0:
320,192,113705,128,0,113820:0:0:0:0:
64,192,113705,128,0,113936:0:0:0:0:
448,192,113705,1,0,0:0:0:0:
320,192,113936,128,0,114051:0:0:0:0:
320,192,114167,128,0,114282:0:0:0:0:
192,192,114167,128,0,114282:0:0:0:0:
64,192,114167,1,0,0:0:0:0:
320,192,114397,128,0,114513:0:0:0:0:
448,192,114397,128,0,114513:0:0:0:0:
64,192,114628,128,0,114743:0:0:0:0:
320,192,114628,128,0,114859:0:0:0:0:
192,192,114628,1,0,0:0:0:0:
64,192,114859,128,0,114974:0:0:0:0:
64,192,115090,128,0,115205:0:0:0:0:
448,192,115090,128,0,115205:0:0:0:0:
320,192,115090,1,0,0:0:0:0:
64,192,115320,128,0,115436:0:0:0:0:
192,192,115320,128,0,115436:0:0:0:0:
64,192,115551,128,0,115667:0:0:0:0:
320,192,115551,128,0,115782:0:0:0:0:
448,192,115551,1,0,0:0:0:0:
64,192,115782,128,0,115897:0:0:0:0:
64,192,116013,128,0,116128:0:0:0:0:
448,192,116013,128,0,116128:0:0:0:0:
192,192,116013,1,0,0:0:0:0:
64,192,116243,128,0,116359:0:0:0:0:
192,192,116243,128,0,116359:0:0:0:0:
448,192,116474,128,0,116590:0:0:0:0:
64,192,116474,128,0,116532:0:0:0:0:
320,192,116474,1,0,0:0:0:0:
64,192,116590,128,0,116647:0:0:0:0:
448,192,116705,128,0,116820:0:0:0:0:
64,192,116705,128,0,116763:0:0:0:0:
448,192,116936,128,0,117051:0:0:0:0:
192,192,116936,128,0,117051:0:0:0:0:
64,192,116936,1,0,0:0:0:0:
448,192,117167,128,0,117282:0:0:0:0:
64,192,117167,128,0,117282:0:0:0:0:
448,192,117397,128,0,117513:0:0:0:0:
192,192,117397,128,0,117513:0:0:0:0:
320,192,117397,1,0,0:0:0:0:
448,192,117628,128,0,117743:0:0:0:0:
320,192,117628,128,0,117743:0:0:0:0:
448,192,117859,128,0,117974:0:0:0:0:
192,192,117859,128,0,117974:0:0:0:0:
64,192,117859,1,0,0:0:0:0:
448,192,118090,128,0,118205:0:0:0:0:
64,192,118090,128,0,118205:0:0:0:0:
192,192,118320,1,0,0:0:0:0:
320,192,118320,128,0,118436:0:0:0:0:
64,192,118436,1,0,0:0:0:0:
320,192,118551,128,0,118667:0:0:0:0:
448,192,118551,1,0,0:0:0:0:
64,192,118782,128,0,118897:0:0:0:0:
448,192,118782,1,0,0:0:0:0:
64,192,119013,128,0,119128:0:0:0:0:
192,192,119013,1,0,0:0:0:0:
448,192,119243,128,0,119359:0:0:0:0:
64,192,119243,1,0,0:0:0:0:
192,192,119359,1,0,0:0:0:0:
448,192,119474,128,0,119590:0:0:0:0:
320,192,119474,1,0,0:0:0:0:
320,192,119705,1,0,0:0:0:0:
192,192,119705,128,0,119820:0:0:0:0:
192,192,119936,128,0,120051:0:0:0:0:
64,192,119936,1,0,0:0:0:0:
320,192,120167,128,0,120282:0:0:0:0:
192,192,120167,1,0,0:0:0:0:
64,192,120282,1,0,0:0:0:0:
320,192,120397,128,0,120513:0:0:0:0:
448,192,120397,1,0,0:0:0:0:
64,192,120628,128,0,120743:0:0:0:0:
192,192,120628,1,0,0:0:0:0:
64,192,120859,128,0,120974:0:0:0:0:
448,192,120859,1,0,0:0:0:0:
448,192,121090,128,0,121205:0:0:0:0:
320,192,121090,1,0,0:0:0:0:
192,192,121205,1,0,0:0:0:0:
448,192,121320,128,0,121436:0:0:0:0:
64,192,121320,1,0,0:0:0:0:
320,192,121551,1,0,0:0:0:0:
192,192,121551,128,0,121667:0:0:0:0:
192,192,121782,128,0,121897:0:0:0:0:
64,192,121782,1,0,0:0:0:0:
448,192,122013,128,0,122128:0:0:0:0:
320,192,122013,1,0,0:0:0:0:
192,192,122128,1,0,0:0:0:0:
448,192,122243,128,0,122359:0:0:0:0:
64,192,122243,1,0,0:0:0:0:
320,192,122474,1,0,0:0:0:0:
64,192,122474,128,0,122590:0:0:0:0:
64,192,122705,128,0,122820:0:0:0:0:
448,192,122705,1,0,0:0:0:0:
320,192,122936,128,0,123051:0:0:0:0:
192,192,122936,1,0,0:0:0:0:
64,192,123051,1,0,0:0:0:0:
320,192,123167,128,0,123282:0:0:0:0:
448,192,123167,1,0,0:0:0:0:
64,192,123397,1,0,0:0:0:0:
192,192,123397,128,0,123513:0:0:0:0:
192,192,123628,128,0,123743:0:0:0:0:
448,192,123628,1,0,0:0:0:0:
320,192,123859,128,0,123974:0:0:0:0:
64,192,123859,1,0,0:0:0:0:
192,192,123974,1,0,0:0:0:0:
320,192,124090,128,0,124205:0:0:0:0:
448,192,124090,1,0,0:0:0:0:
64,192,124320,128,0,124436:0:0:0:0:
448,192,124320,1,0,0:0:0:0:
64,192,124551,128,0,124667:0:0:0:0:
192,192,124551,1,0,0:0:0:0:
320,192,124782,1,0,0:0:0:0:
448,192,124782,128,0,124897:0:0:0:0:
192,192,124897,1,0,0:0:0:0:
448,192,125013,128,0,125128:0:0:0:0:
64,192,125013,1,0,0:0:0:0:
320,192,125243,1,0,0:0:0:0:
192,192,125243,128,0,125359:0:0:0:0:
192,192,125474,128,0,125590:0:0:0:0:
64,192,125474,1,0,0:0:0:0:
320,192,125705,1,0,0:0:0:0:
448,192,125705,128,0,126628:0:0:0:0:
192,192,125820,1,0,0:0:0:0:
64,192,125936,1,0,0:0:0:0:
320,192,126167,1,0,0:0:0:0:
192,192,126397,1,0,0:0:0:0:
64,192,126628,1,0,0:0:0:0:
192,192,126743,1,0,0:0:0:0:
320,192,126859,1,0,0:0:0:0:
192,192,127090,1,0,0:0:0:0:
448,192,127320,1,0,0:0:0:0:
64,192,127551,128,0,128474:0:0:0:0:
192,192,127551,1,0,0:0:0:0:
320,192,127667,1,0,0:0:0:0:
448,192,127782,1,0,0:0:0:0:
192,192,128013,1,0,0:0:0:0:
320,192,128243,1,0,0:0:0:0:
448,192,128474,1,0,0:0:0:0:
320,192,128590,1,0,0:0:0:0:
192,192,128705,1,0,0:0:0:0:
320,192,128936,1,0,0:0:0:0:
64,192,129167,1,0,0:0:0:0:
192,192,129397,1,0,0:0:0:0:
320,192,129397,128,0,130320:0:0:0:0:
64,192,129513,1,0,0:0:0:0:
448,192,129628,1,0,0:0:0:0:
192,192,129859,1,0,0:0:0:0:
448,192,130090,1,0,0:0:0:0:
64,192,130320,1,0,0:0:0:0:
192,192,130320,128,0,131243:0:0:0:0:
448,192,130436,1,0,0:0:0:0:
320,192,130551,1,0,0:0:0:0:
64,192,130782,1,0,0:0:0:0:
448,192,131013,1,0,0:0:0:0:
64,192,131243,1,0,0:0:0:0:
320,192,131243,128,0,131705:0:0:0:0:
448,192,131359,1,0,0:0:0:0:
192,192,131474,1,0,0:0:0:0:
64,192,131705,1,0,0:0:0:0:
448,192,131705,128,0,132167:0:0:0:0:
192,192,131936,1,0,0:0:0:0:
320,192,132167,1,0,0:0:0:0:
64,192,132167,128,0,132628:0:0:0:0:
192,192,132282,1,0,0:0:0:0:
448,192,132397,1,0,0:0:0:0:
192,192,132628,1,0,0:0:0:0:
448,192,132628,128,0,132859:0:0:0:0:
192,192,132859,128,0,133090:0:0:0:0:
320,192,132859,1,0,0:0:0:0:
64,192,133090,1,0,0:0:0:0:
320,192,133205,1,0,0:0:0:0:
64,192,133320,128,0,133436:0:0:0:0:
192,192,133320,128,0,133378:0:0:0:0:
448,192,133320,1,0,0:0:0:0:
192,192,133551,128,0,133609:0:0:0:0:
64,192,133551,128,0,133667:0:0:0:0:
64,192,133782,128,0,133897:0:0:0:0:
192,192,133782,128,0,133840:0:0:0:0:
192,192,134013,128,0,134070:0:0:0:0:
64,192,134013,128,0,134128:0:0:0:0:
448,192,134243,128,0,134359:0:0:0:0:
320,192,134243,128,0,134301:0:0:0:0:
192,192,134243,1,0,0:0:0:0:
64,192,134359,1,0,0:0:0:0:
192,192,134474,128,0,134532:0:0:0:0:
64,192,134474,128,0,134590:0:0:0:0:
320,192,134474,1,0,0:0:0:0:
448,192,134590,1,0,0:0:0:0:
64,192,134705,128,0,134820:0:0:0:0:
192,192,134705,128,0,134763:0:0:0:0:
320,192,134705,1,0,0:0:0:0:
448,192,134820,1,0,0:0:0:0:
320,192,134936,128,0,134993:0:0:0:0:
448,192,134936,128,0,135051:0:0:0:0:
64,192,134936,1,0,0:0:0:0:
192,192,134936,1,0,0:0:0:0:
64,192,135167,128,0,135282:0:0:0:0:
192,192,135167,128,0,135224:0:0:0:0:
320,192,135167,1,0,0:0:0:0:
448,192,135282,1,0,0:0:0:0:
192,192,135397,128,0,135455:0:0:0:0:
64,192,135397,128,0,135513:0:0:0:0:
320,192,135397,1,0,0:0:0:0:
448,192,135513,1,0,0:0:0:0:
64,192,135628,128,0,135743:0:0:0:0:
192,192,135628,128,0,135686:0:0:0:0:
320,192,135628,1,0,0:0:0:0:
320,192,135859,128,0,135917:0:0:0:0:
448,192,135859,128,0,135974:0:0:0:0:
64,192,135859,1,0,0:0:0:0:
64,192,136090,128,0,136205:0:0:0:0:
192,192,136090,128,0,136147:0:0:0:0:
448,192,136090,1,0,0:0:0:0:
320,192,136205,1,0,0:0:0:0:
192,192,136320,128,0,136378:0:0:0:0:
64,192,136320,128,0,136436:0:0:0:0:
448,192,136320,1,0,0:0:0:0:
320,192,136436,1,0,0:0:0:0:
64,192,136551,128,0,136667:0:0:0:0:
192,192,136551,128,0,136609:0:0:0:0:
448,192,136551,1,0,0:0:0:0:
320,192,136782,128,0,136840:0:0:0:0:
448,192,136782,128,0,136897:0:0:0:0:
64,192,136782,1,0,0:0:0:0:
192,192,136782,1,0,0:0:0:0:
64,192,137013,128,0,137128:0:0:0:0:
192,192,137013,128,0,137070:0:0:0:0:
448,192,137013,1,0,0:0:0:0:
320,192,137128,1,0,0:0:0:0:
192,192,137243,128,0,137301:0:0:0:0:
64,192,137243,128,0,137359:0:0:0:0:
448,192,137243,1,0,0:0:0:0:
320,192,137359,1,0,0:0:0:0:
64,192,137474,128,0,137590:0:0:0:0:
192,192,137474,128,0,137532:0:0:0:0:
448,192,137474,1,0,0:0:0:0:
320,192,137705,128,0,137763:0:0:0:0:
448,192,137705,128,0,137820:0:0:0:0:
64,192,137705,1,0,0:0:0:0:
192,192,137705,1,0,0:0:0:0:
64,192,137936,128,0,138051:0:0:0:0:
192,192,137936,128,0,137993:0:0:0:0:
320,192,137936,1,0,0:0:0:0:
448,192,138051,1,0,0:0:0:0:
192,192,138167,128,0,138224:0:0:0:0:
64,192,138167,128,0,138282:0:0:0:0:
320,192,138167,1,0,0:0:0:0:
448,192,138282,1,0,0:0:0:0:
64,192,138397,128,0,138513:0:0:0:0:
192,192,138397,128,0,138455:0:0:0:0:
320,192,138397,1,0,0:0:0:0:
448,192,138628,128,0,138743:0:0:0:0:
320,192,138628,128,0,138686:0:0:0:0:
64,192,138628,1,0,0:0:0:0:
192,192,138628,1,0,0:0:0:0:
192,192,138859,128,0,138917:0:0:0:0:
64,192,138859,128,0,138974:0:0:0:0:
448,192,138859,1,0,0:0:0:0:
320,192,138974,1,0,0:0:0:0:
64,192,139090,128,0,139205:0:0:0:0:
192,192,139090,128,0,139147:0:0:0:0:
448,192,139090,1,0,0:0:0:0:
320,192,139205,1,0,0:0:0:0:
192,192,139320,128,0,139378:0:0:0:0:
64,192,139320,128,0,139436:0:0:0:0:
448,192,139320,1,0,0:0:0:0:
448,192,139551,128,0,139667:0:0:0:0:
320,192,139551,128,0,139609:0:0:0:0:
64,192,139551,1,0,0:0:0:0:
192,192,139782,128,0,139840:0:0:0:0:
64,192,139782,128,0,139897:0:0:0:0:
320,192,139782,1,0,0:0:0:0:
448,192,139897,1,0,0:0:0:0:
64,192,140013,128,0,140128:0:0:0:0:
192,192,140013,128,0,140070:0:0:0:0:
320,192,140013,1,0,0:0:0:0:
448,192,140128,1,0,0:0:0:0:
192,192,140243,128,0,140301:0:0:0:0:
64,192,140243,128,0,140359:0:0:0:0:
320,192,140243,1,0,0:0:0:0:
448,192,140474,128,0,140590:0:0:0:0:
320,192,140474,128,0,140532:0:0:0:0:
64,192,140474,1,0,0:0:0:0:
192,192,140474,1,0,0:0:0:0:
192,192,140705,128,0,140763:0:0:0:0:
64,192,140705,128,0,140820:0:0:0:0:
320,192,140705,1,0,0:0:0:0:
448,192,140820,1,0,0:0:0:0:
64,192,140936,128,0,141051:0:0:0:0:
192,192,140936,128,0,140993:0:0:0:0:
320,192,140936,1,0,0:0:0:0:
192,192,141167,128,0,141224:0:0:0:0:
64,192,141167,128,0,141282:0:0:0:0:
448,192,141167,1,0,0:0:0:0:
320,192,141282,1,0,0:0:0:0:
448,192,141397,128,0,141513:0:0:0:0:
320,192,141397,128,0,141455:0:0:0:0:
64,192,141397,1,0,0:0:0:0:
192,192,141397,1,0,0:0:0:0:
192,192,141628,128,0,141686:0:0:0:0:
64,192,141628,128,0,141743:0:0:0:0:
448,192,141628,1,0,0:0:0:0:
320,192,141743,1,0,0:0:0:0:
192,192,141859,128,0,141917:0:0:0:0:
64,192,141859,128,0,141974:0:0:0:0:
448,192,141859,1,0,0:0:0:0:
64,192,142090,128,0,142205:0:0:0:0:
192,192,142090,128,0,142147:0:0:0:0:
448,192,142090,1,0,0:0:0:0:
320,192,142205,1,0,0:0:0:0:
320,192,142320,128,0,142378:0:0:0:0:
448,192,142320,128,0,142436:0:0:0:0:
64,192,142320,1,0,0:0:0:0:
192,192,142320,1,0,0:0:0:0:
192,192,142551,128,0,142609:0:0:0:0:
64,192,142551,128,0,142667:0:0:0:0:
320,192,142551,1,0,0:0:0:0:
448,192,142667,1,0,0:0:0:0:
192,192,142782,128,0,142840:0:0:0:0:
64,192,142782,128,0,142897:0:0:0:0:
320,192,142782,1,0,0:0:0:0:
64,192,143013,128,0,143128:0:0:0:0:
192,192,143013,128,0,143070:0:0:0:0:
448,192,143013,1,0,0:0:0:0:
320,192,143128,1,0,0:0:0:0:
320,192,143243,128,0,143301:0:0:0:0:
448,192,143243,128,0,143359:0:0:0:0:
192,192,143243,1,0,0:0:0:0:
64,192,143243,1,0,0:0:0:0:
64,192,143474,128,0,143590:0:0:0:0:
192,192,143474,128,0,143532:0:0:0:0:
448,192,143474,1,0,0:0:0:0:
320,192,143590,1,0,0:0:0:0:
192,192,143705,128,0,143763:0:0:0:0:
64,192,143705,128,0,143820:0:0:0:0:
448,192,143705,1,0,0:0:0:0:
64,192,143936,128,0,144051:0:0:0:0:
192,192,143936,128,0,143993:0:0:0:0:
320,192,144167,128,0,144224:0:0:0:0:
448,192,144167,128,0,144282:0:0:0:0:
192,192,144167,1,0,0:0:0:0:
64,192,144167,1,0,0:0:0:0:
64,192,144397,128,0,144513:0:0:0:0:
192,192,144397,128,0,144455:0:0:0:0:
320,192,144397,1,0,0:0:0:0:
448,192,144513,1,0,0:0:0:0:
192,192,144628,128,0,144686:0:0:0:0:
64,192,144628,128,0,144743:0:0:0:0:
320,192,144628,1,0,0:0:0:0:
64,192,144859,128,0,144974:0:0:0:0:
192,192,144859,128,0,144917:0:0:0:0:
448,192,145090,128,0,145205:0:0:0:0:
64,192,145090,1,0,0:0:0:0:
320,192,145090,128,0,145147:0:0:0:0:
192,192,145090,1,0,0:0:0:0:
64,192,145320,128,0,145436:0:0:0:0:
192,192,145320,128,0,145378:0:0:0:0:
448,192,145320,1,0,0:0:0:0:
320,192,145436,1,0,0:0:0:0:
192,192,145551,128,0,145609:0:0:0:0:
64,192,145551,128,0,145667:0:0:0:0:
448,192,145551,1,0,0:0:0:0:
64,192,145782,128,0,145897:0:0:0:0:
192,192,145782,128,0,145840:0:0:0:0:
448,192,145782,1,0,0:0:0:0:
320,192,145897,1,0,0:0:0:0:
320,192,146013,128,0,146070:0:0:0:0:
448,192,146013,128,0,146128:0:0:0:0:
192,192,146013,1,0,0:0:0:0:
64,192,146013,1,0,0:0:0:0:
64,192,146243,128,0,146359:0:0:0:0:
192,192,146243,128,0,146301:0:0:0:0:
320,192,146243,1,0,0:0:0:0:
448,192,146359,1,0,0:0:0:0:
192,192,146474,128,0,146532:0:0:0:0:
64,192,146474,128,0,146590:0:0:0:0:
320,192,146474,1,0,0:0:0:0:
64,192,146705,128,0,146820:0:0:0:0:
192,192,146705,128,0,146763:0:0:0:0:
448,192,146705,1,0,0:0:0:0:
320,192,146820,1,0,0:0:0:0:
320,192,146936,128,0,146993:0:0:0:0:
448,192,146936,128,0,147051:0:0:0:0:
192,192,146936,1,0,0:0:0:0:
64,192,146936,1,0,0:0:0:0:
64,192,147167,128,0,147282:0:0:0:0:
192,192,147167,128,0,147224:0:0:0:0:
448,192,147167,1,0,0:0:0:0:
320,192,147282,1,0,0:0:0:0:
192,192,147397,128,0,147455:0:0:0:0:
64,192,147397,128,0,147513:0:0:0:0:
448,192,147397,1,0,0:0:0:0:
64,192,147628,128,0,147743:0:0:0:0:
192,192,147628,128,0,147686:0:0:0:0:
448,192,147859,1,0,0:0:0:0:
192,192,147859,1,0,0:0:0:0:
320,192,147859,128,0,147974:0:0:0:0:
64,192,147859,1,0,0:0:0:0:
64,192,147974,1,0,0:0:0:0:
448,192,148090,128,0,148205:0:0:0:0:
192,192,148205,1,0,0:0:0:0:
320,192,148320,128,0,148436:0:0:0:0:
64,192,148320,1,0,0:0:0:0:
192,192,148320,1,0,0:0:0:0:
448,192,148320,1,0,0:0:0:0:
192,192,148436,1,0,0:0:0:0:
64,192,148551,128,0,148667:0:0:0:0:
448,192,148551,1,0,0:0:0:0:
320,192,148667,1,0,0:0:0:0:
192,192,148782,128,0,148897:0:0:0:0:
448,192,148782,1,0,0:0:0:0:
320,192,148782,1,0,0:0:0:0:
64,192,148782,1,0,0:0:0:0:
448,192,148897,1,0,0:0:0:0:
448,192,149013,128,0,149128:0:0:0:0:
64,192,149013,1,0,0:0:0:0:
192,192,149128,1,0,0:0:0:0:
320,192,149243,128,0,149359:0:0:0:0:
192,192,149243,1,0,0:0:0:0:
64,192,149243,1,0,0:0:0:0:
448,192,149243,1,0,0:0:0:0:
64,192,149359,1,0,0:0:0:0:
192,192,149474,128,0,149590:0:0:0:0:
448,192,149474,1,0,0:0:0:0:
320,192,149590,1,0,0:0:0:0:
320,192,149705,128,0,149820:0:0:0:0:
448,192,149705,1,0,0:0:0:0:
192,192,149705,1,0,0:0:0:0:
64,192,149705,1,0,0:0:0:0:
64,192,149820,1,0,0:0:0:0:
448,192,149936,128,0,150051:0:0:0:0:
192,192,149936,1,0,0:0:0:0:
320,192,150051,1,0,0:0:0:0:
192,192,150167,128,0,150282:0:0:0:0:
448,192,150167,1,0,0:0:0:0:
320,192,150167,1,0,0:0:0:0:
64,192,150167,1,0,0:0:0:0:
448,192,150282,1,0,0:0:0:0:
64,192,150397,128,0,150513:0:0:0:0:
320,192,150397,1,0,0:0:0:0:
192,192,150513,1,0,0:0:0:0:
192,192,150628,128,0,150743:0:0:0:0:
64,192,150628,1,0,0:0:0:0:
320,192,150628,1,0,0:0:0:0:
448,192,150628,1,0,0:0:0:0:
448,192,150743,1,0,0:0:0:0:
320,192,150859,128,0,150974:0:0:0:0:
64,192,150859,1,0,0:0:0:0:
192,192,150974,1,0,0:0:0:0:
448,192,151090,128,0,151205:0:0:0:0:
320,192,151090,1,0,0:0:0:0:
192,192,151090,1,0,0:0:0:0:
64,192,151090,1,0,0:0:0:0:
320,192,151205,1,0,0:0:0:0:
64,192,151320,128,0,151436:0:0:0:0:
192,192,151320,1,0,0:0:0:0:
448,192,151436,1,0,0:0:0:0:
320,192,151551,128,0,151667:0:0:0:0:
192,192,151551,1,0,0:0:0:0:
64,192,151551,1,0,0:0:0:0:
448,192,151551,1,0,0:0:0:0:
64,192,151667,1,0,0:0:0:0:
192,192,151782,128,0,151897:0:0:0:0:
448,192,151782,1,0,0:0:0:0:
320,192,151897,1,0,0:0:0:0:
64,192,152013,128,0,152128:0:0:0:0:
448,192,152013,1,0,0:0:0:0:
320,192,152013,1,0,0:0:0:0:
192,192,152013,1,0,0:0:0:0:
320,192,152128,1,0,0:0:0:0:
448,192,152243,128,0,152359:0:0:0:0:
192,192,152243,1,0,0:0:0:0:
64,192,152359,1,0,0:0:0:0:
192,192,152474,128,0,152590:0:0:0:0:
320,192,152474,1,0,0:0:0:0:
448,192,152474,1,0,0:0:0:0:
64,192,152474,1,0,0:0:0:0:
320,192,152590,1,0,0:0:0:0:
64,192,152705,128,0,152820:0:0:0:0:
448,192,152705,1,0,0:0:0:0:
192,192,152820,1,0,0:0:0:0:
320,192,152936,128,0,153051:0:0:0:0:
448,192,152936,1,0,0:0:0:0:
192,192,152936,1,0,0:0:0:0:
64,192,152936,1,0,0:0:0:0:
448,192,153051,1,0,0:0:0:0:
192,192,153167,128,0,153282:0:0:0:0:
64,192,153167,1,0,0:0:0:0:
320,192,153282,1,0,0:0:0:0:
448,192,153397,128,0,153513:0:0:0:0:
192,192,153397,1,0,0:0:0:0:
64,192,153397,1,0,0:0:0:0:
320,192,153397,1,0,0:0:0:0:
192,192,153513,1,0,0:0:0:0:
64,192,153628,128,0,153743:0:0:0:0:
320,192,153628,1,0,0:0:0:0:
448,192,153743,1,0,0:0:0:0:
192,192,153859,128,0,153974:0:0:0:0:
448,192,153859,1,0,0:0:0:0:
64,192,153859,1,0,0:0:0:0:
320,192,153859,1,0,0:0:0:0:
64,192,153974,1,0,0:0:0:0:
320,192,154090,128,0,154205:0:0:0:0:
448,192,154090,1,0,0:0:0:0:
192,192,154205,1,0,0:0:0:0:
448,192,154320,128,0,154436:0:0:0:0:
64,192,154320,1,0,0:0:0:0:
192,192,154320,1,0,0:0:0:0:
320,192,154320,1,0,0:0:0:0:
320,192,154436,1,0,0:0:0:0:
64,192,154551,128,0,154667:0:0:0:0:
192,192,154551,1,0,0:0:0:0:
448,192,154667,1,0,0:0:0:0:
320,192,154782,128,0,154897:0:0:0:0:
192,192,154782,1,0,0:0:0:0:
64,192,154782,1,0,0:0:0:0:
448,192,154782,1,0,0:0:0:0:
192,192,154897,1,0,0:0:0:0:
448,192,155013,128,0,155128:0:0:0:0:
64,192,155013,1,0,0:0:0:0:
320,192,155128,1,0,0:0:0:0:
64,192,155243,128,0,155359:0:0:0:0:
192,192,155243,1,0,0:0:0:0:
320,192,155243,1,0,0:0:0:0:
448,192,155243,1,0,0:0:0:0:
192,192,155359,1,0,0:0:0:0:
192,192,155474,128,0,155590:0:0:0:0:
448,192,155474,1,0,0:0:0:0:
320,192,155590,1,0,0:0:0:0:
320,192,155705,128,0,155820:0:0:0:0:
64,192,155705,1,0,0:0:0:0:
192,192,155705,1,0,0:0:0:0:
448,192,155705,1,0,0:0:0:0:
64,192,155820,1,0,0:0:0:0:
448,192,155936,128,0,156051:0:0:0:0:
192,192,155936,1,0,0:0:0:0:
320,192,156051,1,0,0:0:0:0:
320,192,156167,128,0,156282:0:0:0:0:
64,192,156167,1,0,0:0:0:0:
192,192,156167,1,0,0:0:0:0:
448,192,156167,1,0,0:0:0:0:
192,192,156282,1,0,0:0:0:0:
64,192,156397,128,0,156513:0:0:0:0:
448,192,156397,1,0,0:0:0:0:
320,192,156513,1,0,0:0:0:0:
192,192,156628,128,0,156743:0:0:0:0:
448,192,156628,1,0,0:0:0:0:
320,192,156628,1,0,0:0:0:0:
64,192,156628,1,0,0:0:0:0:
64,192,156743,1,0,0:0:0:0:
448,192,156859,128,0,156974:0:0:0:0:
320,192,156859,1,0,0:0:0:0:
192,192,156974,1,0,0:0:0:0:
320,192,157090,128,0,157205:0:0:0:0:
64,192,157090,1,0,0:0:0:0:
192,192,157090,1,0,0:0:0:0:
448,192,157090,1,0,0:0:0:0:
448,192,157205,1,0,0:0:0:0:
64,192,157320,128,0,157436:0:0:0:0:
192,192,157320,1,0,0:0:0:0:
320,192,157436,1,0,0:0:0:0:
192,192,157551,128,0,157667:0:0:0:0:
448,192,157551,1,0,0:0:0:0:
320,192,157551,1,0,0:0:0:0:
64,192,157551,1,0,0:0:0:0:
448,192,157667,1,0,0:0:0:0:
320,192,157782,128,0,157897:0:0:0:0:
64,192,157782,1,0,0:0:0:0:
192,192,157897,1,0,0:0:0:0:
448,192,158013,128,0,158128:0:0:0:0:
64,192,158013,1,0,0:0:0:0:
192,192,158013,1,0,0:0:0:0:
320,192,158013,1,0,0:0:0:0:
64,192,158128,1,0,0:0:0:0:
192,192,158243,128,0,158359:0:0:0:0:
320,192,158243,1,0,0:0:0:0:
448,192,158359,1,0,0:0:0:0:
320,192,158474,128,0,158590:0:0:0:0:
192,192,158474,1,0,0:0:0:0:
64,192,158474,1,0,0:0:0:0:
448,192,158474,1,0,0:0:0:0:
192,192,158590,1,0,0:0:0:0:
448,192,158705,128,0,158820:0:0:0:0:
64,192,158705,1,0,0:0:0:0:
320,192,158820,1,0,0:0:0:0:
64,192,158936,1,0,0:0:0:0:
192,192,158936,1,0,0:0:0:0:
320,192,158936,1,0,0:0:0:0:
448,192,158936,1,0,0:0:0:0:
192,192,159051,1,0,0:0:0:0:
448,192,159167,1,0,0:0:0:0:
320,192,159282,1,0,0:0:0:0:
192,192,159397,1,0,0:0:0:0:
64,192,159513,1,0,0:0:0:0:
320,192,159628,1,0,0:0:0:0:
448,192,159628,1,0,0:0:0:0:
64,192,159743,1,0,0:0:0:0:
320,192,159859,1,0,0:0:0:0:
192,192,159974,1,0,0:0:0:0:
448,192,160090,1,0,0:0:0:0:
320,192,160205,1,0,0:0:0:0:
192,192,160320,1,0,0:0:0:0:
448,192,160320,1,0,0:0:0:0:
64,192,160436,1,0,0:0:0:0:
192,192,160551,1,0,0:0:0:0:
64,192,160667,1,0,0:0:0:0:
448,192,160782,1,0,0:0:0:0:
192,192,160897,1,0,0:0:0:0:
320,192,161013,1,0,0:0:0:0:
448,192,161013,1,0,0:0:0:0:
64,192,161128,1,0,0:0:0:0:
192,192,161243,1,0,0:0:0:0:
320,192,161359,1,0,0:0:0:0:
448,192,161474,1,0,0:0:0:0:
64,192,161590,1,0,0:0:0:0:
320,192,161705,1,0,0:0:0:0:
448,192,161705,128,0,161820:0:0:0:0:
192,192,161820,1,0,0:0:0:0:
448,192,161936,1,0,0:0:0:0:
64,192,161936,128,0,162051:0:0:0:0:
320,192,162051,1,0,0:0:0:0:
192,192,162167,1,0,0:0:0:0:
448,192,162167,128,0,162282:0:0:0:0:
64,192,162282,1,0,0:0:0:0:
448,192,162397,1,0,0:0:0:0:
192,192,162397,128,0,162513:0:0:0:0:
64,192,162628,1,0,0:0:0:0:
192,192,162628,1,0,0:0:0:0:
448,192,162628,1,0,0:0:0:0:
320,192,162628,128,0,162743:0:0:0:0:
64,192,162743,128,0,162859:0:0:0:0:
448,192,162859,128,0,162974:0:0:0:0:
192,192,162974,128,0,163090:0:0:0:0:
320,192,163090,1,0,0:0:0:0:
64,192,163090,128,0,163205:0:0:0:0:
448,192,163090,1,0,0:0:0:0:
448,192,163205,128,0,163320:0:0:0:0:
192,192,163320,128,0,163436:0:0:0:0:
320,192,163436,128,0,163551:0:0:0:0:
64,192,163551,128,0,163667:0:0:0:0:
192,192,163551,1,0,0:0:0:0:
448,192,163551,1,0,0:0:0:0:
448,192,163667,128,0,163782:0:0:0:0:
192,192,163782,128,0,163897:0:0:0:0:
320,192,163897,128,0,164013:0:0:0:0:
448,192,164013,1,0,0:0:0:0:
192,192,164013,1,0,0:0:0:0:
64,192,164013,128,0,164128:0:0:0:0:
448,192,164128,128,0,164243:0:0:0:0:
320,192,164243,128,0,164359:0:0:0:0:
192,192,164359,128,0,164474:0:0:0:0:
64,192,164474,128,0,164590:0:0:0:0:
448,192,164474,1,0,0:0:0:0:
320,192,164474,1,0,0:0:0:0:
320,192,164590,128,0,164705:0:0:0:0:
192,192,164705,128,0,164820:0:0:0:0:
448,192,164820,128,0,164936:0:0:0:0:
192,192,164936,1,0,0:0:0:0:
64,192,164936,1,0,0:0:0:0:
320,192,164936,128,0,165051:0:0:0:0:
64,192,165051,128,0,165167:0:0:0:0:
192,192,165167,128,0,165282:0:0:0:0:
448,192,165282,128,0,165397:0:0:0:0:
320,192,165397,1,0,0:0:0:0:
64,192,165397,128,0,165513:0:0:0:0:
192,192,165397,1,0,0:0:0:0:
448,192,165513,128,0,165628:0:0:0:0:
192,192,165628,128,0,165743:0:0:0:0:
320,192,165743,128,0,165859:0:0:0:0:
192,192,165859,1,0,0:0:0:0:
448,192,165859,1,0,0:0:0:0:
64,192,165859,128,0,165974:0:0:0:0:
448,192,165974,128,0,166090:0:0:0:0:
192,192,166090,128,0,166205:0:0:0:0:
320,192,166205,128,0,166320:0:0:0:0:
64,192,166320,1,0,0:0:0:0:
448,192,166320,128,0,166667:0:0:0:0:
192,192,166320,1,0,0:0:0:0:
192,192,166436,128,0,166551:0:0:0:0:
64,192,166551,128,0,166667:0:0:0:0:
320,192,166667,128,0,166782:0:0:0:0:
448,192,166782,128,0,166897:0:0:0:0:
192,192,166782,1,0,0:0:0:0:
64,192,166782,1,0,0:0:0:0:
64,192,166897,128,0,167013:0:0:0:0:
192,192,167013,128,0,167128:0:0:0:0:
320,192,167128,128,0,167243:0:0:0:0:
448,192,167243,1,0,0:0:0:0:
64,192,167243,128,0,167590:0:0:0:0:
192,192,167243,1,0,0:0:0:0:
448,192,167359,128,0,167474:0:0:0:0:
320,192,167474,128,0,167590:0:0:0:0:
192,192,167590,128,0,167705:0:0:0:0:
448,192,167705,1,0,0:0:0:0:
64,192,167705,1,0,0:0:0:0:
320,192,167705,128,0,167820:0:0:0:0:
64,192,167820,128,0,167936:0:0:0:0:
448,192,167936,128,0,168051:0:0:0:0:
192,192,168051,128,0,168167:0:0:0:0:
320,192,168167,128,0,168513:0:0:0:0:
64,192,168167,1,0,0:0:0:0:
448,192,168167,1,0,0:0:0:0:
448,192,168282,128,0,168397:0:0:0:0:
64,192,168397,128,0,168513:0:0:0:0:
192,192,168513,128,0,168628:0:0:0:0:
320,192,168628,128,0,168743:0:0:0:0:
448,192,168628,1,0,0:0:0:0:
64,192,168628,1,0,0:0:0:0:
64,192,168743,128,0,168859:0:0:0:0:
448,192,168859,128,0,168974:0:0:0:0:
192,192,168974,128,0,169090:0:0:0:0:
64,192,169090,1,0,0:0:0:0:
320,192,169090,128,0,169205:0:0:0:0:
64,192,169205,128,0,169320:0:0:0:0:
192,192,169205,1,0,0:0:0:0:
448,192,169205,1,0,0:0:0:0:
448,192,169320,128,0,169436:0:0:0:0:
320,192,169436,128,0,169551:0:0:0:0:
192,192,169551,128,0,169667:0:0:0:0:
448,192,169551,1,0,0:0:0:0:
64,192,169551,1,0,0:0:0:0:
64,192,169667,128,0,169782:0:0:0:0:
320,192,169782,128,0,169897:0:0:0:0:
448,192,169897,128,0,170013:0:0:0:0:
64,192,170013,1,0,0:0:0:0:
192,192,170013,128,0,170128:0:0:0:0:
320,192,170013,1,0,0:0:0:0:
320,192,170128,128,0,170243:0:0:0:0:
64,192,170243,128,0,170359:0:0:0:0:
192,192,170359,128,0,170474:0:0:0:0:
320,192,170474,1,0,0:0:0:0:
448,192,170474,128,0,170590:0:0:0:0:
64,192,170474,1,0,0:0:0:0:
320,192,170590,128,0,170705:0:0:0:0:
64,192,170705,128,0,170820:0:0:0:0:
192,192,170820,128,0,170936:0:0:0:0:
448,192,170936,1,0,0:0:0:0:
320,192,170936,128,0,171051:0:0:0:0:
64,192,170936,1,0,0:0:0:0:
64,192,171051,128,0,171167:0:0:0:0:
448,192,171167,128,0,171282:0:0:0:0:
192,192,171282,128,0,171397:0:0:0:0:
320,192,171397,1,0,0:0:0:0:
448,192,171397,1,0,0:0:0:0:
64,192,171397,128,0,171513:0:0:0:0:
320,192,171513,128,0,171628:0:0:0:0:
192,192,171628,128,0,171743:0:0:0:0:
448,192,171743,128,0,171859:0:0:0:0:
64,192,171859,1,0,0:0:0:0:
320,192,171859,128,0,171974:0:0:0:0:
192,192,171859,1,0,0:0:0:0:
192,192,171974,128,0,172090:0:0:0:0:
64,192,172090,128,0,172205:0:0:0:0:
320,192,172205,128,0,172320:0:0:0:0:
448,192,172320,1,0,0:0:0:0:
64,192,172320,1,0,0:0:0:0:
192,192,172320,128,0,172436:0:0:0:0:
320,192,172436,128,0,172551:0:0:0:0:
448,192,172551,128,0,172667:0:0:0:0:
64,192,172667,128,0,172782:0:0:0:0:
192,192,172782,128,0,172897:0:0:0:0:
320,192,172782,1,0,0:0:0:0:
448,192,172782,1,0,0:0:0:0:
448,192,172897,128,0,173013:0:0:0:0:
320,192,173013,128,0,173128:0:0:0:0:
64,192,173128,128,0,173243:0:0:0:0:
192,192,173243,1,0,0:0:0:0:
320,192,173243,1,0,0:0:0:0:
448,192,173243,128,0,173359:0:0:0:0:
64,192,173359,128,0,173474:0:0:0:0:
192,192,173474,128,0,173590:0:0:0:0:
320,192,173590,128,0,173705:0:0:0:0:
448,192,173705,1,0,0:0:0:0:
64,192,173705,128,0,174051:0:0:0:0:
192,192,173705,1,0,0:0:0:0:
448,192,173820,128,0,173936:0:0:0:0:
320,192,173936,128,0,174051:0:0:0:0:
192,192,174051,128,0,174167:0:0:0:0:
64,192,174167,1,0,0:0:0:0:
320,192,174167,1,0,0:0:0:0:
448,192,174167,128,0,174282:0:0:0:0:
64,192,174282,128,0,174397:0:0:0:0:
320,192,174397,128,0,174513:0:0:0:0:
192,192,174513,128,0,174628:0:0:0:0:
448,192,174628,1,0,0:0:0:0:
64,192,174628,128,0,174974:0:0:0:0:
320,192,174628,1,0,0:0:0:0:
320,192,174743,128,0,174859:0:0:0:0:
448,192,174859,128,0,174974:0:0:0:0:
192,192,174974,128,0,175090:0:0:0:0:
320,192,175090,128,0,175205:0:0:0:0:
64,192,175090,1,0,0:0:0:0:
448,192,175090,1,0,0:0:0:0:
64,192,175205,128,0,175320:0:0:0:0:
192,192,175320,128,0,175436:0:0:0:0:
448,192,175436,128,0,175551:0:0:0:0:
320,192,175551,128,0,175897:0:0:0:0:
64,192,175551,1,0,0:0:0:0:
192,192,175551,1,0,0:0:0:0:
192,192,175667,128,0,175782:0:0:0:0:
64,192,175782,128,0,175897:0:0:0:0:
192,192,175897,128,0,176013:0:0:0:0:
448,192,176013,128,0,176128:0:0:0:0:
320,192,176013,1,0,0:0:0:0:
64,192,176013,1,0,0:0:0:0:
320,192,176128,128,0,176243:0:0:0:0:
192,192,176128,1,0,0:0:0:0:
192,192,176243,128,0,176359:0:0:0:0:
64,192,176243,1,0,0:0:0:0:
64,192,176359,128,0,176474:0:0:0:0:
448,192,176359,1,0,0:0:0:0:
448,192,176474,128,0,176590:0:0:0:0:
320,192,176474,1,0,0:0:0:0:
192,192,176474,1,0,0:0:0:0:
320,192,176590,128,0,176705:0:0:0:0:
192,192,176590,1,0,0:0:0:0:
192,192,176705,128,0,176820:0:0:0:0:
64,192,176705,1,0,0:0:0:0:
64,192,176820,128,0,176936:0:0:0:0:
448,192,176820,1,0,0:0:0:0:
448,192,176936,128,0,177051:0:0:0:0:
320,192,176936,1,0,0:0:0:0:
192,192,176936,1,0,0:0:0:0:
320,192,177051,128,0,177167:0:0:0:0:
192,192,177051,1,0,0:0:0:0:
192,192,177167,128,0,177282:0:0:0:0:
64,192,177167,1,0,0:0:0:0:
64,192,177282,128,0,177397:0:0:0:0:
448,192,177282,1,0,0:0:0:0:
320,192,177397,1,0,0:0:0:0:
192,192,177397,1,0,0:0:0:0:
448,192,177397,128,0,177513:0:0:0:0:
192,192,177513,128,0,177628:0:0:0:0:
320,192,177628,128,0,177743:0:0:0:0:
64,192,177743,128,0,177859:0:0:0:0:
192,192,177859,1,0,0:0:0:0:
448,192,177859,128,0,177974:0:0:0:0:
320,192,177859,1,0,0:0:0:0:
320,192,177974,128,0,178090:0:0:0:0:
64,192,178090,128,0,178205:0:0:0:0:
192,192,178205,128,0,178320:0:0:0:0:
448,192,178320,128,0,178436:0:0:0:0:
320,192,178320,1,0,0:0:0:0:
64,192,178320,1,0,0:0:0:0:
64,192,178436,128,0,178551:0:0:0:0:
320,192,178551,128,0,178667:0:0:0:0:
448,192,178667,128,0,178782:0:0:0:0:
64,192,178782,1,0,0:0:0:0:
192,192,178782,128,0,178897:0:0:0:0:
320,192,178782,1,0,0:0:0:0:
320,192,178897,128,0,179013:0:0:0:0:
64,192,179013,128,0,179128:0:0:0:0:
448,192,179128,128,0,179243:0:0:0:0:
320,192,179243,128,0,179359:0:0:0:0:
192,192,179243,1,0,0:0:0:0:
64,192,179243,1,0,0:0:0:0:
64,192,179359,128,0,179474:0:0:0:0:
192,192,179474,128,0,179590:0:0:0:0:
448,192,179590,128,0,179705:0:0:0:0:
320,192,179705,1,0,0:0:0:0:
192,192,179705,1,0,0:0:0:0:
64,192,179705,128,0,179820:0:0:0:0:
320,192,179820,128,0,179936:0:0:0:0:
192,192,179936,128,0,180051:0:0:0:0:
448,192,180051,128,0,180167:0:0:0:0:
64,192,180167,128,0,180282:0:0:0:0:
320,192,180167,1,0,0:0:0:0:
192,192,180167,1,0,0:0:0:0:
320,192,180282,128,0,180397:0:0:0:0:
192,192,180397,128,0,180513:0:0:0:0:
448,192,180397,1,0,0:0:0:0:
64,192,180513,128,0,180628:0:0:0:0:
320,192,180628,128,0,180743:0:0:0:0:
448,192,180628,1,0,0:0:0:0:
192,192,180628,1,0,0:0:0:0:
448,192,180743,128,0,180859:0:0:0:0:
64,192,180859,128,0,180974:0:0:0:0:
320,192,180859,1,0,0:0:0:0:
192,192,180974,128,0,181090:0:0:0:0:
448,192,181090,128,0,181320:0:0:0:0:
320,192,181090,1,0,0:0:0:0:
64,192,181090,1,0,0:0:0:0:
320,192,181205,128,0,181320:0:0:0:0:
64,192,181320,128,0,181436:0:0:0:0:
448,192,181436,128,0,181551:0:0:0:0:
192,192,181551,128,0,181667:0:0:0:0:
64,192,181551,1,0,0:0:0:0:
320,192,181551,1,0,0:0:0:0:
320,192,181667,128,0,181782:0:0:0:0:
64,192,181782,128,0,181897:0:0:0:0:
448,192,181897,128,0,182013:0:0:0:0:
192,192,182013,128,0,182243:0:0:0:0:
320,192,182013,1,0,0:0:0:0:
64,192,182013,1,0,0:0:0:0:
320,192,182128,128,0,182243:0:0:0:0:
64,192,182243,128,0,182359:0:0:0:0:
448,192,182359,128,0,182474:0:0:0:0:
192,192,182474,128,0,182590:0:0:0:0:
64,192,182474,1,0,0:0:0:0:
320,192,182474,1,0,0:0:0:0:
64,192,182590,128,0,182705:0:0:0:0:
320,192,182705,128,0,182820:0:0:0:0:
448,192,182820,128,0,182936:0:0:0:0:
64,192,182936,128,0,183051:0:0:0:0:
192,192,182936,1,0,0:0:0:0:
320,192,182936,1,0,0:0:0:0:
320,192,183051,128,0,183167:0:0:0:0:
192,192,183167,128,0,183282:0:0:0:0:
448,192,183282,128,0,183397:0:0:0:0:
320,192,183397,128,0,183513:0:0:0:0:
64,192,183397,1,0,0:0:0:0:
192,192,183397,1,0,0:0:0:0:
192,192,183513,128,0,183628:0:0:0:0:
64,192,183628,128,0,183743:0:0:0:0:
320,192,183743,128,0,183859:0:0:0:0:
448,192,183859,128,0,183974:0:0:0:0:
192,192,183859,1,0,0:0:0:0:
64,192,183859,1,0,0:0:0:0:
64,192,183974,128,0,184090:0:0:0:0:
320,192,183974,1,0,0:0:0:0:
192,192,184090,128,0,184205:0:0:0:0:
448,192,184090,1,0,0:0:0:0:
320,192,184205,128,0,184320:0:0:0:0:
448,192,184320,128,0,184436:0:0:0:0:
192,192,184320,1,0,0:0:0:0:
64,192,184320,1,0,0:0:0:0:
64,192,184436,128,0,184551:0:0:0:0:
320,192,184551,128,0,184667:0:0:0:0:
192,192,184551,1,0,0:0:0:0:
192,192,184667,128,0,184782:0:0:0:0:
448,192,184782,128,0,185128:0:0:0:0:
320,192,184782,1,0,0:0:0:0:
64,192,184782,1,0,0:0:0:0:
64,192,184897,128,0,185013:0:0:0:0:
192,192,185013,128,0,185128:0:0:0:0:
320,192,185128,128,0,185243:0:0:0:0:
448,192,185243,128,0,185359:0:0:0:0:
64,192,185243,1,0,0:0:0:0:
192,192,185243,1,0,0:0:0:0:
64,192,185359,128,0,185474:0:0:0:0:
320,192,185474,128,0,185590:0:0:0:0:
192,192,185590,128,0,185705:0:0:0:0:
64,192,185705,128,0,185820:0:0:0:0:
448,192,185705,1,0,0:0:0:0:
320,192,185705,1,0,0:0:0:0:
320,192,185820,128,0,185936:0:0:0:0:
448,192,185936,128,0,186051:0:0:0:0:
192,192,186051,128,0,186167:0:0:0:0:
64,192,186167,128,0,186282:0:0:0:0:
320,192,186167,1,0,0:0:0:0:
448,192,186167,1,0,0:0:0:0:
320,192,186282,128,0,186397:0:0:0:0:
192,192,186397,128,0,186513:0:0:0:0:
448,192,186513,128,0,186628:0:0:0:0:
64,192,186628,128,0,186859:0:0:0:0:
192,192,186628,1,0,0:0:0:0:
320,192,186628,1,0,0:0:0:0:
320,192,186743,128,0,186859:0:0:0:0:
448,192,186859,128,0,186974:0:0:0:0:
192,192,186974,128,0,187090:0:0:0:0:
320,192,187090,128,0,187205:0:0:0:0:
448,192,187090,1,0,0:0:0:0:
64,192,187090,1,0,0:0:0:0:
448,192,187205,128,0,187320:0:0:0:0:
64,192,187320,128,0,187436:0:0:0:0:
192,192,187436,128,0,187551:0:0:0:0:
448,192,187551,128,0,187667:0:0:0:0:
320,192,187551,1,0,0:0:0:0:
64,192,187551,1,0,0:0:0:0:
320,192,187667,128,0,187782:0:0:0:0:
192,192,187782,128,0,187897:0:0:0:0:
448,192,187782,1,0,0:0:0:0:
64,192,187897,128,0,188013:0:0:0:0:
320,192,188013,128,0,188128:0:0:0:0:
448,192,188013,1,0,0:0:0:0:
192,192,188013,1,0,0:0:0:0:
192,192,188128,128,0,188243:0:0:0:0:
448,192,188243,128,0,188359:0:0:0:0:
64,192,188243,1,0,0:0:0:0:
64,192,188359,128,0,188474:0:0:0:0:
192,192,188474,128,0,188820:0:0:0:0:
448,192,188474,1,0,0:0:0:0:
320,192,188474,1,0,0:0:0:0:
320,192,188590,128,0,188705:0:0:0:0:
64,192,188705,128,0,188820:0:0:0:0:
448,192,188820,128,0,188936:0:0:0:0:
320,192,188936,128,0,189051:0:0:0:0:
192,192,188936,1,0,0:0:0:0:
64,192,188936,1,0,0:0:0:0:
64,192,189051,128,0,189167:0:0:0:0:
192,192,189167,128,0,189282:0:0:0:0:
320,192,189282,128,0,189397:0:0:0:0:
448,192,189397,128,0,189743:0:0:0:0:
64,192,189397,1,0,0:0:0:0:
192,192,189397,1,0,0:0:0:0:
192,192,189513,128,0,189628:0:0:0:0:
64,192,189628,128,0,189743:0:0:0:0:
320,192,189743,128,0,189859:0:0:0:0:
448,192,189859,128,0,189974:0:0:0:0:
192,192,189859,1,0,0:0:0:0:
64,192,189859,1,0,0:0:0:0:
192,192,189974,128,0,190090:0:0:0:0:
448,192,190090,128,0,190205:0:0:0:0:
64,192,190205,128,0,190320:0:0:0:0:
192,192,190320,128,0,190551:0:0:0:0:
320,192,190320,1,0,0:0:0:0:
448,192,190320,1,0,0:0:0:0:
448,192,190436,128,0,190551:0:0:0:0:
320,192,190551,128,0,190667:0:0:0:0:
64,192,190667,128,0,190782:0:0:0:0:
192,192,190782,128,0,191013:0:0:0:0:
320,192,190782,1,0,0:0:0:0:
448,192,190782,1,0,0:0:0:0:
448,192,190897,128,0,191013:0:0:0:0:
64,192,191013,128,0,191128:0:0:0:0:
320,192,191128,128,0,191243:0:0:0:0:
192,192,191243,128,0,191359:0:0:0:0:
448,192,191243,1,0,0:0:0:0:
64,192,191243,1,0,0:0:0:0:
64,192,191359,128,0,191474:0:0:0:0:
320,192,191474,128,0,191590:0:0:0:0:
192,192,191474,1,0,0:0:0:0:
448,192,191590,128,0,191705:0:0:0:0:
192,192,191705,128,0,191820:0:0:0:0:
64,192,191705,1,0,0:0:0:0:
320,192,191705,1,0,0:0:0:0:
320,192,191820,128,0,191936:0:0:0:0:
64,192,191936,128,0,192051:0:0:0:0:
448,192,191936,1,0,0:0:0:0:
192,192,192051,128,0,192167:0:0:0:0:
448,192,192167,1,0,0:0:0:0:
320,192,192167,1,0,0:0:0:0:
64,192,192167,1,0,0:0:0:0:
64,192,192397,1,0,0:0:0:0:
320,192,192628,1,0,0:0:0:0:
448,192,192628,1,0,0:0:0:0:
192,192,192628,1,0,0:0:0:0:
320,192,192859,1,0,0:0:0:0:
448,192,193090,1,0,0:0:0:0:
64,192,193090,1,0,0:0:0:0:
320,192,193205,1,0,0:0:0:0:
192,192,193320,1,0,0:0:0:0:
320,192,193551,1,0,0:0:0:0:
448,192,193551,1,0,0:0:0:0:
64,192,193551,1,0,0:0:0:0:
448,192,193782,1,0,0:0:0:0:
192,192,194013,1,0,0:0:0:0:
64,192,194013,1,0,0:0:0:0:
320,192,194128,1,0,0:0:0:0:
448,192,194243,1,0,0:0:0:0:
192,192,194474,1,0,0:0:0:0:
320,192,194474,1,0,0:0:0:0:
64,192,194474,1,0,0:0:0:0:
64,192,194705,1,0,0:0:0:0:
448,192,194936,1,0,0:0:0:0:
320,192,194936,1,0,0:0:0:0:
192,192,195051,1,0,0:0:0:0:
64,192,195167,1,0,0:0:0:0:
192,192,195397,1,0,0:0:0:0:
320,192,195397,1,0,0:0:0:0:
448,192,195397,1,0,0:0:0:0:
192,192,195628,1,0,0:0:0:0:
448,192,195859,1,0,0:0:0:0:
64,192,195859,1,0,0:0:0:0:
320,192,195974,1,0,0:0:0:0:
192,192,196090,1,0,0:0:0:0:
320,192,196320,1,0,0:0:0:0:
448,192,196320,1,0,0:0:0:0:
64,192,196320,1,0,0:0:0:0:
64,192,196551,1,0,0:0:0:0:
320,192,196782,1,0,0:0:0:0:
192,192,196782,1,0,0:0:0:0:
64,192,196897,1,0,0:0:0:0:
448,192,197013,1,0,0:0:0:0:
64,192,197243,1,0,0:0:0:0:
192,192,197243,1,0,0:0:0:0:
320,192,197243,1,0,0:0:0:0:
192,192,197474,1,0,0:0:0:0:
448,192,197705,1,0,0:0:0:0:
320,192,197705,1,0,0:0:0:0:
64,192,197820,1,0,0:0:0:0:
192,192,197936,1,0,0:0:0:0:
320,192,198167,1,0,0:0:0:0:
448,192,198167,1,0,0:0:0:0:
64,192,198167,1,0,0:0:0:0:
320,192,198397,1,0,0:0:0:0:
448,192,198628,1,0,0:0:0:0:
64,192,198628,1,0,0:0:0:0:
192,192,198743,1,0,0:0:0:0:
320,192,198859,1,0,0:0:0:0:
192,192,199090,1,0,0:0:0:0:
448,192,199090,1,0,0:0:0:0:
64,192,199090,1,0,0:0:0:0:
448,192,199320,1,0,0:0:0:0:
448,192,199551,1,0,0:0:0:0:
192,192,199551,1,0,0:0:0:0:
64,192,199667,1,0,0:0:0:0:
320,192,199782,1,0,0:0:0:0:
192,192,200013,1,0,0:0:0:0:
448,192,200013,1,0,0:0:0:0:
64,192,200013,1,0,0:0:0:0:
64,192,200243,1,0,0:0:0:0:
320,192,200474,1,0,0:0:0:0:
192,192,200474,1,0,0:0:0:0:
448,192,200590,1,0,0:0:0:0:
64,192,200705,1,0,0:0:0:0:
192,192,200936,1,0,0:0:0:0:
320,192,200936,1,0,0:0:0:0:
448,192,200936,1,0,0:0:0:0:
192,192,201167,1,0,0:0:0:0:
320,192,201397,1,0,0:0:0:0:
64,192,201397,1,0,0:0:0:0:
448,192,201513,1,0,0:0:0:0:
192,192,201628,1,0,0:0:0:0:
320,192,201859,1,0,0:0:0:0:
448,192,201859,1,0,0:0:0:0:
64,192,201859,1,0,0:0:0:0:
64,192,202090,1,0,0:0:0:0:
320,192,202320,1,0,0:0:0:0:
192,192,202320,1,0,0:0:0:0:
64,192,202436,1,0,0:0:0:0:
448,192,202551,1,0,0:0:0:0:
192,192,202782,1,0,0:0:0:0:
320,192,202782,1,0,0:0:0:0:
64,192,202782,1,0,0:0:0:0:
192,192,203013,1,0,0:0:0:0:
448,192,203243,1,0,0:0:0:0:
64,192,203243,1,0,0:0:0:0:
192,192,203359,1,0,0:0:0:0:
320,192,203474,1,0,0:0:0:0:
192,192,203705,1,0,0:0:0:0:
448,192,203705,1,0,0:0:0:0:
64,192,203705,1,0,0:0:0:0:
448,192,203936,1,0,0:0:0:0:
320,192,204167,1,0,0:0:0:0:
192,192,204167,1,0,0:0:0:0:
64,192,204282,1,0,0:0:0:0:
448,192,204397,1,0,0:0:0:0:
192,192,204628,1,0,0:0:0:0:
320,192,204628,1,0,0:0:0:0:
64,192,204628,1,0,0:0:0:0:
320,192,204859,1,0,0:0:0:0:
448,192,205090,1,0,0:0:0:0:
192,192,205090,1,0,0:0:0:0:
64,192,205205,1,0,0:0:0:0:
320,192,205320,1,0,0:0:0:0:
192,192,205551,1,0,0:0:0:0:
448,192,205551,1,0,0:0:0:0:
64,192,205551,1,0,0:0:0:0:
192,192,205782,1,0,0:0:0:0:
448,192,206013,1,0,0:0:0:0:
320,192,206013,128,0,206128:0:0:0:0:
64,192,206243,128,0,206359:0:0:0:0:
192,192,206243,1,0,0:0:0:0:
448,192,206243,1,0,0:0:0:0:
448,192,206474,128,0,206590:0:0:0:0:
320,192,206474,1,0,0:0:0:0:
64,192,206474,1,0,0:0:0:0:
192,192,206705,128,0,206820:0:0:0:0:
64,192,206705,1,0,0:0:0:0:
320,192,206705,128,0,206936:0:0:0:0:
448,192,206705,1,0,0:0:0:0:
