osu file format v14

[General]
AudioFilename: audio.mp3
AudioLeadIn: 0
PreviewTime: 161636
Countdown: 0
SampleSet: Soft
StackLeniency: 0.7
Mode: 0
LetterboxInBreaks: 0
EpilepsyWarning: 1
WidescreenStoryboard: 1

[Editor]
DistanceSpacing: 0.2
BeatDivisor: 2
GridSize: 32
TimelineZoom: 1.2

[Metadata]
Title:world.execute(me);
TitleUnicode:world.execute(me);
Artist:Mili
ArtistUnicode:Mili
Creator:SMOKELIND
Version:world.hard(hinsvar);
Source:
Tags:momocashew cassie wei projectmili yamato kasai hamo Yukihito Mitomo Shoto Yoshida Ame Yamaguchi project Piano Electronic Rock English Miracle Milk FA Featured Artist Mappers' Guild Iceluin Hinsvar Nymphe Kiyoshi Guarden frozz -Keqing Visionary Himada
BeatmapID:3994922
BeatmapSetID:1928286

[Difficulty]
HPDrainRate:3.5
CircleSize:3.5
OverallDifficulty:6
ApproachRate:7.5
SliderMultiplier:1.52
SliderTickRate:1

[Events]
//Background and Video events
0,0,"BG.jpg",0,0
//Break Periods
//Storyboard Layer 0 (Background)
//Storyboard Layer 1 (Fail)
//Storyboard Layer 2 (Pass)
//Storyboard Layer 3 (Foreground)
//Storyboard Layer 4 (Overlay)
//Storyboard Sound Samples

[TimingPoints]
213,461.538461538462,4,2,77,77,1,0
29751,-125,4,2,77,47,0,0
44520,-100,4,2,77,57,0,0
59289,-83.3333333333333,4,2,77,87,0,1
74059,-125,4,2,77,87,0,0
74289,-125,4,2,77,47,0,0
77751,-125,4,2,77,67,0,0
78789,-125,4,2,77,47,0,0
103597,-100,4,2,77,57,0,0
133136,-100,4,2,77,67,0,0
159443,-100,4,2,77,27,0,0
162674,-83.3333333333333,4,2,77,87,0,1
192213,-125,4,2,77,87,0,0
192673,-125,4,2,77,57,0,0
206288,-125,4,2,77,77,0,0

[Colours]
Combo1 : 255,121,188
Combo2 : 121,255,168

[HitObjects]
65,151,14982,6,0,B|88:172|28:276|71:307,1,152,6|10,1:0|0:0,0:0:0:0:
147,349,15674,1,2,0:0:0:0:
245,341,15905,2,0,B|222:320|282:216|239:185,1,152,2|10,1:0|0:0,0:0:0:0:
163,143,16597,1,2,0:0:0:0:
163,143,17059,1,2,0:0:0:0:
244,88,17289,2,0,B|250:50|250:50|220:10,1,76,10|2,0:0|0:0,0:0:0:0:
128,13,17751,2,0,B|90:7|90:7|50:37,1,76,2|2,1:0|0:0,0:0:0:0:
7,113,18213,2,0,B|1:151|1:151|31:191,1,76,10|2,0:0|0:0,0:0:0:0:
123,188,18674,6,0,P|188:187|266:229,1,152,2|10,1:0|0:0,0:0:0:0:
355,262,19366,1,2,0:0:0:0:
442,308,19597,2,0,P|377:307|299:349,1,152,2|10,1:0|0:0,0:0:0:0:
210,382,20289,1,2,0:0:0:0:
210,382,20751,1,0,0:0:0:0:
196,284,20982,2,0,B|191:220|191:220|164:212,1,76,10|2,0:0|0:0,0:0:0:0:
101,174,21443,1,2,1:0:0:0:
101,174,21559,1,8,0:0:0:0:
101,174,21674,1,0,0:0:0:0:
87,76,21905,2,0,B|84:44|84:44|71:40,3,38,10|0|0|0,0:0|0:0|0:0|0:0,0:0:0:0:
52,14,22366,6,0,P|122:37|224:24,1,152,6|10,1:0|0:0,0:0:0:0:
245,120,23059,1,2,0:0:0:0:
290,207,23289,2,0,P|355:173|418:92,1,152,2|10,1:0|0:0,0:0:0:0:
506,149,23982,1,2,0:0:0:0:
506,149,24443,1,0,0:0:0:0:
494,50,24674,2,0,B|474:27|474:27|417:22,1,76,10|2,0:0|0:0,0:0:0:0:
330,35,25136,2,0,B|307:55|307:55|302:112,1,76,2|2,1:0|0:0,0:0:0:0:
204,111,25597,2,0,B|159:108|159:108|139:85,1,76,10|2,0:0|0:0,0:0:0:0:
53,151,26059,6,0,P|104:199|123:286,1,152,2|10,1:0|0:0,0:0:0:0:
189,350,26751,1,2,0:0:0:0:
286,334,26982,1,2,1:0:0:0:
375,256,27213,1,2,0:0:0:0:
259,236,27444,1,10,0:0:0:0:
189,141,27674,2,0,P|192:110|191:86,2,38,2|0|2,0:0|0:0|1:0,0:0:0:0:
89,147,28136,2,0,P|90:109|96:71,2,76,0|10|0,0:0|0:0|0:0,0:0:0:0:
145,240,28828,5,2,1:0:0:0:
145,240,28943,1,8,0:0:0:0:
145,240,29059,1,0,3:0:0:0:
247,303,29289,1,8,0:0:0:0:
139,344,29520,1,8,0:0:0:0:
139,344,29636,1,8,0:0:0:0:
139,344,29751,1,6,1:0:0:0:
29,205,30213,6,0,B|28:183|49:167|54:142,1,60.8,2|0,1:0|0:0,0:0:0:0:
67,59,30674,1,2,1:0:0:0:
82,57,30789,1,2,0:0:0:0:
160,102,31020,2,0,B|168:79|161:30|176:-1,1,91.2,2|2,0:0|0:0,0:0:0:0:
261,14,31597,6,0,P|290:26|319:20,1,60.8,2|2,1:0|0:0,0:0:0:0:
405,47,32059,2,0,P|393:76|399:105,1,60.8,2|2,1:0|0:0,0:0:0:0:
360,186,32520,2,0,P|331:198|302:192,1,60.8,2|2,1:0|0:0,0:0:0:0:
216,219,32982,2,0,B|228:248|228:248|222:277,1,60.8,10|2,0:0|0:0,0:0:0:0:
298,335,33443,5,2,1:0:0:0:
298,335,33905,2,0,L|358:361,1,60.8,2|0,1:0|0:0,0:0:0:0:
439,327,34366,1,2,1:0:0:0:
434,312,34482,1,2,0:0:0:0:
429,220,34713,2,0,L|339:181,1,91.2,2|2,0:0|0:0,0:0:0:0:
290,111,35289,6,0,B|296:76|296:76|278:47,1,60.8,2|2,1:0|0:0,0:0:0:0:
194,29,35751,2,0,B|160:41|160:41|144:71,1,60.8,2|2,1:0|0:0,0:0:0:0:
171,154,36213,2,0,B|198:176|198:176|232:175,1,60.8,2|2,1:0|0:0,0:0:0:0:
279,248,36674,2,0,L|266:312,1,60.8,10|2,0:0|0:0,0:0:0:0:
196,366,37136,5,2,1:0:0:0:
196,366,37597,2,0,P|156:333|128:326,1,60.8,2|0,1:0|0:0,0:0:0:0:
71,279,38059,1,2,1:0:0:0:
55,279,38174,1,2,0:0:0:0:
13,197,38405,2,0,P|56:143|66:106,1,91.2,2|2,0:0|0:0,0:0:0:0:
152,96,38982,6,0,P|150:56|139:27,1,60.8,2|2,1:0|0:0,0:0:0:0:
234,28,39443,2,0,P|274:26|303:15,1,60.8,2|2,1:0|0:0,0:0:0:0:
357,85,39905,2,0,P|359:125|370:154,1,60.8,2|2,1:0|0:0,0:0:0:0:
275,153,40366,2,0,B|235:155|235:155|206:166,1,60.8,10|2,0:0|0:0,0:0:0:0:
173,243,40828,6,0,P|177:270|164:314,3,60.8,2|2|2|2,1:0|0:0|1:0|0:0,0:0:0:0:
254,343,41751,1,2,1:0:0:0:
256,357,41866,1,2,0:0:0:0:
347,350,42097,2,0,P|341:309|360:243,1,91.2,2|2,0:0|0:0,0:0:0:0:
295,188,42674,6,0,B|272:192|272:192|237:178,1,60.8,2|2,1:0|0:0,0:0:0:0:
247,86,43136,2,0,B|269:81|269:81|304:95,2,60.8,2|2|2,1:0|0:0|1:0,0:0:0:0:
145,125,43828,5,10,0:0:0:0:
57,60,44058,1,10,0:0:0:0:
159,21,44289,1,2,0:0:0:0:
247,86,44520,6,0,B|284:47|344:44|389:87,1,152,4|10,1:0|0:0,0:0:0:0:
457,271,45443,1,2,1:0:0:0:
385,339,45674,2,0,B|348:378|288:381|243:338,1,152,2|2,0:0|0:0,0:0:0:0:
193,260,46366,2,0,P|201:221|201:173,1,76,2|2,1:0|0:0,0:0:0:0:
19,29,47059,1,2,0:0:0:0:
74,111,47289,2,0,P|66:150|66:198,1,76,2|2,1:0|0:0,0:0:0:0:
118,272,47751,2,0,L|197:259,1,76,10|2,0:0|0:0,0:0:0:0:
286,226,48213,6,0,P|316:230|419:299,2,152,2|10|2,1:0|0:0|1:0,0:0:0:0:
236,141,49366,1,2,0:0:0:0:
456,26,49828,1,2,0:0:0:0:
410,114,50059,2,0,P|411:156|429:193,2,76,2|2|8,1:0|0:0|0:0,0:0:0:0:
316,81,50751,2,0,P|314:38|296:1,2,76,2|2|2,0:0|1:0|0:0,0:0:0:0:
236,141,51443,1,10,0:0:0:0:
133,193,51674,1,0,0:0:0:0:
31,144,51905,6,0,B|57:76|57:76|5:-1,2,152,2|10|2,1:0|0:0|1:0,0:0:0:0:
48,241,53059,1,2,0:0:0:0:
266,278,53520,1,2,0:0:0:0:
319,361,53751,2,0,P|348:336|392:323,1,76,2|2,1:0|0:0,0:0:0:0:
281,120,54443,1,2,0:0:0:0:
364,172,54674,2,0,P|379:137|414:106,1,76,2|2,1:0|0:0,0:0:0:0:
485,171,55136,2,0,P|469:205|434:236,1,76,10|0,0:0|0:0,0:0:0:0:
374,303,55597,6,0,B|324:314|270:270|214:271,2,152,2|10|2,1:0|0:0|1:0,0:0:0:0:
451,364,56751,1,2,0:0:0:0:
481,137,57213,2,0,P|480:99|469:62,1,76,2|2,0:0|0:0,0:0:0:0:
383,27,57674,1,2,1:0:0:0:
383,27,57905,1,0,1:0:0:0:
129,27,58366,1,2,1:0:0:0:
129,27,58597,2,0,P|118:63|117:101,1,76,2|0,1:0|0:0,0:0:0:0:
268,356,59289,6,0,B|271:311|271:311|245:224|245:224|248:158,1,182.399994433594,6|10,1:0|0:0,0:0:0:0:
258,58,59982,1,2,0:0:0:0:
337,146,60213,2,0,B|292:143|292:143|205:169|205:169|139:166,1,182.399994433594,2|10,1:0|0:0,0:0:0:0:
39,156,60906,1,2,0:0:0:0:
16,244,61136,5,2,1:0:0:0:
115,248,61366,1,2,0:0:0:0:
222,271,61597,1,10,0:0:0:0:
301,366,61828,1,2,0:0:0:0:
301,366,62059,5,2,1:0:0:0:
306,238,62289,1,2,0:0:0:0:
352,119,62520,1,10,0:0:0:0:
445,31,62751,1,2,0:0:0:0:
427,166,62982,6,0,P|310:120|271:70,1,182.399994433594,2|10,1:0|0:0,0:0:0:0:
139,70,63674,1,2,0:0:0:0:
154,206,63905,2,0,P|271:252|310:302,1,182.399994433594,2|10,1:0|0:0,0:0:0:0:
442,302,64597,1,2,0:0:0:0:
427,166,64828,6,0,P|348:67|339:4,1,182.399994433594,2|10,1:0|0:0,0:0:0:0:
256,99,65520,1,2,0:0:0:0:
174,14,65751,1,2,1:0:0:0:
174,14,65866,1,10,0:0:0:0:
174,14,65982,1,2,0:0:0:0:
55,17,66213,2,0,P|30:42|8:99,1,91.199997216797,10|2,1:2|3:0,0:0:0:0:
43,239,66674,6,0,B|84:218|171:262|228:218,1,182.399994433594,6|8,1:0|0:0,0:0:0:0:
158,121,67366,1,2,0:0:0:0:
277,117,67597,2,0,B|278:93|318:67|314:31,1,91.199997216797,2|2,1:0|0:0,0:0:0:0:
423,83,68059,2,0,B|424:106|464:132|460:168,1,91.199997216797,10|2,0:0|0:0,0:0:0:0:
431,251,68520,5,2,1:0:0:0:
444,341,68751,1,2,0:0:0:0:
354,355,68982,1,10,0:0:0:0:
340,265,69213,1,2,0:0:0:0:
276,154,69443,5,2,1:0:0:0:
221,269,69674,1,2,0:0:0:0:
105,217,69905,1,10,0:0:0:0:
158,101,70136,1,2,0:0:0:0:
31,113,70366,6,0,P|100:88|176:12,1,182.399994433594,2|10,1:0|0:0,0:0:0:0:
256,99,71059,1,2,0:0:0:0:
336,12,71289,2,0,P|397:78|481:112,1,182.399994433594,2|10,1:0|0:0,0:0:0:0:
392,192,71982,1,2,0:0:0:0:
325,291,72213,2,0,L|192:328,1,136.799995825195,2|0,1:0|3:0,0:0:0:0:
193,327,72674,2,0,L|214:237,1,91.199997216797,10|0,0:0|0:0,0:0:0:0:
133,167,73136,1,2,1:0:0:0:
133,167,73251,1,8,0:0:0:0:
133,167,73366,1,2,3:2:0:0:
256,108,73597,1,10,0:0:0:0:
379,49,73828,1,10,0:0:0:0:
379,49,73943,1,8,0:0:0:0:
379,49,74059,1,2,3:2:0:0:
44,40,75905,5,2,1:3:0:0:
44,40,76136,1,2,1:3:0:0:
220,234,77059,1,12,0:0:0:0:
245,146,77289,1,8,0:3:0:0:
308,211,77520,1,4,0:3:0:0:
379,268,77751,6,0,B|411:272|411:272|440:246,1,60.8,12|0,0:2|1:0,0:0:0:0:
447,255,78097,2,0,B|451:222|451:222|425:194,1,60.8,12|0,0:0|1:0,0:0:0:0:
434,187,78443,1,8,0:0:0:0:
144,22,79597,5,4,1:0:0:0:
296,154,80059,1,0,1:0:0:0:
296,154,80289,1,8,0:3:0:0:
271,242,80520,1,8,1:3:0:0:
271,242,80751,1,8,0:3:0:0:
204,173,80982,2,0,P|171:168|138:179,1,60.8,0|0,1:0|0:0,0:0:0:0:
39,205,81443,5,4,1:0:0:0:
256,192,83289,1,0,1:0:0:0:
256,192,83520,1,0,1:0:0:0:
473,179,85136,1,0,1:0:0:0:
473,179,85366,1,0,1:0:0:0:
256,166,86982,1,0,1:0:0:0:
256,166,87213,1,0,1:0:0:0:
39,153,88828,5,4,1:0:0:0:
39,153,89982,2,0,L|35:120,3,20.2666666666667,8|8|8|8,0:3|0:3|0:3|0:3,0:0:0:0:
115,84,90443,1,8,0:3:0:0:
191,289,90905,1,2,1:3:0:0:
191,289,91366,2,0,L|195:322,3,20.2666666666667,0|0|0|8,3:0|3:0|3:0|0:0,0:0:0:0:
115,358,91827,1,2,1:3:0:0:
479,25,94366,5,12,0:0:0:0:
261,242,94828,1,0,1:0:0:0:
250,151,95059,1,12,0:0:0:0:
33,359,95520,1,0,1:0:0:0:
22,268,95751,1,12,0:0:0:0:
106,303,95982,2,0,L|132:303,3,20.2666666666667,8|8|8|8,0:3|0:3|0:3|1:3,0:0:0:0:
99,216,96443,1,8,0:3:0:0:
336,15,97366,5,2,1:3:0:0:
256,192,97828,1,2,1:3:0:0:
176,369,98982,6,0,P|175:355|175:340,3,20.2666666666667,8|8|8|8,0:3|0:3|0:3|0:3,0:0:0:0:
256,309,99443,1,12,0:0:0:0:
191,126,99905,5,2,1:3:0:0:
153,41,100136,1,2,1:3:0:0:
153,41,103597,6,0,P|233:39|310:8,1,152,6|10,1:0|0:0,0:0:0:0:
382,68,104289,1,2,0:0:0:0:
361,164,104520,2,0,P|281:166|204:197,1,152,2|10,1:0|0:0,0:0:0:0:
132,137,105212,1,2,0:0:0:0:
60,204,105443,2,0,B|41:247|102:303|87:349,2,152,2|10|2,1:0|0:0|1:0,0:0:0:0:
60,204,106482,1,0,0:0:0:0:
60,204,106597,1,2,0:0:0:0:
32,108,106828,2,0,P|38:71|26:27,1,76,10|2,0:0|0:0,0:0:0:0:
125,8,107289,6,0,P|171:71|251:75,1,152,2|10,1:0|0:0,0:0:0:0:
338,62,107982,1,2,0:0:0:0:
364,157,108213,2,0,P|301:203|297:283,1,152,2|10,1:0|0:0,0:0:0:0:
310,370,108906,1,2,0:0:0:0:
408,361,109136,2,0,P|471:315|475:235,1,152,2|10,1:0|0:0,0:0:0:0:
462,148,109829,1,0,0:0:0:0:
364,157,110059,1,2,1:0:0:0:
364,157,110174,1,8,0:0:0:0:
364,157,110289,1,2,0:0:0:0:
405,67,110520,2,0,P|378:44|343:55,1,76,10|2,0:0|0:0,0:0:0:0:
223,15,110982,6,0,P|249:98|250:187,1,152,6|10,1:0|0:0,0:0:0:0:
205,249,111674,1,2,0:0:0:0:
256,333,111905,1,2,1:0:0:0:
453,328,112366,1,10,0:0:0:0:
402,243,112597,1,2,0:0:0:0:
303,246,112828,1,2,1:0:0:0:
106,251,113289,1,10,0:0:0:0:
205,249,113520,1,2,0:0:0:0:
252,162,113751,2,0,B|260:151|260:151|251:144|251:144|242:157,2,38,2|0|0,1:0|3:0|0:0,0:0:0:0:
205,249,114213,5,10,0:0:0:0:
106,252,114444,1,2,0:0:0:0:
55,167,114674,1,2,1:0:0:0:
252,162,115135,1,10,0:0:0:0:
304,246,115366,1,2,0:0:0:0:
255,332,115597,1,2,1:0:0:0:
156,165,116059,1,10,0:0:0:0:
202,77,116290,1,2,0:0:0:0:
309,85,116521,1,2,1:0:0:0:
309,85,116636,1,0,3:0:0:0:
309,85,116751,1,0,3:0:0:0:
401,13,116982,6,0,P|405:51|412:89,1,76,14|2,0:0|3:2,0:0:0:0:
497,139,117443,1,2,1:0:0:0:
406,179,117674,1,10,0:0:0:0:
320,128,117905,1,10,0:0:0:0:
232,54,118136,1,10,0:0:0:0:
106,33,118366,6,0,B|68:34|24:125|-21:129,1,152,6|10,1:0|0:0,0:0:0:0:
64,191,119059,1,2,0:0:0:0:
160,212,119289,2,0,B|169:212|180:235|191:236,2,38,2|0|0,1:0|3:0|3:0,0:0:0:0:
94,286,119751,2,0,P|62:308|20:313,1,76,10|2,0:0|0:0,0:0:0:0:
17,215,120213,2,0,P|32:203|53:201,2,38,2|0|2,1:0|3:0|3:2,0:0:0:0:
6,116,120674,2,0,B|20:81|20:81|13:27,1,76,10|2,0:0|0:0,0:0:0:0:
111,20,121136,2,0,B|145:34|145:34|200:27,1,76,2|2,1:0|0:0,0:0:0:0:
255,97,121597,2,0,B|240:131|240:131|248:186,1,76,10|2,0:0|0:0,0:0:0:0:
298,288,122059,6,0,P|370:267|473:267,1,152,2|10,1:0|0:0,0:0:0:0:
483,172,122751,1,2,0:0:0:0:
493,73,122982,2,0,B|495:41|495:41|489:25,2,38,2|0|0,1:0|3:0|3:0,0:0:0:0:
397,97,123443,2,0,B|392:85|392:85|396:21,1,76,10|2,0:0|0:0,0:0:0:0:
296,22,123905,2,0,P|278:23|255:15,2,38,2|0|2,1:2|3:2|3:2,0:0:0:0:
301,120,124366,2,0,P|265:122|219:106,1,76,10|2,0:0|0:0,0:0:0:0:
277,233,124828,1,10,0:0:0:0:
277,233,124943,1,8,0:0:0:0:
277,233,125059,1,2,3:2:0:0:
314,343,125289,1,10,0:0:0:0:
374,246,125520,1,0,0:0:0:0:
458,169,125751,6,0,B|472:137|450:32|395:42,2,152,6|8|2,1:0|0:0|1:2,0:0:0:0:
458,169,126789,1,0,3:0:0:0:
458,169,126905,1,2,3:2:0:0:
362,143,127136,1,10,0:2:0:0:
159,39,127597,2,0,B|93:64|-23:244|68:307,1,304,2|0,1:0|1:0,0:0:0:0:
53,293,128636,1,0,3:0:0:0:
53,293,128751,1,0,3:0:0:0:
140,365,128982,2,0,P|173:353|225:347,1,76,10|2,0:0|0:0,0:0:0:0:
256,258,129443,6,0,B|256:185|230:122|238:99,2,152,2|8|2,1:0|0:0|1:0,0:0:0:0:
256,258,130482,1,0,3:0:0:0:
256,258,130597,1,0,3:0:0:0:
349,225,130828,2,0,B|349:188|362:157|358:145,1,76,8|0,0:0|0:0,0:0:0:0:
320,58,131289,2,0,P|311:42|281:34,2,38,2|0|0,1:0|3:0|3:0,0:0:0:0:
432,30,131751,1,14,0:0:0:0:
451,281,132213,5,2,1:0:0:0:
471,169,132444,1,8,0:0:0:0:
358,149,132675,1,10,0:0:0:0:
339,262,132905,1,10,0:0:0:0:
257,206,133136,6,0,P|255:179|248:155,2,38,6|2|2,1:0|0:0|0:0,0:0:0:0:
158,202,133597,1,8,1:2:0:0:
158,202,134059,1,0,1:0:0:0:
208,298,134289,2,0,L|261:290,2,38,8|8|8,0:0|0:0|1:2,0:0:0:0:
121,335,134751,1,2,0:0:0:0:
121,335,134866,1,2,0:0:0:0:
121,335,134982,1,2,1:0:0:0:
71,239,135213,2,0,L|18:247,2,38,8|8|8,0:0|0:0|1:2,0:0:0:0:
166,37,135905,1,0,1:0:0:0:
262,60,136136,2,0,L|268:9,2,38,8|8|8,0:0|0:0|1:2,0:0:0:0:
356,115,136597,1,0,0:0:0:0:
356,115,136713,1,2,0:0:0:0:
356,115,136828,1,2,1:0:0:0:
452,92,137059,2,0,L|458:143,2,38,0|0|8,3:0|3:0|1:2,0:0:0:0:
404,345,137751,1,2,1:0:0:0:
325,284,137982,2,0,P|303:279|272:295,2,38,8|8|8,0:0|0:0|1:2,0:0:0:0:
391,212,138443,1,2,0:0:0:0:
391,212,138559,1,2,0:0:0:0:
391,212,138674,1,2,1:0:0:0:
462,265,138905,2,0,P|484:270|515:254,2,38,0|0|8,3:0|3:0|1:2,0:0:0:0:
325,66,139597,1,0,1:0:0:0:
306,66,139713,1,0,3:0:0:0:
288,60,139828,1,8,0:0:0:0:
273,48,139943,1,8,0:0:0:0:
264,31,140059,1,8,1:2:0:0:
161,24,140289,5,10,0:0:0:0:
161,24,140405,1,10,0:0:0:0:
161,24,140520,2,0,P|163:68|147:179,1,152,6|8,1:0|1:2,0:0:0:0:
56,239,141213,1,2,0:0:0:0:
56,239,141329,1,2,0:0:0:0:
56,239,141444,2,0,P|54:195|70:84,1,152,2|8,1:0|1:2,0:0:0:0:
148,174,142136,1,2,0:0:0:0:
243,150,142366,2,0,B|276:134|347:196|388:184,1,152,2|8,1:0|1:2,0:0:0:0:
483,263,143059,1,2,0:0:0:0:
483,263,143174,1,2,0:0:0:0:
483,262,143289,2,0,B|450:246|379:308|337:296,1,152,2|8,1:0|1:2,0:0:0:0:
256,352,143982,1,2,3:2:0:0:
157,347,144213,2,0,B|158:297|88:249|90:206,1,152,2|8,1:0|1:2,0:0:0:0:
250,31,145136,2,0,B|249:81|319:129|317:172,1,152,2|8,1:0|1:2,0:0:0:0:
226,198,145828,1,2,0:0:0:0:
226,198,145943,1,2,0:0:0:0:
226,198,146059,2,0,P|130:201|69:179,1,152,2|8,1:0|1:2,0:0:0:0:
38,92,146751,2,0,P|37:68|42:52,2,38,2|2|2,0:0|0:0|1:0,0:0:0:0:
136,83,147213,1,8,0:0:0:0:
150,69,147328,1,8,0:0:0:0:
165,57,147443,1,8,0:0:0:0:
180,47,147559,1,8,0:0:0:0:
197,38,147674,1,8,0:0:0:0:
214,30,147789,1,8,0:0:0:0:
232,24,147905,6,0,P|263:43|314:43,1,76,6|2,1:2|0:2,0:0:0:0:
396,76,148366,2,0,P|377:107|377:158,1,76,10|2,0:2|0:2,0:0:0:0:
344,240,148828,2,0,P|313:221|262:221,1,76,2|2,1:2|0:2,0:0:0:0:
180,188,149289,2,0,P|199:157|199:106,1,76,10|2,0:2|0:2,0:0:0:0:
149,33,149751,6,0,L|58:44,1,76,2|2,1:2|3:2,0:0:0:0:
10,118,150213,2,0,L|21:209,1,76,10|2,0:2|3:2,0:2:0:0:
95,256,150674,2,0,L|170:246,1,76,2|10,1:2|0:2,0:0:0:0:
233,171,151136,2,0,L|223:95,1,76,10|2,0:2|3:2,0:2:0:0:
316,62,151597,5,2,1:2:0:0:
391,125,151828,1,2,3:2:0:0:
407,222,152059,1,10,0:2:0:0:
358,307,152289,1,2,3:2:0:0:
266,340,152520,1,2,1:2:0:0:
173,307,152751,1,2,3:2:0:0:
123,223,152982,1,10,0:2:0:0:
142,125,153213,1,2,0:2:0:0:
217,62,153443,5,2,1:2:0:0:
234,158,153674,1,10,0:2:0:0:
330,141,153905,1,10,0:2:0:0:
426,124,154136,1,2,0:2:0:0:
443,220,154367,1,2,1:2:0:0:
347,237,154597,1,10,0:2:0:0:
251,254,154828,1,10,0:2:0:0:
276,358,155059,5,10,0:2:0:0:
276,358,155174,1,0,0:2:0:0:
276,358,155289,2,0,P|240:358|199:381,2,76,6|2|10,1:2|3:2|0:2,0:0:0:0:
375,364,155982,1,2,3:2:0:0:
332,276,156213,2,0,P|314:244|273:220,2,76,2|2|10,1:2|3:2|0:2,0:0:0:0:
375,364,156906,1,2,3:2:0:0:
430,283,157136,2,0,P|448:251|448:204,2,76,2|10|10,1:2|3:2|1:2,0:0:0:0:
375,364,157829,1,2,3:2:0:0:
276,358,158059,1,2,1:2:0:0:
332,276,158289,5,10,0:2:0:0:
323,257,158404,1,8,0:0:0:0:
313,240,158519,1,10,1:2:0:0:
302,226,158635,1,8,0:0:0:0:
288,213,158750,1,10,0:2:0:0:
273,202,158865,1,8,0:0:0:0:
256,192,158981,5,10,1:2:0:0:
256,192,159674,1,0,1:0:0:0:
256,192,160366,1,0,1:0:0:0:
256,192,161059,1,0,1:0:0:0:
256,192,162674,6,0,B|286:127|217:57|242:-6,1,182.399994433594,6|10,1:0|0:0,0:0:0:0:
348,53,163366,1,2,0:0:0:0:
450,113,163597,2,0,B|420:178|489:248|464:311,1,182.399994433594,2|10,1:0|0:0,0:0:0:0:
358,252,164289,1,2,0:0:0:0:
365,342,164520,5,2,1:0:0:0:
267,365,164751,1,2,0:0:0:0:
158,349,164982,1,10,0:0:0:0:
102,244,165213,1,2,0:0:0:0:
181,144,165443,5,2,1:0:0:0:
243,255,165674,1,2,0:0:0:0:
175,363,165905,1,10,0:0:0:0:
47,357,166136,1,2,0:0:0:0:
87,236,166366,6,0,P|69:84|69:51,1,182.399994433594,2|10,1:0|0:0,0:0:0:0:
202,23,167059,1,2,0:0:0:0:
294,123,167289,2,0,P|311:274|312:308,1,182.399994433594,2|10,1:0|0:0,0:0:0:0:
179,336,167982,1,2,0:0:0:0:
108,218,168213,6,0,P|129:66|138:34,1,182.399994433594,2|10,1:0|0:0,0:0:0:0:
274,42,168906,1,2,0:0:0:0:
364,133,169136,1,2,1:0:0:0:
364,133,169251,1,8,0:0:0:0:
364,133,169366,1,2,0:0:0:0:
477,98,169597,2,0,P|477:48|455:7,1,91.199997216797,10|2,0:0|0:0,0:0:0:0:
445,180,170059,6,0,P|445:280|489:362,1,182.399994433594,6|10,1:0|0:0,0:0:0:0:
363,367,170751,1,2,0:0:0:0:
244,361,170982,2,0,P|244:261|200:179,1,182.399994433594,2|10,1:0|0:0,0:0:0:0:
326,174,171674,1,2,0:0:0:0:
376,98,171905,5,2,1:0:0:0:
284,93,172136,1,2,0:0:0:0:
196,27,172366,1,10,0:0:0:0:
86,21,172597,1,2,0:0:0:0:
4,118,172828,5,2,1:0:0:0:
71,226,173058,1,2,0:0:0:0:
195,195,173289,1,10,0:0:0:0:
203,68,173520,1,2,0:0:0:0:
276,121,173751,6,0,P|353:92|362:-3,1,182.399994433594,2|10,1:0|0:0,0:0:0:0:
476,81,174443,1,2,0:0:0:0:
473,199,174674,2,0,P|396:228|387:323,1,182.399994433594,2|10,1:0|0:0,0:0:0:0:
273,239,175366,1,2,0:0:0:0:
276,121,175597,1,2,1:0:0:0:
25,17,176059,2,0,B|3:61|3:61|33:109,1,91.199997216797,10|2,0:0|3:2,0:0:0:0:
143,89,176520,1,8,0:0:0:0:
143,89,176636,1,8,0:0:0:0:
143,89,176751,1,2,3:2:0:0:
91,195,176982,1,10,0:0:0:0:
39,301,177213,5,8,0:0:0:0:
39,301,177329,1,8,0:0:0:0:
39,301,177443,2,0,P|89:296|196:372,1,182.399994433594,4|10,1:2|0:0,0:0:0:0:
219,250,178136,1,2,3:2:0:0:
271,144,178366,2,0,P|221:149|114:73,1,182.399994433594,2|10,1:0|0:0,0:0:0:0:
91,195,179059,1,2,3:2:0:0:
11,150,179289,5,2,1:0:0:0:
22,249,179520,1,2,0:0:0:0:
98,327,179751,1,10,0:0:0:0:
216,314,179982,1,2,0:0:0:0:
300,218,180213,5,2,1:0:0:0:
424,242,180443,1,2,3:0:0:0:
508,349,180674,1,10,3:2:0:0:
375,374,180904,1,2,0:3:0:0:
312,307,181136,6,0,P|321:150|329:119,1,182.399994433594,6|10,1:0|0:0,0:0:0:0:
252,33,181828,1,2,3:2:0:0:
133,41,182059,2,0,P|124:198|116:229,1,182.399994433594,2|10,1:0|0:0,0:0:0:0:
193,315,182751,1,2,3:2:0:0:
98,370,182982,6,0,B|69:373|39:337|9:339,1,91.199997216797,0|2,1:0|0:0,0:0:0:0:
20,238,183443,2,0,B|38:215|85:219|104:196,1,91.199997216797,8|0,0:0|0:0,0:0:0:0:
58,131,183905,1,0,1:0:0:0:
58,131,184020,1,8,0:0:0:0:
58,131,184136,1,2,0:3:0:0:
145,106,184366,2,0,P|162:60|188:27,1,91.199997216797,2|2,1:3|0:3,0:0:0:0:
323,26,184828,6,0,B|375:33|425:110|496:126,1,182.399994433594,14|10,1:2|1:2,0:0:0:0:
368,167,185520,1,2,0:0:0:0:
267,229,185751,2,0,P|251:254|223:316,1,91.199997216797,10|2,1:2|3:2,0:0:0:0:
332,361,186213,2,0,P|348:336|376:274,1,91.199997216797,10|2,1:2|0:0,0:0:0:0:
368,167,186674,1,10,1:2:0:0:
106,56,187136,2,0,B|85:58|41:14|20:11,2,91.199997216797,10|2|10,1:2|0:0|1:2,0:0:0:0:
226,99,187828,1,2,0:0:0:0:
117,166,188059,1,10,1:2:0:0:
0,123,188290,1,2,0:0:0:0:
37,205,188520,6,0,P|54:260|56:390,1,182.399994433594,10|10,1:2|1:2,0:0:0:0:
167,338,189213,1,2,0:0:0:0:
278,377,189443,2,0,P|275:286|298:198,1,182.399994433594,10|10,1:2|1:2,0:0:0:0:
394,127,190136,1,2,0:0:0:0:
412,10,190366,5,10,1:2:0:0:
100,10,190828,1,10,1:2:0:0:
412,10,191289,2,0,P|374:7|336:60,1,91.199997216797,10|2,1:2|0:0,0:0:0:0:
278,147,191751,1,10,1:2:0:0:
258,159,191866,1,8,0:0:0:0:
246,177,191981,1,10,0:0:0:0:
242,200,192097,1,8,0:0:0:0:
248,221,192212,1,4,1:0:0:0:
84,353,192674,6,0,L|21:343,2,60.8,8|0|0,1:2|0:0|1:3,0:0:0:0:
114,172,193597,2,0,L|76:120,2,60.8,8|0|0,1:2|0:0|1:3,0:0:0:0:
263,65,194520,2,0,L|273:2,1,60.8,8|0,1:2|0:0,0:0:0:0:
361,28,194982,2,0,L|410:68,1,60.8,0|0,1:3|0:0,0:0:0:0:
344,131,195443,2,0,L|284:153,2,60.8,8|0|0,1:2|0:0|1:3,0:0:0:0:
446,282,196366,6,0,P|439:305|441:357,2,60.8,8|0|0,1:2|0:0|1:3,0:0:0:0:
372,226,197059,1,0,0:0:0:0:
295,169,197289,2,0,P|302:146|300:94,2,60.8,8|0|0,1:2|0:0|1:3,0:0:0:0:
134,286,198213,2,0,P|112:261|75:249,1,60.8,8|0,1:2|0:0,0:0:0:0:
68,158,198674,2,0,P|100:151|129:125,1,60.8,0|0,1:3|0:0,0:0:0:0:
211,164,199136,2,0,P|200:195|208:233,1,60.8,8|0,1:2|0:0,0:0:0:0:
223,311,199597,5,4,1:2:0:0:
397,366,200059,1,8,1:2:0:0:
456,297,200289,1,0,0:0:0:0:
403,222,200520,2,0,L|394:150,1,60.8,0|0,1:3|0:0,0:0:0:0:
416,72,200982,2,0,L|407:0,2,60.8,8|0|0,1:2|0:0|1:3,0:0:0:0:
254,156,201905,2,0,P|224:154|197:123,1,60.8,8|0,1:2|0:0,0:0:0:0:
158,52,202366,1,0,1:3:0:0:
158,52,202482,1,0,0:0:0:0:
158,52,202597,1,0,0:0:0:0:
247,26,202828,2,0,P|277:28|304:59,2,60.8,8|0|0,1:2|0:0|1:3,0:0:0:0:
55,103,203751,6,0,L|50:175,1,60.8,8|0,1:2|0:0,0:0:0:0:
131,207,204213,2,0,L|147:181,2,30.4,0|0|0,1:3|0:0|0:0,0:0:0:0:
180,284,204674,2,0,L|234:257,2,60.8,8|0|0,1:2|0:0|1:3,0:0:0:0:
25,380,205597,2,0,B|11:352|11:352|16:305,1,60.8,8|0,1:2|0:0,0:0:0:0:
25,231,206059,5,0,1:3:0:0:
140,174,206289,1,8,0:0:0:0:
260,217,206520,1,8,0:0:0:0:
145,275,206750,1,8,0:0:0:0:
