osu file format v14

[General]
AudioFilename: audio.mp3
AudioLeadIn: 0
PreviewTime: 161636
Countdown: 0
SampleSet: Soft
StackLeniency: 0.7
Mode: 0
LetterboxInBreaks: 0
EpilepsyWarning: 1
WidescreenStoryboard: 1

[Editor]
DistanceSpacing: 0.2
BeatDivisor: 8
GridSize: 32
TimelineZoom: 2.2

[Metadata]
Title:world.execute(me);
TitleUnicode:world.execute(me);
Artist:Mili
ArtistUnicode:Mili
Creator:SMOKELIND
Version:world.execute(x);
Source:
Tags:momocashew cassie wei projectmili yamato kasai hamo Yukihito Mitomo Shoto Yoshida Ame Yamaguchi project Piano Electronic Rock English Miracle Milk FA Featured Artist Mappers' Guild Iceluin Hinsvar Nymphe Kiyoshi Guarden frozz -Keqing Visionary Himada
BeatmapID:3982198
BeatmapSetID:1928286

[Difficulty]
HPDrainRate:5
CircleSize:4
OverallDifficulty:9
ApproachRate:9.5
SliderMultiplier:3.57
SliderTickRate:1

[Events]
//Background and Video events
0,0,"BG.jpg",0,0
//Break Periods
//Storyboard Layer 0 (Background)
//Storyboard Layer 1 (Fail)
//Storyboard Layer 2 (Pass)
//Storyboard Layer 3 (Foreground)
//Storyboard Layer 4 (Overlay)
//Storyboard Sound Samples

[TimingPoints]
213,461.538461538462,4,2,77,45,1,0
13136,-588.235294117647,4,2,1,45,0,0
13366,-588.235294117647,4,2,3,45,0,0
13597,-588.235294117647,4,2,5,45,0,0
13827,-588.235294117647,4,2,6,45,0,0
14059,-588.235294117647,4,2,9,45,0,0
14289,-588.235294117647,4,2,5,45,0,0
14520,-588.235294117647,4,2,11,45,0,0
14751,-588.235294117647,4,2,12,45,0,0
14982,-93.4579439252336,4,2,1,90,0,0
15328,-93.4579439252336,4,2,12,90,0,0
15443,-93.4579439252336,4,2,13,90,0,0
15500,-93.4579439252336,4,2,999,5,0,0
15559,-93.4579439252336,4,2,14,90,0,0
15674,-93.4579439252336,4,2,15,90,0,0
15905,-93.4579439252336,4,2,2,90,0,0
16135,-93.4579439252336,4,2,16,90,0,0
16366,-93.4579439252336,4,2,17,90,0,0
16597,-93.4579439252336,4,2,18,90,0,0
16828,-93.4579439252336,4,2,3,90,0,0
17001,-93.4579439252336,4,2,999,5,0,0
17059,-93.4579439252336,4,2,19,90,0,0
17116,-93.4579439252336,4,2,999,5,0,0
17174,-93.4579439252336,4,2,14,90,0,0
17289,-93.4579439252336,4,2,20,90,0,0
17520,-93.4579439252336,4,2,21,90,0,0
17751,-93.4579439252336,4,2,4,90,0,0
17924,-93.4579439252336,4,2,999,5,0,0
17982,-93.4579439252336,4,2,22,90,0,0
18213,-93.4579439252336,4,2,23,90,0,0
18386,-93.4579439252336,4,2,999,5,0,0
18444,-93.4579439252336,4,2,24,90,0,0
18674,-93.4579439252336,4,2,5,90,0,0
18904,-93.4579439252336,4,2,25,90,0,0
19135,-93.4579439252336,4,2,26,90,0,0
19366,-93.4579439252336,4,2,27,90,0,0
19597,-93.4579439252336,4,2,6,90,0,0
19770,-93.4579439252336,4,2,999,5,0,0
19828,-175.438596491228,4,2,28,90,0,0
20059,-93.4579439252336,4,2,29,90,0,0
20232,-93.4579439252336,4,2,999,5,0,0
20289,-175.438596491228,4,2,30,90,0,0
20520,-93.4579439252336,4,2,7,90,0,0
20750,-93.4579439252336,4,2,31,90,0,0
20982,-93.4579439252336,4,2,32,90,0,0
21039,-93.4579439252336,4,2,999,5,0,0
21097,-93.4579439252336,4,2,33,90,0,0
21154,-93.4579439252336,4,2,999,5,0,0
21213,-93.4579439252336,4,2,35,90,0,0
21386,-93.4579439252336,4,2,999,5,0,0
21443,-93.4579439252336,4,2,8,90,0,0
21559,-93.4579439252336,4,2,1,90,0,0
21674,-175.438596491228,4,2,1,90,0,0
21905,-93.4579439252336,4,2,36,90,0,0
21981,-93.4579439252336,4,2,999,5,0,0
22059,-93.4579439252336,4,2,37,90,0,0
22135,-93.4579439252336,4,2,38,90,0,0
22213,-93.4579439252336,4,2,39,90,0,0
22366,-93.4579439252336,4,2,9,90,0,0
22673,-93.4579439252336,4,2,14,90,0,0
22828,-93.4579439252336,4,2,41,90,0,0
23059,-93.4579439252336,4,2,43,90,0,0
23136,-93.4579439252336,4,2,37,90,0,0
23289,-93.4579439252336,4,2,10,90,0,0
23520,-212.765957446809,4,2,43,90,0,0
23693,-212.765957446809,4,2,999,5,0,0
23751,-93.4579439252336,4,2,45,90,0,0
23924,-93.4579439252336,4,2,999,5,0,0
23982,-212.765957446809,4,2,43,90,0,0
24155,-212.765957446809,4,2,999,5,0,0
24213,-93.4579439252336,4,2,11,90,0,0
24443,-93.4579439252336,4,2,47,90,0,0
24674,-93.4579439252336,4,2,48,90,0,0
24847,-93.4579439252336,4,2,999,5,0,0
24905,-93.4579439252336,4,2,49,90,0,0
24962,-93.4579439252336,4,2,999,5,0,0
25020,-93.4579439252336,4,2,50,90,0,0
25077,-93.4579439252336,4,2,999,5,0,0
25136,-93.4579439252336,4,2,12,90,0,0
25365,-212.765957446809,4,2,49,90,0,0
25539,-212.765957446809,4,2,999,5,0,0
25596,-93.4579439252336,4,2,51,90,0,0
25770,-93.4579439252336,4,2,999,5,0,0
25827,-212.765957446809,4,2,49,90,0,0
26001,-212.765957446809,4,2,999,5,0,0
26058,-93.4579439252336,4,2,13,90,0,0
26232,-93.4579439252336,4,2,999,5,0,0
26289,-93.4579439252336,4,2,25,90,0,0
26366,-93.4579439252336,4,2,52,90,0,0
26520,-93.4579439252336,4,2,53,90,0,0
26693,-93.4579439252336,4,2,999,5,0,0
26751,-93.4579439252336,4,2,25,90,0,0
26828,-93.4579439252336,4,2,54,90,0,0
26982,-93.4579439252336,4,2,14,90,0,0
27212,-93.4579439252336,4,2,25,90,0,0
27328,-93.4579439252336,4,2,14,90,0,0
27443,-93.4579439252336,4,2,55,90,0,0
27616,-93.4579439252336,4,2,999,5,0,0
27674,-93.4579439252336,4,2,56,90,0,0
27751,-93.4579439252336,4,2,57,90,0,0
27827,-93.4579439252336,4,2,58,90,0,0
27905,-93.4579439252336,4,2,15,90,0,0
28135,-93.4579439252336,4,2,38,90,0,0
28251,-93.4579439252336,4,2,14,90,0,0
28366,-93.4579439252336,4,2,59,90,0,0
28596,-93.4579439252336,4,2,38,90,0,0
28674,-93.4579439252336,4,2,60,90,0,0
28750,-93.4579439252336,4,2,999,5,0,0
28828,-93.4579439252336,4,2,16,90,0,0
28885,-93.4579439252336,4,2,999,5,0,0
28943,-93.4579439252336,4,2,2,90,0,0
29289,-93.4579439252336,4,2,61,90,0,0
29520,-93.4579439252336,4,2,38,90,0,0
29577,-93.4579439252336,4,2,999,5,0,0
29636,-93.4579439252336,4,2,38,90,0,0
29693,-93.4579439252336,4,2,999,5,0,0
29751,-129.87012987013,4,2,17,70,0,0
30212,-129.87012987013,4,2,18,70,0,0
30559,-129.87012987013,4,2,14,70,0,0
30674,-129.87012987013,4,2,19,70,0,0
30789,-129.87012987013,4,2,14,70,0,0
30904,-129.87012987013,4,2,63,70,0,0
31020,-270.270270270271,4,2,64,70,0,0
31250,-270.270270270271,4,2,64,70,0,0
31366,-129.87012987013,4,2,65,70,0,0
31597,-129.87012987013,4,2,18,70,0,0
31828,-129.87012987013,4,2,66,70,0,0
32059,-129.87012987013,4,2,20,70,0,0
32289,-129.87012987013,4,2,67,70,0,0
32520,-129.87012987013,4,2,21,70,0,0
32751,-212.765957446809,4,2,68,70,0,0
32982,-212.765957446809,4,2,67,70,0,0
33213,-212.765957446809,4,2,65,70,0,0
33442,-129.87012987013,4,2,22,70,0,0
33904,-129.87012987013,4,2,18,70,0,0
34251,-129.87012987013,4,2,14,70,0,0
34366,-129.87012987013,4,2,19,70,0,0
34481,-129.87012987013,4,2,14,70,0,0
34596,-129.87012987013,4,2,63,70,0,0
34711,-270.270270270271,4,2,64,70,0,0
34942,-270.270270270271,4,2,69,70,0,0
35057,-129.87012987013,4,2,68,70,0,0
35289,-129.87012987013,4,2,23,70,0,0
35520,-129.87012987013,4,2,68,70,0,0
35751,-129.87012987013,4,2,24,70,0,0
35981,-129.87012987013,4,2,35,70,0,0
36096,-129.87012987013,4,2,35,70,0,0
36212,-129.87012987013,4,2,25,70,0,0
36442,-212.765957446809,4,2,70,70,0,0
36674,-212.765957446809,4,2,71,70,0,0
36789,-212.765957446809,4,2,72,70,0,0
36905,-212.765957446809,4,2,73,70,0,0
37020,-212.765957446809,4,2,33,70,0,0
37135,-129.87012987013,4,2,26,70,0,0
37597,-129.87012987013,4,2,18,70,0,0
37944,-129.87012987013,4,2,14,70,0,0
38059,-129.87012987013,4,2,19,70,0,0
38174,-129.87012987013,4,2,14,70,0,0
38289,-129.87012987013,4,2,63,70,0,0
38404,-270.270270270271,4,2,64,70,0,0
38635,-270.270270270271,4,2,64,70,0,0
38750,-129.87012987013,4,2,65,70,0,0
38982,-129.87012987013,4,2,27,70,0,0
39213,-129.87012987013,4,2,66,70,0,0
39444,-129.87012987013,4,2,20,70,0,0
39674,-129.87012987013,4,2,67,70,0,0
39905,-129.87012987013,4,2,21,70,0,0
40135,-212.765957446809,4,2,68,70,0,0
40367,-212.765957446809,4,2,67,70,0,0
40598,-212.765957446809,4,2,65,70,0,0
40828,-129.87012987013,4,2,28,70,0,0
41059,-129.87012987013,4,2,14,70,0,0
41289,-129.87012987013,4,2,18,70,0,0
41520,-129.87012987013,4,2,74,70,0,0
41751,-129.87012987013,4,2,19,70,0,0
41866,-129.87012987013,4,2,14,70,0,0
41981,-129.87012987013,4,2,63,70,0,0
42097,-129.87012987013,4,2,64,70,0,0
42327,-129.87012987013,4,2,69,70,0,0
42443,-129.87012987013,4,2,68,70,0,0
42674,-129.87012987013,4,2,29,70,0,0
42905,-129.87012987013,4,2,68,70,0,0
43135,-129.87012987013,4,2,24,70,0,0
43366,-129.87012987013,4,2,25,70,0,0
43481,-129.87012987013,4,2,35,70,0,0
43597,-129.87012987013,4,2,25,70,0,0
43828,-129.87012987013,4,2,75,70,0,0
44059,-129.87012987013,4,2,14,70,0,0
44289,-129.87012987013,4,2,77,70,0,0
44346,-129.87012987013,4,2,14,70,0,0
44520,-114.942528735632,4,2,30,75,0,0
44866,-114.942528735632,4,2,35,75,0,0
44982,-212.765957446808,4,2,79,75,0,0
45328,-212.765957446808,4,2,46,75,0,0
45443,-114.942528735632,4,2,31,75,0,0
45674,-114.942528735632,4,2,43,75,0,0
45904,-114.942528735632,4,2,81,75,0,0
46136,-212.765957446808,4,2,43,75,0,0
46309,-212.765957446808,4,2,999,5,0,0
46366,-114.942528735632,4,2,32,75,0,0
46597,-270.27027027027,4,2,49,75,0,0
46828,-114.942528735632,4,2,83,75,0,0
47059,-212.765957446808,4,2,49,75,0,0
47232,-212.765957446808,4,2,999,5,0,0
47289,-114.942528735632,4,2,33,75,0,0
47520,-270.27027027027,4,2,49,75,0,0
47751,-114.942528735632,4,2,84,75,0,0
47982,-114.942528735632,4,2,49,75,0,0
48213,-114.942528735632,4,2,34,75,0,0
48443,-114.942528735632,4,2,85,75,0,0
48674,-114.942528735632,4,2,87,75,0,0
48904,-114.942528735632,4,2,85,75,0,0
49136,-114.942528735632,4,2,35,75,0,0
49366,-212.765957446809,4,2,25,75,0,0
49597,-114.942528735632,4,2,90,75,0,0
49828,-114.942528735632,4,2,25,75,0,0
49943,-114.942528735632,4,2,46,75,0,0
50059,-114.942528735632,4,2,36,75,0,0
50289,-212.765957446809,4,2,34,75,0,0
50519,-212.765957446809,4,2,91,75,0,0
50751,-114.942528735632,4,2,34,75,0,0
50982,-114.942528735632,4,2,37,75,0,0
51213,-212.765957446809,4,2,92,75,0,0
51443,-212.765957446809,4,2,93,75,0,0
51674,-212.765957446809,4,2,3,75,0,0
51789,-212.765957446809,4,2,94,75,0,0
51905,-114.942528735632,4,2,38,75,0,0
52251,-114.942528735632,4,2,95,75,0,0
52366,-114.942528735632,4,2,79,75,0,0
52712,-114.942528735632,4,2,33,75,0,0
52828,-114.942528735632,4,2,39,75,0,0
53059,-212.765957446809,4,2,43,75,0,0
53289,-212.765957446809,4,2,96,75,0,0
53520,-114.942528735632,4,2,43,75,0,0
53635,-114.942528735632,4,2,35,75,0,0
53751,-114.942528735632,4,2,40,75,0,0
53982,-212.765957446809,4,2,49,75,0,0
54212,-212.765957446809,4,2,98,75,0,0
54443,-114.942528735632,4,2,49,75,0,0
54616,-114.942528735632,4,2,999,5,0,0
54674,-114.942528735632,4,2,40,75,0,0
54905,-114.942528735632,4,2,49,75,0,0
55078,-114.942528735632,4,2,999,5,0,0
55136,-212.765957446809,4,2,99,75,0,0
55366,-212.765957446809,4,2,47,75,0,0
55597,-212.765957446809,4,2,41,75,0,0
56058,-212.765957446809,4,2,102,75,0,0
56289,-212.765957446809,4,2,85,75,0,0
56520,-212.765957446809,4,2,41,75,0,0
56751,-212.765957446809,4,2,25,75,0,0
56866,-212.765957446809,4,2,101,75,0,0
56982,-212.765957446809,4,2,103,75,0,0
57213,-370.370370370372,4,2,104,75,0,0
57386,-370.370370370372,4,2,999,5,0,0
57443,-370.370370370372,4,2,14,75,0,0
57616,-370.370370370372,4,2,999,5,0,0
57674,-114.942528735632,4,2,42,75,0,0
57847,-114.942528735632,4,2,999,5,0,0
57905,-114.942528735632,4,2,105,75,0,0
58020,-114.942528735632,4,2,101,75,0,0
58136,-370.370370370372,4,2,14,75,0,0
58309,-370.370370370372,4,2,999,5,0,0
58366,-114.942528735632,4,2,42,75,0,0
58540,-114.942528735632,4,2,999,5,0,0
58598,-114.942528735632,4,2,42,75,0,0
58713,-114.942528735632,4,2,101,75,0,0
58828,-114.942528735632,4,2,35,75,0,0
59289,-78.7401574803149,4,2,1,95,0,0
59635,-78.7401574803149,4,2,12,95,0,0
59751,-85.4700854700855,4,2,13,95,0,0
59982,-85.4700854700855,4,2,15,95,0,0
60039,-85.4700854700855,4,2,999,5,0,0
60097,-85.4700854700855,4,2,15,95,0,0
60154,-85.4700854700855,4,2,999,5,0,0
60213,-78.7401574803149,4,2,2,95,0,0
60559,-78.7401574803149,4,2,16,95,0,0
60674,-85.4700854700855,4,2,110,95,0,0
60905,-85.4700854700855,4,2,18,95,0,0
60962,-85.4700854700855,4,2,999,5,0,0
61020,-85.4700854700855,4,2,18,95,0,0
61077,-85.4700854700855,4,2,999,5,0,0
61136,-149.253731343284,4,2,3,95,0,0
61366,-129.87012987013,4,2,19,95,0,0
61597,-114.942528735632,4,2,20,95,0,0
61828,-103.092783505155,4,2,21,95,0,0
62059,-93.4579439252339,4,2,4,95,0,0
62289,-85.4700854700855,4,2,22,95,0,0
62520,-78.7401574803149,4,2,23,95,0,0
62751,-588.235294117647,4,2,106,95,0,0
62924,-588.235294117647,4,2,999,5,0,0
62982,-78.7401574803149,4,2,5,95,0,0
63328,-78.7401574803149,4,2,85,95,0,0
63443,-588.235294117647,4,2,26,95,0,0
63616,-588.235294117647,4,2,999,5,0,0
63674,-588.235294117647,4,2,27,95,0,0
63847,-588.235294117647,4,2,999,5,0,0
63905,-78.7401574803149,4,2,6,95,0,0
64251,-78.7401574803149,4,2,107,95,0,0
64366,-588.235294117647,4,2,29,95,0,0
64539,-588.235294117647,4,2,999,5,0,0
64597,-588.235294117647,4,2,30,95,0,0
64770,-588.235294117647,4,2,999,5,0,0
64828,-78.7401574803149,4,2,7,95,0,0
65174,-78.7401574803149,4,2,31,95,0,0
65289,-85.4700854700855,4,2,32,95,0,0
65520,-85.4700854700855,4,2,34,95,0,0
65635,-85.4700854700855,4,2,35,95,0,0
65751,-85.4700854700855,4,2,8,95,0,0
65808,-85.4700854700855,4,2,999,5,0,0
65866,-85.4700854700855,4,2,14,95,0,0
65982,-85.4700854700855,4,2,108,95,0,0
66155,-85.4700854700855,4,2,1,95,0,0
66213,-85.4700854700855,4,2,109,95,0,0
66328,-85.4700854700855,4,2,72,95,0,0
66443,-85.4700854700855,4,2,4,95,0,0
66501,-85.4700854700855,4,2,5,95,0,0
66674,-78.7401574803149,4,2,44,95,0,0
67077,-78.7401574803149,4,2,999,5,0,0
67135,-85.4700854700855,4,2,110,95,0,0
67366,-370.37037037037,4,2,43,95,0,0
67539,-370.37037037037,4,2,999,5,0,0
67597,-85.4700854700855,4,2,10,95,0,0
67828,-85.4700854700855,4,2,43,95,0,0
67943,-85.4700854700855,4,2,33,95,0,0
68059,-85.4700854700855,4,2,45,95,0,0
68289,-85.4700854700855,4,2,43,95,0,0
68520,-149.253731343284,4,2,11,95,0,0
68750,-129.87012987013,4,2,49,95,0,0
68981,-114.942528735632,4,2,48,95,0,0
69212,-103.092783505155,4,2,49,95,0,0
69328,-103.092783505155,4,2,40,95,0,0
69443,-93.4579439252339,4,2,12,95,0,0
69673,-85.4700854700855,4,2,49,95,0,0
69904,-78.7401574803149,4,2,51,95,0,0
70135,-588.235294117647,4,2,49,95,0,0
70309,-588.235294117647,4,2,999,5,0,0
70366,-68.0272108843537,4,2,13,95,0,0
70712,-68.0272108843537,4,2,42,95,0,0
70827,-588.235294117647,4,2,53,95,0,0
71001,-588.235294117647,4,2,999,5,0,0
71059,-588.235294117647,4,2,25,95,0,0
71232,-588.235294117647,4,2,999,5,0,0
71289,-68.0272108843537,4,2,14,95,0,0
71635,-68.0272108843537,4,2,33,95,0,0
71750,-588.235294117647,4,2,55,95,0,0
71924,-588.235294117647,4,2,999,5,0,0
71982,-588.235294117647,4,2,56,95,0,0
72155,-588.235294117647,4,2,999,5,0,0
72212,-68.0272108843537,4,2,15,95,0,0
72386,-68.0272108843537,4,2,38,95,0,0
72673,-85.4700854700855,4,2,59,95,0,0
72962,-85.4700854700855,4,2,999,5,0,0
73020,-85.4700854700855,4,2,60,95,0,0
73136,-85.4700854700855,4,2,45,95,0,0
73309,-85.4700854700855,4,2,14,95,0,0
73597,-85.4700854700855,4,2,111,95,0,0
73770,-85.4700854700855,4,2,999,5,0,0
73828,-85.4700854700855,4,2,14,95,0,0
74058,-78.7401574803149,4,2,112,50,0,0
74289,-212.765957446809,4,2,77,50,0,0
75905,-212.765957446809,4,2,6,50,0,0
76136,-212.765957446809,4,2,7,50,0,0
77059,-212.765957446809,4,2,116,50,0,0
77289,-370.370370370372,4,2,8,50,0,0
77462,-370.370370370372,4,2,999,5,0,0
77520,-370.370370370372,4,2,9,50,0,0
77693,-370.370370370372,4,2,999,5,0,0
77751,-129.87012987013,4,2,117,50,0,0
77924,-129.87012987013,4,2,999,5,0,0
77982,-129.87012987013,4,2,1,50,0,0
78097,-129.87012987013,4,2,118,50,0,0
78270,-129.87012987013,4,2,999,5,0,0
78328,-129.87012987013,4,2,1,50,0,0
78443,-129.87012987013,4,2,119,50,0,0
78559,-129.87012987013,4,2,120,50,0,0
78789,-212.765957446809,4,2,63,50,0,0
79019,-212.765957446809,4,2,121,50,0,0
79136,-212.765957446809,4,2,10,50,0,0
79597,-212.765957446809,4,2,46,50,0,0
80059,-212.765957446809,4,2,72,50,0,0
80289,-212.765957446809,4,2,11,50,0,0
80520,-212.765957446809,4,2,12,50,0,0
80751,-212.765957446809,4,2,13,50,0,0
80982,-212.765957446809,4,2,14,50,0,0
81039,-212.765957446809,4,2,999,5,0,0
81213,-212.765957446809,4,2,72,50,0,0
81443,-212.765957446809,4,2,47,50,0,0
83289,-212.765957446809,4,2,126,50,0,0
83520,-212.765957446809,4,2,69,50,0,0
85136,-212.765957446809,4,2,129,50,0,0
86982,-212.765957446809,4,2,130,50,0,0
87213,-212.765957446809,4,2,114,50,0,0
88828,-212.765957446809,4,2,48,55,0,0
89982,-212.765957446809,4,2,1,55,0,0
90136,-212.765957446809,4,2,16,55,0,0
90905,-212.765957446809,4,2,5,55,0,0
91366,-212.765957446809,4,2,1,55,0,0
91597,-212.765957446809,4,2,136,55,0,0
91828,-212.765957446809,4,2,5,55,0,0
94366,-212.765957446809,4,2,139,55,0,0
94828,-212.765957446809,4,2,140,55,0,0
95059,-212.765957446809,4,2,1,55,0,0
95520,-212.765957446809,4,2,142,55,0,0
95751,-212.765957446809,4,2,143,55,0,0
95982,-212.765957446809,4,2,17,55,0,0
96136,-212.765957446809,4,2,19,55,0,0
96443,-212.765957446809,4,2,1,55,0,0
97366,-212.765957446809,4,2,5,55,0,0
98982,-212.765957446809,4,2,20,55,0,0
99443,-212.765957446809,4,2,145,55,0,0
99905,-212.765957446809,4,2,21,55,0,0
100136,-212.765957446809,4,2,5,55,0,0
103597,-129.87012987013,4,2,49,65,0,0
103943,-129.87012987013,4,2,149,65,0,0
104059,-129.87012987013,4,2,150,65,0,0
104289,-129.87012987013,4,2,151,65,0,0
104520,-129.87012987013,4,2,39,65,0,0
104866,-129.87012987013,4,2,152,65,0,0
104982,-129.87012987013,4,2,153,65,0,0
105212,-129.87012987013,4,2,154,65,0,0
105443,-129.87012987013,4,2,39,65,0,0
105789,-129.87012987013,4,2,155,65,0,0
105905,-129.87012987013,4,2,156,65,0,0
106251,-129.87012987013,4,2,155,65,0,0
106366,-129.87012987013,4,2,39,65,0,0
106596,-129.87012987013,4,2,157,65,0,0
106828,-129.87012987013,4,2,158,65,0,0
107058,-129.87012987013,4,2,157,65,0,0
107289,-129.87012987013,4,2,39,65,0,0
107635,-129.87012987013,4,2,149,65,0,0
107751,-129.87012987013,4,2,150,65,0,0
107981,-129.87012987013,4,2,151,65,0,0
108212,-129.87012987013,4,2,39,65,0,0
108558,-129.87012987013,4,2,152,65,0,0
108674,-129.87012987013,4,2,153,65,0,0
108904,-129.87012987013,4,2,154,65,0,0
109135,-129.87012987013,4,2,39,65,0,0
109481,-129.87012987013,4,2,155,65,0,0
109597,-129.87012987013,4,2,156,65,0,0
109943,-129.87012987013,4,2,159,65,0,0
110059,-129.87012987013,4,2,50,65,0,0
110174,-129.87012987013,4,2,157,65,0,0
110520,-129.87012987013,4,2,158,65,0,0
110751,-129.87012987013,4,2,154,65,0,0
110982,-129.87012987013,4,2,40,65,0,0
111328,-129.87012987013,4,2,160,65,0,0
111443,-129.87012987013,4,2,161,65,0,0
111674,-129.87012987013,4,2,162,65,0,0
111905,-129.87012987013,4,2,51,65,0,0
112251,-129.87012987013,4,2,163,65,0,0
112366,-129.87012987013,4,2,164,65,0,0
112828,-129.87012987013,4,2,40,65,0,0
113174,-129.87012987013,4,2,165,65,0,0
113289,-129.87012987013,4,2,166,65,0,0
113520,-129.87012987013,4,2,167,65,0,0
113751,-129.87012987013,4,2,51,65,0,0
114097,-129.87012987013,4,2,163,65,0,0
114213,-129.87012987013,4,2,164,65,0,0
114674,-175.438596491228,4,2,51,65,0,0
115020,-175.438596491228,4,2,160,65,0,0
115136,-175.438596491228,4,2,161,65,0,0
115366,-175.438596491228,4,2,162,65,0,0
115597,-270.27027027027,4,2,51,65,0,0
115943,-270.27027027027,4,2,163,65,0,0
116059,-270.27027027027,4,2,168,65,0,0
116289,-270.27027027027,4,2,164,65,0,0
116520,-270.27027027027,4,2,51,65,0,0
116577,-270.27027027027,4,2,999,5,0,0
116636,-270.27027027027,4,2,165,65,0,0
116693,-270.27027027027,4,2,999,5,0,0
116751,-270.27027027027,4,2,165,65,0,0
116808,-270.27027027027,4,2,999,5,0,0
116866,-270.27027027027,4,2,165,65,0,0
116982,-270.27027027027,4,2,166,65,0,0
117213,-270.27027027027,4,2,167,65,0,0
117443,-149.253731343284,4,2,40,65,0,0
117674,-103.092783505155,4,2,169,65,0,0
117905,-78.7401574803151,4,2,170,65,0,0
118136,-63.6942675159236,4,2,171,65,0,0
118366,-114.942528735632,4,2,39,65,0,0
118712,-114.942528735632,4,2,149,65,0,0
118828,-114.942528735632,4,2,150,65,0,0
119059,-114.942528735632,4,2,151,65,0,0
119289,-114.942528735632,4,2,52,65,0,0
119405,-114.942528735632,4,2,152,65,0,0
119751,-114.942528735632,4,2,154,65,0,0
120213,-114.942528735632,4,2,52,65,0,0
120328,-114.942528735632,4,2,172,65,0,0
121136,-114.942528735632,4,2,39,65,0,0
121367,-114.942528735632,4,2,157,65,0,0
121597,-114.942528735632,4,2,153,65,0,0
121828,-114.942528735632,4,2,157,65,0,0
122059,-114.942528735632,4,2,52,65,0,0
122405,-114.942528735632,4,2,149,65,0,0
122520,-114.942528735632,4,2,151,65,0,0
122982,-114.942528735632,4,2,38,65,0,0
123328,-114.942528735632,4,2,152,65,0,0
123443,-114.942528735632,4,2,154,65,0,0
123905,-114.942528735632,4,2,173,65,0,0
124020,-114.942528735632,4,2,174,65,0,0
124366,-114.942528735632,4,2,156,65,0,0
124597,-114.942528735632,4,2,174,65,0,0
124828,-114.942528735632,4,2,175,65,0,0
125058,-114.942528735632,4,2,157,65,0,0
125289,-114.942528735632,4,2,176,65,0,0
125519,-114.942528735632,4,2,177,65,0,0
125751,-114.942528735632,4,2,53,65,0,0
126558,-114.942528735632,4,2,160,65,0,0
126674,-114.942528735632,4,2,179,65,0,0
126905,-114.942528735632,4,2,164,65,0,0
127136,-114.942528735632,4,2,168,65,0,0
127597,-114.942528735632,4,2,40,65,0,0
127943,-114.942528735632,4,2,165,65,0,0
128059,-114.942528735632,4,2,180,65,0,0
128289,-114.942528735632,4,2,165,65,0,0
128520,-114.942528735632,4,2,22,65,0,0
128636,-114.942528735632,4,2,163,65,0,0
128982,-114.942528735632,4,2,168,65,0,0
129213,-114.942528735632,4,2,164,65,0,0
129443,-114.942528735632,4,2,51,70,0,0
129559,-114.942528735632,4,2,1,70,0,0
129789,-114.942528735632,4,2,160,70,0,0
129905,-114.942528735632,4,2,178,70,0,0
130136,-114.942528735632,4,2,160,70,0,0
130366,-114.942528735632,4,2,40,70,0,0
130482,-114.942528735632,4,2,163,70,0,0
130828,-114.942528735632,4,2,181,70,0,0
131289,-114.942528735632,4,2,51,75,0,0
131405,-114.942528735632,4,2,165,75,0,0
131751,-114.942528735632,4,2,167,75,0,0
131981,-114.942528735632,4,2,165,75,0,0
132212,-114.942528735632,4,2,40,75,0,0
132443,-114.942528735632,4,2,163,75,0,0
132674,-114.942528735632,4,2,154,75,0,0
132905,-114.942528735632,4,2,157,75,0,0
133136,-93.4579439252337,4,2,54,80,0,0
133251,-93.4579439252337,4,2,182,80,0,0
133366,-212.765957446809,4,2,183,80,0,0
133597,-212.765957446809,4,2,12,80,0,0
134059,-212.765957446809,4,2,184,80,0,0
134174,-212.765957446809,4,2,185,80,0,0
134520,-212.765957446809,4,2,12,80,0,0
134751,-212.765957446809,4,2,186,80,0,0
134866,-212.765957446809,4,2,187,80,0,0
134982,-212.765957446809,4,2,55,80,0,0
135213,-212.765957446809,4,2,185,80,0,0
135443,-212.765957446809,4,2,12,80,0,0
135905,-212.765957446809,4,2,184,80,0,0
136020,-212.765957446809,4,2,1,80,0,0
136136,-212.765957446809,4,2,188,80,0,0
136366,-212.765957446809,4,2,12,80,0,0
136712,-212.765957446809,4,2,189,80,0,0
136828,-114.942528735632,4,2,55,80,0,0
137058,-114.942528735632,4,2,23,80,0,0
137289,-212.765957446809,4,2,12,80,0,0
137751,-212.765957446809,4,2,56,80,0,0
137982,-212.765957446809,4,2,185,80,0,0
138213,-212.765957446809,4,2,12,80,0,0
138443,-212.765957446809,4,2,186,80,0,0
138559,-212.765957446809,4,2,187,80,0,0
138674,-212.765957446809,4,2,57,80,0,0
138905,-212.765957446809,4,2,2,80,0,0
139136,-212.765957446809,4,2,12,80,0,0
139367,-212.765957446809,4,2,190,80,0,0
139597,-212.765957446809,4,2,191,80,0,0
139713,-212.765957446809,4,2,1,80,0,0
139828,-212.765957446809,4,2,192,80,0,0
140059,-212.765957446809,4,2,190,80,0,0
140289,-212.765957446809,4,2,193,80,0,0
140405,-212.765957446809,4,2,14,80,0,0
140520,-114.942528735632,4,2,32,80,0,0
140866,-114.942528735632,4,2,47,80,0,0
140982,-212.765957446809,4,2,47,80,0,0
141213,-212.765957446809,4,2,194,80,0,0
141328,-212.765957446809,4,2,195,80,0,0
141443,-212.765957446809,4,2,33,80,0,0
141674,-212.765957446809,4,2,47,80,0,0
142136,-212.765957446809,4,2,196,80,0,0
142366,-212.765957446809,4,2,58,80,0,0
142596,-212.765957446809,4,2,47,80,0,0
143059,-212.765957446809,4,2,197,80,0,0
143175,-212.765957446809,4,2,195,80,0,0
143289,-212.765957446809,4,2,59,80,0,0
143404,-212.765957446809,4,2,47,80,0,0
143982,-212.765957446809,4,2,179,80,0,0
144213,-114.942528735632,4,2,33,80,0,0
144559,-114.942528735632,4,2,47,80,0,0
144674,-212.765957446809,4,2,83,80,0,0
144905,-212.765957446809,4,2,22,80,0,0
145136,-212.765957446809,4,2,58,80,0,0
145366,-212.765957446809,4,2,47,80,0,0
145828,-212.765957446809,4,2,197,80,0,0
145943,-212.765957446809,4,2,195,80,0,0
146059,-212.765957446809,4,2,33,80,0,0
146289,-212.765957446809,4,2,47,80,0,0
146751,-212.765957446809,4,2,194,80,0,0
146866,-212.765957446809,4,2,195,80,0,0
146982,-149.253731343284,4,2,33,80,0,0
147097,-149.253731343284,4,2,1,80,0,0
147213,-149.253731343284,4,2,198,80,0,0
147443,-149.253731343284,4,2,199,80,0,0
147674,-149.253731343284,4,2,200,80,0,0
147789,-149.253731343284,4,2,201,80,0,0
147905,-114.942528735632,4,2,202,90,0,0
148136,-114.942528735632,4,2,203,90,0,0
148366,-114.942528735632,4,2,202,90,0,0
148597,-114.942528735632,4,2,204,90,0,0
148828,-114.942528735632,4,2,205,90,0,0
149059,-114.942528735632,4,2,206,90,0,0
149289,-114.942528735632,4,2,208,90,0,0
149520,-114.942528735632,4,2,209,90,0,0
149751,-114.942528735632,4,2,210,90,0,0
149982,-114.942528735632,4,2,211,90,0,0
150097,-114.942528735632,4,2,212,90,0,0
150213,-114.942528735632,4,2,213,90,0,0
150443,-114.942528735632,4,2,204,90,0,0
150558,-114.942528735632,4,2,24,90,0,0
150674,-114.942528735632,4,2,205,90,0,0
150789,-114.942528735632,4,2,206,90,0,0
151020,-114.942528735632,4,2,207,90,0,0
151136,-114.942528735632,4,2,208,90,0,0
151366,-114.942528735632,4,2,209,90,0,0
151481,-114.942528735632,4,2,25,90,0,0
151597,-114.942528735632,4,2,210,90,0,0
151828,-114.942528735632,4,2,211,90,0,0
151944,-114.942528735632,4,2,212,90,0,0
152059,-114.942528735632,4,2,213,90,0,0
152289,-114.942528735632,4,2,204,90,0,0
152404,-114.942528735632,4,2,24,90,0,0
152520,-114.942528735632,4,2,205,90,0,0
152636,-114.942528735632,4,2,206,90,0,0
152867,-114.942528735632,4,2,207,90,0,0
152982,-114.942528735632,4,2,208,90,0,0
153212,-114.942528735632,4,2,209,90,0,0
153327,-114.942528735632,4,2,25,90,0,0
153443,-114.942528735632,4,2,210,90,0,0
153559,-114.942528735632,4,2,211,90,0,0
153789,-114.942528735632,4,2,212,90,0,0
153905,-114.942528735632,4,2,213,90,0,0
154136,-114.942528735632,4,2,204,90,0,0
154251,-114.942528735632,4,2,24,90,0,0
154366,-114.942528735632,4,2,205,90,0,0
154482,-114.942528735632,4,2,206,90,0,0
154712,-114.942528735632,4,2,207,90,0,0
154828,-114.942528735632,4,2,208,90,0,0
155059,-114.942528735632,4,2,209,90,0,0
155174,-114.942528735632,4,2,25,90,0,0
155289,-114.942528735632,4,2,214,90,0,0
155520,-114.942528735632,4,2,215,90,0,0
155636,-114.942528735632,4,2,216,90,0,0
155751,-114.942528735632,4,2,217,90,0,0
155866,-114.942528735632,4,2,2,90,0,0
155982,-114.942528735632,4,2,218,90,0,0
156213,-114.942528735632,4,2,219,90,0,0
156444,-114.942528735632,4,2,220,90,0,0
156560,-114.942528735632,4,2,221,90,0,0
156675,-114.942528735632,4,2,222,90,0,0
156790,-114.942528735632,4,2,2,90,0,0
156906,-114.942528735632,4,2,223,90,0,0
157136,-114.942528735632,4,2,214,90,0,0
157367,-114.942528735632,4,2,215,90,0,0
157483,-114.942528735632,4,2,216,90,0,0
157598,-114.942528735632,4,2,217,90,0,0
157713,-114.942528735632,4,2,2,90,0,0
157829,-114.942528735632,4,2,218,90,0,0
158060,-114.942528735632,4,2,219,90,0,0
158174,-114.942528735632,4,2,28,90,0,0
158289,-114.942528735632,4,2,220,90,0,0
158405,-114.942528735632,4,2,221,90,0,0
158520,-114.942528735632,4,2,222,90,0,0
158636,-114.942528735632,4,2,2,90,0,0
158751,-114.942528735632,4,2,223,90,0,0
158866,-114.942528735632,4,2,224,90,0,0
158982,-114.942528735632,4,2,225,90,0,0
159443,-114.942528735632,4,2,227,90,0,0
159905,-114.942528735632,4,2,230,90,0,0
160366,-114.942528735632,4,2,232,90,0,0
160828,-114.942528735632,4,2,234,90,0,0
161289,-114.942528735632,4,2,227,90,0,0
161751,-114.942528735632,4,2,235,90,0,0
161982,-114.942528735632,4,2,236,90,0,0
162213,-114.942528735632,4,2,238,90,0,0
162674,-63.6942675159236,4,2,1,100,0,0
163020,-63.6942675159236,4,2,12,100,0,0
163136,-175.438596491228,4,2,239,100,0,0
163366,-175.438596491228,4,2,15,100,0,0
163597,-63.6942675159236,4,2,2,100,0,0
163943,-63.6942675159236,4,2,16,100,0,0
164059,-175.438596491228,4,2,17,100,0,0
164289,-175.438596491228,4,2,18,100,0,0
164519,-149.253731343284,4,2,3,100,0,0
164749,-129.87012987013,4,2,19,100,0,0
164980,-114.942528735632,4,2,240,100,0,0
165211,-103.092783505155,4,2,21,100,0,0
165442,-93.4579439252339,4,2,4,100,0,0
165672,-85.4700854700855,4,2,22,100,0,0
165903,-78.7401574803149,4,2,23,100,0,0
166135,-370.37037037037,4,2,24,100,0,0
166366,-63.6942675159236,4,2,5,100,0,0
166712,-63.6942675159236,4,2,85,100,0,0
166828,-370.37037037037,4,2,26,100,0,0
167059,-370.37037037037,4,2,27,100,0,0
167289,-63.6942675159236,4,2,6,100,0,0
167635,-63.6942675159236,4,2,107,100,0,0
167751,-370.37037037037,4,2,29,100,0,0
167982,-370.37037037037,4,2,30,100,0,0
168212,-63.6942675159236,4,2,7,100,0,0
168559,-63.6942675159236,4,2,31,100,0,0
168673,-85.4700854700855,4,2,32,100,0,0
168789,-85.4700854700855,4,2,33,100,0,0
168905,-85.4700854700855,4,2,35,100,0,0
169020,-85.4700854700855,4,2,35,100,0,0
169136,-85.4700854700855,4,2,8,100,0,0
169193,-85.4700854700855,4,2,999,5,0,0
169251,-85.4700854700855,4,2,1,100,0,0
169366,-85.4700854700855,4,2,108,100,0,0
169539,-85.4700854700855,4,2,36,100,0,0
169828,-85.4700854700855,4,2,34,100,0,0
169886,-85.4700854700855,4,2,14,100,0,0
170058,-78.7401574803149,4,2,60,100,0,0
170405,-78.7401574803149,4,2,44,100,0,0
170520,-85.4700854700855,4,2,41,100,0,0
170751,-85.4700854700855,4,2,43,100,0,0
170808,-85.4700854700855,4,2,999,5,0,0
170866,-85.4700854700855,4,2,72,100,0,0
170982,-78.7401574803149,4,2,10,100,0,0
171328,-78.7401574803149,4,2,33,100,0,0
171443,-85.4700854700855,4,2,45,100,0,0
171674,-85.4700854700855,4,2,43,100,0,0
171731,-85.4700854700855,4,2,999,5,0,0
171789,-85.4700854700855,4,2,46,100,0,0
171905,-149.253731343284,4,2,61,100,0,0
172135,-129.87012987013,4,2,49,100,0,0
172251,-129.87012987013,4,2,44,100,0,0
172366,-114.942528735632,4,2,241,100,0,0
172597,-103.092783505155,4,2,49,100,0,0
172713,-103.092783505155,4,2,97,100,0,0
172828,-93.4579439252339,4,2,12,100,0,0
173058,-85.4700854700855,4,2,49,100,0,0
173289,-78.7401574803149,4,2,51,100,0,0
173520,-588.235294117647,4,2,49,100,0,0
173693,-588.235294117647,4,2,999,5,0,0
173751,-78.7401574803149,4,2,62,100,0,0
174097,-78.7401574803149,4,2,42,100,0,0
174212,-588.235294117647,4,2,53,100,0,0
174386,-588.235294117647,4,2,999,5,0,0
174444,-588.235294117647,4,2,25,100,0,0
174617,-588.235294117647,4,2,999,5,0,0
174674,-78.7401574803149,4,2,14,100,0,0
175020,-78.7401574803149,4,2,33,100,0,0
175136,-78.7401574803149,4,2,55,100,0,0
175309,-78.7401574803149,4,2,1,100,0,0
175366,-78.7401574803149,4,2,56,100,0,0
175481,-78.7401574803149,4,2,82,100,0,0
175597,-68.0272108843537,4,2,63,100,0,0
175943,-68.0272108843537,4,2,42,100,0,0
176059,-68.0272108843537,4,2,242,100,0,0
176232,-68.0272108843537,4,2,999,5,0,0
176289,-68.0272108843537,4,2,34,100,0,0
176346,-68.0272108843537,4,2,999,5,0,0
176405,-68.0272108843537,4,2,243,100,0,0
176577,-68.0272108843537,4,2,999,5,0,0
176636,-68.0272108843537,4,2,243,100,0,0
176693,-68.0272108843537,4,2,999,5,0,0
176751,-68.0272108843537,4,2,244,100,0,0
176924,-68.0272108843537,4,2,999,5,0,0
176982,-63.6942675159236,4,2,245,100,0,0
177039,-63.6942675159236,4,2,999,5,0,0
177097,-59.8802395209581,4,2,245,100,0,0
177154,-59.8802395209581,4,2,999,5,0,0
177213,-56.4971751412429,4,2,191,100,0,0
177270,-56.4971751412429,4,2,999,5,0,0
177328,-53.475935828877,4,2,191,100,0,0
177385,-53.475935828877,4,2,999,5,0,0
177442,-56.4971751412429,4,2,246,100,0,0
177789,-56.4971751412429,4,2,42,100,0,0
177904,-129.87012987013,4,2,247,100,0,0
178136,-129.87012987013,4,2,248,100,0,0
178193,-129.87012987013,4,2,999,5,0,0
178251,-129.87012987013,4,2,35,100,0,0
178308,-129.87012987013,4,2,999,5,0,0
178365,-56.4971751412429,4,2,64,100,0,0
178712,-56.4971751412429,4,2,33,100,0,0
178827,-129.87012987013,4,2,251,100,0,0
179059,-129.87012987013,4,2,248,100,0,0
179116,-129.87012987013,4,2,999,5,0,0
179174,-129.87012987013,4,2,1,100,0,0
179231,-129.87012987013,4,2,999,5,0,0
179288,-78.7401574803149,4,2,61,100,0,0
179519,-68.0272108843537,4,2,49,100,0,0
179635,-68.0272108843537,4,2,42,100,0,0
179750,-59.8802395209581,4,2,252,100,0,0
179981,-53.475935828877,4,2,49,100,0,0
180097,-53.475935828877,4,2,35,100,0,0
180212,-48.3091787439614,4,2,65,100,0,0
180442,-370.370370370372,4,2,4,100,0,0
180558,-370.370370370372,4,2,33,100,0,0
180674,-370.370370370372,4,2,253,100,0,0
180789,-370.370370370372,4,2,30,100,0,0
181020,-370.370370370372,4,2,82,100,0,0
181134,-56.4971751412429,4,2,13,100,0,0
181482,-56.4971751412429,4,2,42,100,0,0
181596,-129.87012987013,4,2,254,100,0,0
181829,-129.87012987013,4,2,25,100,0,0
181886,-129.87012987013,4,2,999,5,0,0
181944,-129.87012987013,4,2,1,100,0,0
182001,-129.87012987013,4,2,999,5,0,0
182057,-56.4971751412429,4,2,66,100,0,0
182405,-56.4971751412429,4,2,42,100,0,0
182519,-129.87012987013,4,2,255,100,0,0
182752,-129.87012987013,4,2,25,100,0,0
182809,-129.87012987013,4,2,999,5,0,0
182867,-129.87012987013,4,2,35,100,0,0
182924,-129.87012987013,4,2,999,5,0,0
182980,-78.7401574803149,4,2,31,100,0,0
183211,-68.0272108843537,4,2,38,100,0,0
183328,-68.0272108843537,4,2,256,100,0,0
183442,-59.8802395209581,4,2,257,100,0,0
183673,-53.475935828877,4,2,38,100,0,0
183790,-53.475935828877,4,2,97,100,0,0
183904,-48.3091787439614,4,2,258,100,0,0
184021,-48.3091787439614,4,2,1,100,0,0
184134,-370.370370370372,4,2,32,100,0,0
184251,-370.370370370372,4,2,260,100,0,0
184367,-370.370370370372,4,2,33,100,0,0
184598,-370.370370370372,4,2,34,100,0,0
184713,-370.370370370372,4,2,262,100,0,0
184827,-48.3091787439614,4,2,263,100,0,0
185174,-48.3091787439614,4,2,12,100,0,0
185288,-78.7401574803149,4,2,264,100,0,0
185404,-78.7401574803149,4,2,265,100,0,0
185520,-78.7401574803149,4,2,265,100,0,0
185751,-68.0272108843537,4,2,266,100,0,0
185866,-68.0272108843537,4,2,267,100,0,0
185982,-63.6942675159236,4,2,267,100,0,0
186097,-63.6942675159236,4,2,1,100,0,0
186154,-63.6942675159236,4,2,999,5,0,0
186213,-59.8802395209581,4,2,268,100,0,0
186328,-59.8802395209581,4,2,1,100,0,0
186443,-56.4971751412429,4,2,269,100,0,0
186673,-48.3091787439614,4,2,270,100,0,0
186904,-56.4971751412429,4,2,35,100,0,0
187077,-56.4971751412429,4,2,999,5,0,0
187136,-56.4971751412429,4,2,240,100,0,0
187309,-56.4971751412429,4,2,999,5,0,0
187366,-56.4971751412429,4,2,21,100,0,0
187539,-56.4971751412429,4,2,999,5,0,0
187597,-56.4971751412429,4,2,271,100,0,0
187770,-56.4971751412429,4,2,999,5,0,0
187827,-370.370370370372,4,2,272,100,0,0
188059,-370.370370370372,4,2,273,100,0,0
188174,-370.370370370372,4,2,274,100,0,0
188519,-48.3091787439614,4,2,275,100,0,0
188866,-48.3091787439614,4,2,42,100,0,0
188924,-48.3091787439614,4,2,1,100,0,0
188982,-56.4971751412429,4,2,53,100,0,0
189039,-56.4971751412429,4,2,999,5,0,0
189097,-56.4971751412429,4,2,53,100,0,0
189154,-56.4971751412429,4,2,999,5,0,0
189213,-56.4971751412429,4,2,25,100,0,0
189328,-56.4971751412429,4,2,35,100,0,0
189443,-56.4971751412429,4,2,255,100,0,0
189558,-56.4971751412429,4,2,1,100,0,0
189616,-56.4971751412429,4,2,36,100,0,0
189789,-56.4971751412429,4,2,33,100,0,0
189905,-56.4971751412429,4,2,54,100,0,0
190136,-56.4971751412429,4,2,56,100,0,0
190251,-56.4971751412429,4,2,82,100,0,0
190366,-56.4971751412429,4,2,276,100,0,0
190424,-56.4971751412429,4,2,2,100,0,0
190828,-56.4971751412429,4,2,59,100,0,0
191174,-56.4971751412429,4,2,60,100,0,0
191289,-56.4971751412429,4,2,277,100,0,0
191404,-56.4971751412429,4,2,278,100,0,0
191751,-56.4971751412429,4,2,279,100,0,0
191808,-56.4971751412429,4,2,999,5,0,0
191866,-56.4971751412429,4,2,34,100,0,0
191923,-56.4971751412429,4,2,999,5,0,0
191982,-56.4971751412429,4,2,34,100,0,0
192213,-56.4971751412429,4,2,67,60,0,0
192673,-93.4579439252336,4,2,281,60,0,0
193136,-93.4579439252336,4,2,216,60,0,0
193597,-93.4579439252336,4,2,286,60,0,0
194059,-93.4579439252336,4,2,234,60,0,0
194520,-93.4579439252336,4,2,281,60,0,0
194982,-93.4579439252336,4,2,216,60,0,0
195443,-93.4579439252336,4,2,286,60,0,0
195905,-93.4579439252336,4,2,234,60,0,0
196366,-93.4579439252336,4,2,281,60,0,0
196828,-93.4579439252336,4,2,216,60,0,0
197289,-93.4579439252336,4,2,286,60,0,0
197751,-93.4579439252336,4,2,234,60,0,0
198213,-93.4579439252336,4,2,281,60,0,0
198674,-93.4579439252336,4,2,290,60,0,0
199136,-93.4579439252336,4,2,286,60,0,0
199597,-93.4579439252336,4,2,234,60,0,0
200059,-93.4579439252336,4,2,281,60,0,0
200520,-93.4579439252336,4,2,216,60,0,0
200982,-93.4579439252336,4,2,286,60,0,0
201443,-93.4579439252336,4,2,234,60,0,0
201905,-93.4579439252336,4,2,281,60,0,0
202366,-93.4579439252336,4,2,216,60,0,0
202828,-93.4579439252336,4,2,286,60,0,0
203289,-93.4579439252336,4,2,234,60,0,0
203751,-93.4579439252336,4,2,281,60,0,0
204213,-93.4579439252336,4,2,216,60,0,0
204674,-93.4579439252336,4,2,286,60,0,0
205136,-93.4579439252336,4,2,234,60,0,0
205597,-93.4579439252336,4,2,281,60,0,0
206059,-93.4579439252336,4,2,290,60,0,0
206288,-129.87012987013,4,2,291,60,0,0
206404,-129.87012987013,4,2,10,60,0,0
206520,-129.87012987013,4,2,292,60,0,0
206635,-129.87012987013,4,2,2,60,0,0
206751,-129.87012987013,4,2,293,60,0,0
206866,-129.87012987013,4,2,37,60,0,0

[Colours]
Combo1 : 255,121,188
Combo2 : 121,255,168

[HitObjects]
64,182,13136,6,0,L|89:163,1,30.3450001852112,2|2,1:2|2:2,0:0:0:0:
205,164,13597,2,0,L|176:155,1,30.3450001852112,2|2,1:2|2:2,0:0:0:0:
124,86,14059,6,0,L|120:55,3,30.3450001852112,2|2|2|2,2:2|2:2|2:2|2:2,0:0:0:0:
124,86,14982,6,0,B|187:101|212:0|119:-57|23:25|44:101,1,286.492491256943,6|0,1:1|2:2,0:0:0:0:
158,266,15443,2,0,P|182:272|210:281,1,47.7487485428238,10|0,2:2|2:2,0:0:0:0:
200,202,15559,1,2,2:2:0:0:
113,330,15674,2,0,P|104:276|94:231,1,95.4974970856477,2|0,2:2|2:2,0:0:0:0:
238,117,15905,2,0,B|260:99|299:104|314:146|314:146|329:188|369:193|391:176,1,190.994994171295,2|2,1:1|2:2,0:0:0:0:
389,178,16251,1,0,2:2:0:0:
479,205,16366,2,0,B|494:174|463:144|463:144|479:174|463:205,1,95.4974970856477,10|0,2:2|2:2,0:0:0:0:
350,290,16597,2,0,B|334:320|365:350|365:350|350:320|365:290,1,95.4974970856477,2|0,2:2|2:2,0:0:0:0:
245,199,16828,6,0,P|175:183|85:169,1,143.246245628472,2|0,1:1|2:2,0:0:0:0:
92,178,17059,2,0,P|77:160|79:122,1,47.7487485428238,2|0,2:2|2:2,0:0:0:0:
130,86,17174,1,2,2:2:0:0:
0,1,17289,2,0,P|17:49|58:62,1,95.4974970856477,10|0,2:2|2:2,0:0:0:0:
264,19,17520,2,0,P|214:7|181:35,1,95.4974970856477,2|0,2:2|2:2,0:0:0:0:
157,190,17751,6,0,P|227:201|297:217,1,143.246245628472,2|0,1:1|2:2,0:0:0:0:
374,222,17982,2,0,B|390:190|357:174|357:174|374:191|368:228,1,95.4974970856477,2|0,2:2|2:2,0:0:0:0:
268,334,18213,6,0,P|197:322|127:306,1,143.246245628472,10|0,2:2|2:2,0:0:0:0:
51,302,18444,2,0,B|34:334|67:349|67:349|51:333|57:296,1,95.4974970856477,2|0,2:2|2:2,0:0:0:0:
31,80,18674,6,0,B|13:102|18:141|60:156|60:156|102:171|107:211|90:233,2,190.994994171295,2|2|10,1:1|2:2|2:2,0:0:0:0:
31,80,19251,1,0,2:2:0:0:
154,11,19366,2,0,P|198:23|266:37,1,95.4974970856477,2|0,2:2|2:2,0:0:0:0:
435,194,19597,6,0,B|404:175|406:132|406:132|387:168|352:173,1,143.246245628472,2|0,1:1|2:2,0:0:0:0:
340,100,19828,2,0,P|336:71|326:34,1,50.8724993789978,2|0,2:2|2:2,0:0:0:0:
189,130,20059,6,0,B|217:151|219:194|219:194|239:159|273:153,1,143.246245628472,10|0,2:2|2:2,0:0:0:0:
286,227,20290,2,0,P|290:256|299:292,1,50.8724993789978,2|0,2:2|2:2,0:0:0:0:
111,380,20520,6,0,P|124:309|139:164,1,190.994994171295,2|2,1:1|2:2,0:0:0:0:
29,26,20866,1,0,2:2:0:0:
5,97,20982,6,0,P|31:102|61:111,1,47.7487485428238,10|0,2:2|2:2,0:0:0:0:
164,21,21136,1,2,0:0:0:0:
129,96,21213,6,0,B|189:91|212:130|273:126,1,143.246245628472,2|0,2:2|2:2,0:0:0:0:
276,119,21443,1,2,1:1:0:0:
442,228,21559,1,8,2:2:0:0:
374,265,21674,6,0,P|372:238|364:199,1,50.8724993789978,2|0,2:3|2:2,0:0:0:0:
187,261,21905,6,0,P|149:263|111:241,1,63.6649980570985,10|0,2:2|2:2,0:0:0:0:
13,148,22059,2,0,P|51:146|89:168,1,63.6649980570985,2|2,2:2|2:2,0:0:0:0:
11,260,22213,1,2,2:2:0:0:
0,166,22366,6,0,B|28:142|82:148|101:205|101:205|121:260|174:266|203:244,1,254.659992228394,6|2,1:1|2:2,0:0:0:0:
326,135,22828,2,0,P|336:90|288:58,1,95.4974970856477,10|0,2:2|2:2,0:0:0:0:
200,149,23059,1,2,2:2:0:0:
206,160,23136,2,0,B|256:171|276:204|327:217,1,127.329996114197,2|2,2:2|1:1,0:0:0:0:
321,216,23405,1,0,2:2:0:0:
480,111,23520,6,0,P|483:81|489:49,1,62.9212490398979,2|0,2:2|2:2,0:0:0:0:
412,18,23751,2,0,P|406:85|393:172,1,143.246245628472,10|0,2:2|2:2,0:0:0:0:
455,261,23982,6,0,P|485:270|513:286,1,62.9212490398979,2|0,2:2|2:2,0:0:0:0:
453,342,24213,2,0,B|374:315|348:393|270:367,1,190.994994171295,2|2,1:1|2:2,0:0:0:0:
269,366,24559,1,0,2:2:0:0:
90,254,24674,2,0,B|120:263|138:299|138:299|138:258|168:233,1,143.246245628472,10|0,2:2|2:2,0:0:0:0:
225,297,24905,6,0,P|246:291|268:279,1,47.7487485428238,2|0,2:2|2:2,0:0:0:0:
115,179,25020,2,0,P|108:158|107:133,1,47.7487485428238,2|0,2:2|2:2,0:0:0:0:
68,325,25136,2,0,P|19:337|-14:277,1,95.4974970856477,2|0,1:1|2:2,0:0:0:0:
186,140,25366,6,0,P|191:112|196:73,1,62.9212490398979,2|0,2:2|2:2,0:0:0:0:
117,45,25597,2,0,P|187:34|276:16,1,143.246245628472,10|0,2:2|2:2,0:0:0:0:
381,0,25828,6,0,P|376:27|371:67,1,62.9212490398979,2|0,2:2|2:2,0:0:0:0:
450,95,26059,2,0,P|379:105|291:124,1,143.246245628472,2|0,1:1|2:2,0:0:0:0:
292,202,26289,1,2,2:2:0:0:
304,199,26366,2,0,P|332:192|372:186,1,63.6649980570985,2|0,2:2|2:2,0:0:0:0:
267,278,26520,2,0,P|253:194|235:116,1,143.246245628472,10|0,2:2|2:2,0:0:0:0:
185,89,26751,1,2,2:2:0:0:
173,84,26828,1,2,2:2:0:0:
2,289,26982,2,0,B|76:307|103:353|178:372,1,190.994994171295,2|2,1:1|2:2,0:0:0:0:
71,355,27328,1,2,2:2:0:0:
166,284,27443,2,0,P|150:210|138:136,1,143.246245628472,10|0,2:2|2:2,0:0:0:0:
19,92,27674,1,2,2:2:0:0:
24,84,27751,2,0,P|51:93|78:67,1,63.6649980570985,2|2,2:2|2:2,0:0:0:0:
193,52,27905,6,0,P|110:37|10:2,1,190.994994171295,2|2,1:1|2:2,0:0:0:0:
9,1,28251,1,2,2:2:0:0:
184,149,28366,2,0,B|266:155|272:72|355:79,1,190.994994171295,10|2,2:2|2:2,0:0:0:0:
339,158,28674,2,0,P|301:151|267:139,1,63.6649980570985,2|0,2:2|2:2,0:0:0:0:
477,82,28828,6,0,L|485:35,1,47.7487485428238,2|0,1:1|2:2,0:0:0:0:
409,120,28943,1,8,2:2:0:0:
512,236,29059,1,2,3:3:0:0:
508,217,29116,1,0,3:3:0:0:
504,198,29174,1,0,3:3:0:0:
499,179,29232,1,0,3:3:0:0:
494,161,29289,1,10,2:2:0:0:
422,272,29405,1,0,2:2:0:0:
389,203,29520,6,0,P|362:196|338:190,1,47.7487485428238,10|0,2:2|2:2,0:0:0:0:
140,315,29636,2,0,P|166:321|191:328,1,47.7487485428238,8|0,2:2|2:2,0:0:0:0:
275,347,29751,6,0,L|241:74,1,274.889994547165,6|2,1:1|1:1,0:0:0:0:
343,192,30559,5,2,2:2:0:0:
179,262,30674,1,2,1:1:0:0:
343,192,30789,6,0,L|334:123,1,68.7224986367913,2|2,2:2|2:2,0:0:0:0:
179,262,31020,6,0,L|187:330,1,66.0450016124268,2|0,2:2|2:2,0:0:0:0:
256,192,31366,1,2,2:2:0:0:
262,33,31597,6,0,P|279:66|273:107,1,68.7224986367913,2|0,1:1|2:2,0:0:0:0:
394,145,31828,6,0,P|367:170|325:179,1,68.7224986367913,2|0,2:2|2:2,0:0:0:0:
328,305,32059,6,0,P|293:287|273:250,1,68.7224986367913,2|0,1:1|2:2,0:0:0:0:
155,293,32289,6,0,P|160:255|189:224,1,68.7224986367913,2|0,2:2|2:2,0:0:0:0:
113,124,32520,6,0,P|149:117|186:135,1,68.7224986367913,2|0,1:1|2:2,0:0:0:0:
254,180,32751,5,2,2:2:0:0:
41,154,32982,6,0,L|0:148,1,41.947499359932,10|0,2:2|2:2,0:0:0:0:
456,204,33213,2,0,L|498:210,1,41.947499359932,2|0,2:2|2:2,0:0:0:0:
275,347,33443,6,0,L|241:74,1,274.889994547165,2|2,1:1|1:1,0:0:0:0:
343,192,34251,5,2,2:2:0:0:
179,262,34366,1,2,1:1:0:0:
343,192,34481,6,0,L|334:123,1,68.7224986367913,2|2,2:2|2:2,0:0:0:0:
179,262,34712,6,0,L|187:330,1,66.0450016124268,2|0,2:2|2:2,0:0:0:0:
256,192,35058,1,2,2:2:0:0:
262,33,35289,6,0,P|279:66|273:107,1,68.7224986367913,2|0,1:1|2:2,0:0:0:0:
394,145,35520,6,0,P|367:170|325:179,1,68.7224986367913,2|0,2:2|2:2,0:0:0:0:
328,305,35751,6,0,P|293:287|273:250,1,68.7224986367913,2|0,1:1|2:2,0:0:0:0:
155,293,35982,6,0,P|160:255|189:224,1,68.7224986367913,2|0,2:2|2:2,0:0:0:0:
113,124,36212,6,0,P|149:117|186:135,1,68.7224986367913,2|0,1:1|2:2,0:0:0:0:
254,180,36443,5,2,2:2:0:0:
41,154,36674,6,0,L|0:148,1,41.947499359932,10|2,2:2|2:2,0:0:0:0:
456,204,36905,2,0,L|498:210,1,41.947499359932,2|2,2:2|2:2,0:0:0:0:
275,347,37136,6,0,L|241:74,1,274.889994547165,2|2,1:1|1:1,0:0:0:0:
343,192,37944,5,2,2:2:0:0:
179,262,38059,1,2,1:1:0:0:
343,192,38174,6,0,L|334:123,1,68.7224986367913,2|2,2:2|2:2,0:0:0:0:
179,262,38405,6,0,L|187:330,1,66.0450016124268,2|0,2:2|2:2,0:0:0:0:
256,192,38751,1,2,2:2:0:0:
262,33,38982,6,0,P|279:66|273:107,1,68.7224986367913,2|0,1:1|2:2,0:0:0:0:
394,145,39213,6,0,P|367:170|325:179,1,68.7224986367913,2|0,2:2|2:2,0:0:0:0:
328,305,39444,6,0,P|293:287|273:250,1,68.7224986367913,2|0,1:1|2:2,0:0:0:0:
155,293,39674,6,0,P|160:255|189:224,1,68.7224986367913,2|0,2:2|2:2,0:0:0:0:
113,124,39905,6,0,P|149:117|186:135,1,68.7224986367913,2|0,1:1|2:2,0:0:0:0:
254,180,40136,5,2,2:2:0:0:
41,154,40367,6,0,L|0:148,1,41.947499359932,10|0,2:2|2:2,0:0:0:0:
456,204,40598,2,0,L|498:210,1,41.947499359932,2|0,2:2|2:2,0:0:0:0:
131,189,40828,6,0,P|124:150|114:107,1,68.7224986367913,2|0,1:1|2:2,0:0:0:0:
368,179,41059,2,0,P|374:217|384:260,1,68.7224986367913,2|0,2:2|2:2,0:0:0:0:
255,68,41289,6,0,P|216:61|173:51,1,68.7224986367913,2|0,1:1|2:2,0:0:0:0:
245,305,41520,2,0,P|283:311|326:321,1,68.7224986367913,2|0,2:2|2:2,0:0:0:0:
67,92,41751,5,2,1:1:0:0:
129,130,41866,2,0,P|136:163|142:197,1,68.7224986367913,2|2,2:2|2:2,0:0:0:0:
390,249,42097,2,0,P|373:173|359:97,1,137.444997273583,2|0,2:2|2:2,0:0:0:0:
254,180,42443,5,2,2:2:0:0:
192,318,42674,6,0,P|185:284|196:253,1,68.7224986367913,2|0,1:1|2:2,0:0:0:0:
361,275,42905,6,0,P|327:272|300:253,1,68.7224986367913,2|0,2:2|2:2,0:0:0:0:
373,102,43135,6,0,P|359:133|331:153,1,68.7224986367913,2|0,1:1|2:2,0:0:0:0:
213,36,43366,6,0,P|236:61|247:94,1,68.7224986367913,2|0,2:1|2:2,0:0:0:0:
101,168,43597,6,0,P|131:151|165:153,1,68.7224986367913,2|0,1:1|2:2,0:0:0:0:
388,281,43828,5,10,2:2:0:0:
101,246,44059,5,10,2:2:0:0:
276,15,44289,5,2,0:2:0:0:
259,17,44346,1,2,0:2:0:0:
242,20,44404,1,2,0:2:0:0:
225,23,44462,1,2,0:2:0:0:
208,26,44520,2,0,B|180:47|174:95|220:126|220:126|265:156|260:205|232:226,1,232.942501954931,6|0,1:1|2:2,0:0:0:0:
15,285,44982,6,0,P|49:244|119:264,1,125.842498079796,10|0,2:2|2:2,0:0:0:0:
260,384,45443,6,0,P|217:374|209:336,1,77.6475006516438,2|0,1:1|2:2,0:0:0:0:
300,224,45674,2,0,P|282:293|271:385,1,155.295001303288,2|10,2:2|2:2,0:0:0:0:
293,217,46020,1,0,2:2:0:0:
377,208,46136,6,0,P|372:239|363:269,1,62.9212490398979,2|0,2:2|2:2,0:0:0:0:
327,144,46366,6,0,P|287:133|245:118,1,77.6475006516438,2|0,1:1|2:2,0:0:0:0:
40,53,46597,2,0,P|76:62|114:76,1,66.0450016124268,2|10,2:2|2:2,0:0:0:0:
377,208,47059,6,0,P|372:239|363:269,1,62.9212490398979,2|0,2:2|2:2,0:0:0:0:
327,144,47289,6,0,P|287:133|245:118,1,77.6475006516438,2|0,1:1|2:2,0:0:0:0:
40,53,47520,2,0,P|76:62|114:76,1,66.0450016124268,2|10,2:2|2:2,0:0:0:0:
101,290,47982,1,2,2:2:0:0:
101,290,48213,6,0,P|106:252|134:227,1,77.6475006516438,2|0,1:1|2:2,0:0:0:0:
256,192,48443,1,2,2:2:0:0:
354,347,48674,6,0,P|316:341|291:313,1,77.6475006516438,10|0,2:2|2:2,0:0:0:0:
256,192,48904,1,2,2:2:0:0:
411,94,49136,6,0,P|405:131|377:156,1,77.6475006516438,2|0,1:1|2:2,0:0:0:0:
158,37,49366,6,0,P|198:42|225:73,1,83.8949987198639,2|10,2:2|2:2,0:0:0:0:
225,73,49828,6,0,P|230:111|232:150,1,77.6475006516438,2|0,2:2|2:2,0:0:0:0:
254,384,50059,2,0,P|248:345|246:306,1,77.6475006516438,2|0,1:1|2:2,0:0:0:0:
197,234,50289,6,0,P|237:227|289:223,1,83.8949987198639,2|10,2:2|2:2,0:0:0:0:
225,73,50751,6,0,P|230:111|232:150,1,77.6475006516438,2|0,2:2|2:2,0:0:0:0:
254,384,50982,2,0,P|248:345|246:306,1,77.6475006516438,2|0,1:1|2:2,0:0:0:0:
197,234,51213,6,0,P|237:227|289:223,2,83.8949987198639,2|10|2,2:2|2:2|2:3,0:0:0:0:
43,324,51789,1,0,2:2:0:0:
98,272,51905,6,0,P|114:162|129:37,1,232.942501954931,2|0,1:1|2:2,0:0:0:0:
417,87,52366,6,0,P|400:196|385:321,1,232.942501954931,10|0,2:2|2:2,0:0:0:0:
226,101,52828,6,0,P|261:108|313:115,1,77.6475006516438,2|0,1:1|2:2,0:0:0:0:
287,259,53059,2,0,P|251:251|199:244,1,83.8949987198639,2|10,2:2|2:2,0:0:0:0:
14,162,53520,6,0,P|20:124|26:76,1,77.6475006516438,2|0,2:2|2:2,0:0:0:0:
81,297,53751,2,0,P|74:334|69:383,1,77.6475006516438,2|0,1:1|2:2,0:0:0:0:
8,245,53982,6,0,P|44:230|97:200,1,83.8949987198639,2|10,2:2|2:2,0:0:0:0:
490,199,54443,6,0,P|479:141|471:65,1,116.471250977466,2|0,2:2|2:2,0:0:0:0:
464,82,54674,2,0,P|468:119|476:175,1,77.6475006516438,2|0,1:1|2:2,0:0:0:0:
295,257,54905,6,0,P|305:314|313:390,1,116.471250977466,2|0,2:2|2:2,0:0:0:0:
321,374,55136,6,0,P|316:334|308:284,1,83.8949987198639,10|2,2:2|2:2,0:0:0:0:
175,118,55597,6,0,B|242:134|267:176|334:193,1,167.789997439728,2|10,1:1|2:2,0:0:0:0:
162,223,56289,1,2,2:2:0:0:
328,101,56520,6,0,L|335:52,1,41.947499359932,2|0,1:1|2:2,0:0:0:0:
164,233,56751,2,0,L|157:282,1,41.947499359932,2|0,2:2|2:2,0:0:0:0:
256,160,56982,1,10,2:2:0:0:
158,274,57213,6,0,L|124:270,1,36.1462508824768,2|0,2:2|2:2,0:0:0:0:
118,341,57443,2,0,L|153:346,1,36.1462508824768,2|0,2:2|2:2,0:0:0:0:
56,299,57674,6,0,L|32:179,1,116.471250977466,2|0,1:1|2:2,0:0:0:0:
40,173,57905,2,0,L|23:86,1,77.6475006516438,2|0,1:2|2:2,0:0:0:0:
118,341,58136,6,0,L|153:346,1,36.1462508824768,2|0,2:2|2:2,0:0:0:0:
56,299,58367,6,0,L|32:179,1,116.471250977466,2|0,1:1|2:2,0:0:0:0:
40,173,58598,2,0,L|23:86,1,77.6475006516438,2|0,1:1|2:2,0:0:0:0:
12,12,58828,1,2,2:2:0:0:
12,12,59289,6,0,P|170:75|313:166,1,340.042497405682,6|0,1:1|2:2,0:0:0:0:
431,321,59751,6,0,P|481:302|491:240,1,104.42250039834,10|0,2:2|2:2,0:0:0:0:
385,126,59982,6,0,P|393:155|394:187,1,52.2112501991701,2|0,2:2|2:2,0:0:0:0:
476,159,60097,2,0,P|468:130|467:98,1,52.2112501991701,0|0,2:2|2:2,0:0:0:0:
313,166,60213,6,0,P|170:75|13:12,1,340.042497405682,2|0,1:1|2:2,0:0:0:0:
30,251,60674,2,0,B|13:218|30:187|30:187|-1:218|13:251,1,104.42250039834,10|0,2:2|2:2,0:0:0:0:
71,372,60905,6,0,P|97:376|128:387,1,52.2112501991701,2|0,2:2|2:2,0:0:0:0:
143,307,61020,2,0,P|117:303|86:292,1,52.2112501991701,0|0,2:2|2:2,0:0:0:0:
192,385,61136,6,0,P|218:363|226:337,1,59.7974971714441,2|0,1:1|2:2,0:0:0:0:
343,373,61366,6,0,P|347:336|332:309,1,68.7224986367913,2|0,2:2|2:2,0:0:0:0:
442,260,61597,6,0,P|417:226|383:215,1,77.6475006516438,10|0,2:2|2:2,0:0:0:0:
436,109,61828,6,0,P|389:102|354:119,1,86.5725020475369,2|0,2:2|2:2,0:0:0:0:
326,5,62059,6,0,P|284:36|268:77,1,95.4974970856477,2|0,1:1|2:2,0:0:0:0:
171,12,62289,6,0,P|161:68|180:113,1,104.42250039834,2|0,2:2|2:2,0:0:0:0:
56,129,62520,6,0,P|91:182|141:202,1,113.347499135227,10|0,2:2|2:2,0:0:0:0:
256,192,62751,6,0,L|259:169,1,22.7587501389084,2|0,2:2|2:2,0:0:0:0:
330,235,62982,6,0,P|201:271|11:353,1,340.042497405682,2|0,1:1|2:2,0:0:0:0:
256,192,63443,6,0,L|259:169,1,22.7587501389084,10|0,2:2|2:2,0:0:0:0:
180,180,63674,2,0,L|176:202,1,22.7587501389084,2|0,2:2|2:2,0:0:0:0:
330,235,63905,6,0,P|201:271|11:353,1,340.042497405682,2|0,1:1|2:2,0:0:0:0:
256,192,64366,6,0,L|259:169,1,22.7587501389084,10|0,2:2|2:2,0:0:0:0:
180,180,64597,2,0,L|176:202,1,22.7587501389084,2|0,2:2|2:2,0:0:0:0:
330,235,64828,6,0,P|201:271|11:353,1,340.042497405682,2|0,1:1|2:2,0:0:0:0:
7,103,65289,2,0,P|14:149|75:161,1,104.42250039834,10|0,2:2|2:2,0:0:0:0:
254,29,65520,2,0,P|211:10|168:55,1,104.42250039834,2|0,2:2|2:2,0:0:0:0:
212,230,65751,6,0,P|216:201|197:170,1,52.2112501991701,2|0,1:1|2:2,0:0:0:0:
139,125,65866,1,10,2:2:0:0:
356,236,65982,2,0,P|332:179|350:138,1,104.42250039834,2|0,2:2|2:2,0:0:0:0:
419,131,66155,1,0,3:3:0:0:
429,130,66213,2,0,P|453:187|435:228,1,104.42250039834,10|0,1:2|2:2,0:0:0:0:
414,339,66443,5,2,3:3:0:0:
412,329,66501,1,2,3:3:0:0:
410,319,66558,1,2,3:3:0:0:
408,309,66616,1,2,3:3:0:0:
407,299,66674,2,0,P|220:240|14:204,1,396.716246973295,6|0,1:1|2:2,0:0:0:0:
22,204,67136,6,0,P|-8:159|19:103,1,104.42250039834,10|0,2:2|2:2,0:0:0:0:
198,45,67366,6,0,L|158:51,1,36.1462508824768,2|0,2:2|2:2,0:0:0:0:
208,38,67597,6,0,P|253:43|279:98,1,104.42250039834,2|0,1:1|2:2,0:0:0:0:
150,313,67828,2,0,P|131:272|164:220,1,104.42250039834,2|0,2:2|2:2,0:0:0:0:
417,223,68059,2,0,P|392:261|331:260,1,104.42250039834,10|0,2:2|2:2,0:0:0:0:
256,192,68289,5,2,2:2:0:0:
192,385,68521,6,0,P|218:363|226:337,1,59.7974971714441,2|0,1:1|2:2,0:0:0:0:
343,373,68751,6,0,P|347:336|332:309,1,68.7224986367913,2|0,2:2|2:2,0:0:0:0:
442,260,68982,6,0,P|417:226|383:215,1,77.6475006516438,10|0,2:2|2:2,0:0:0:0:
436,109,69213,6,0,P|389:102|354:119,1,86.5725020475369,2|2,2:2|2:2,0:0:0:0:
326,5,69444,6,0,P|284:36|268:77,1,95.4974970856477,2|0,1:1|2:2,0:0:0:0:
171,12,69674,6,0,P|161:68|180:113,1,104.42250039834,2|0,2:2|2:2,0:0:0:0:
56,129,69905,6,0,P|91:182|141:202,1,113.347499135227,10|0,2:2|2:2,0:0:0:0:
256,192,70136,6,0,L|260:168,1,22.7587501389084,2|0,2:2|2:2,0:0:0:0:
63,263,70366,6,0,L|461:183,1,393.592481682479,2|0,1:1|2:2,0:0:0:0:
256,192,70828,6,0,L|259:169,1,22.7587501389084,10|0,2:2|2:2,0:0:0:0:
180,180,71059,2,0,L|176:202,1,22.7587501389084,2|0,2:2|2:2,0:0:0:0:
63,263,71289,6,0,L|461:183,1,393.592481682479,2|0,1:1|2:2,0:0:0:0:
256,192,71751,6,0,L|259:169,1,22.7587501389084,10|0,2:2|2:2,0:0:0:0:
180,180,71982,2,0,L|176:202,1,22.7587501389084,2|0,2:2|2:2,0:0:0:0:
282,318,72213,6,0,B|332:307|372:317|416:291,1,131.19749389416,2|0,1:1|2:2,0:0:0:0:
410,294,72386,1,0,3:3:0:0:
410,294,72443,2,0,B|417:267|412:248|418:223,1,65.5987469470798,2|0,3:2|3:3,0:0:0:0:
488,181,72559,2,0,B|481:153|486:134|480:109,1,65.5987469470798,0|0,3:3|3:3,0:0:0:0:
306,50,72674,6,0,B|288:-5|378:-39|442:38|357:173|263:106,1,261.056250995851,10|0,2:2|2:2,0:0:0:0:
217,53,73020,1,2,3:2:0:0:
218,85,73078,1,0,3:3:0:0:
226,73,73136,2,0,B|194:83|167:112|115:123,1,104.42250039834,2|8,1:1|2:2,0:0:0:0:
67,78,73309,1,0,3:3:0:0:
77,75,73366,2,0,P|93:59|115:114,1,104.42250039834,2|0,3:2|3:3,0:0:0:0:
38,149,73539,1,0,3:3:0:0:
29,159,73597,2,0,B|8:207|25:259|0:323,1,156.63375059751,10|0,2:2|2:2,0:0:0:0:
75,342,73828,5,10,2:2:0:0:
90,330,73886,5,8,2:2:0:0:
108,338,73943,5,8,2:2:0:0:
135,321,74001,5,8,2:2:0:0:
169,328,74059,5,2,3:2:0:0:
69,145,75905,6,0,L|23:133,1,41.947499359932,2|0,1:3|2:2,0:0:0:0:
442,238,76136,2,0,L|488:250,1,41.947499359932,2|0,1:3|2:2,0:0:0:0:
302,2,77059,5,14,2:2:0:0:
223,220,77289,6,0,L|214:185,1,36.1462508824768,10|0,2:3|2:2,0:0:0:0:
288,164,77520,2,0,L|296:198,1,36.1462508824768,6|0,2:3|2:2,0:0:0:0:
229,111,77751,6,0,B|188:100|172:75|132:65,1,103.083747955187,14|0,2:2|2:2,0:0:0:0:
128,73,77982,1,0,1:1:0:0:
304,207,78097,6,0,B|344:217|360:242|400:252,1,103.083747955187,14|0,2:2|2:2,0:0:0:0:
405,245,78328,1,0,1:1:0:0:
260,359,78443,5,10,2:2:0:0:
269,283,78559,1,0,3:3:0:0:
268,363,78674,1,2,3:2:0:0:
194,311,78789,2,0,P|150:324|99:338,1,83.8949987198639,0|2,2:2|2:2,0:0:0:0:
53,292,79136,1,2,2:3:0:0:
256,192,79597,5,6,1:1:0:0:
256,192,80059,5,2,1:2:0:0:
178,192,80289,6,0,L|187:154,1,20.973749679966,10|8,2:3|2:3,0:0:0:0:
252,290,80520,6,0,L|213:280,1,20.973749679966,10|8,1:3|2:3,0:0:0:0:
336,191,80751,6,0,L|326:228,1,20.973749679966,10|8,2:3|2:3,0:0:0:0:
262,93,80982,6,0,L|299:102,1,20.973749679966,2|0,1:3|2:2,0:0:0:0:
256,192,81213,5,0,2:2:0:0:
169,328,81443,5,6,1:1:0:0:
69,145,83289,5,2,1:2:0:0:
442,238,83520,1,2,1:2:0:0:
69,145,85136,5,2,1:2:0:0:
442,238,85367,1,0,1:1:0:0:
69,145,86982,5,2,1:2:0:0:
442,238,87213,1,2,1:2:0:0:
256,192,88828,5,6,1:1:0:0:
382,320,89982,5,8,2:3:0:0:
384,309,90059,1,8,2:3:0:0:
386,298,90136,1,8,2:3:0:0:
388,287,90213,1,10,2:3:0:0:
431,89,90443,1,8,2:3:0:0:
431,89,90905,6,0,B|362:116|346:149|285:177,1,167.789997439728,2|0,1:3|3:3,0:0:0:0:
220,137,91443,1,0,3:3:0:0:
218,126,91520,1,0,3:3:0:0:
216,115,91597,1,10,2:2:0:0:
88,306,91828,1,2,1:3:0:0:
256,192,94366,5,14,2:2:0:0:
256,192,94828,5,2,1:2:0:0:
110,75,95059,1,12,2:2:0:0:
229,345,95520,1,2,1:2:0:0:
379,210,95751,1,14,2:2:0:0:
323,317,95982,5,10,2:3:0:0:
321,306,96059,1,8,2:3:0:0:
319,295,96136,1,8,2:3:0:0:
317,284,96213,1,10,1:3:0:0:
449,145,96443,1,8,2:3:0:0:
256,192,97366,5,2,1:3:0:0:
256,192,97828,5,2,1:3:0:0:
189,317,98982,5,8,2:3:0:0:
191,306,99059,1,8,2:3:0:0:
193,295,99136,1,10,2:3:0:0:
195,284,99213,1,8,2:3:0:0:
63,145,99443,1,14,2:2:0:0:
256,39,99905,5,2,1:3:0:0:
283,261,100136,1,2,1:3:0:0:
114,305,103597,6,0,B|85:220|170:192|142:107,1,206.167495910374,6|0,1:1|2:2,0:0:0:0:
0,129,104059,2,0,P|33:137|83:151,1,68.7224986367913,10|0,2:2|2:2,0:0:0:0:
193,267,104289,2,0,P|226:275|276:289,1,68.7224986367913,2|0,2:2|2:2,0:0:0:0:
409,104,104520,6,0,P|312:79|205:46,1,206.167495910374,2|0,1:1|2:2,0:0:0:0:
0,129,104982,2,0,P|33:137|83:151,1,68.7224986367913,10|0,2:2|2:2,0:0:0:0:
193,267,105212,2,0,P|226:275|276:289,1,68.7224986367913,2|0,2:2|2:2,0:0:0:0:
351,116,105443,6,0,B|322:200|407:228|379:313,1,206.167495910374,2|0,1:1|2:2,0:0:0:0:
114,305,105905,6,0,B|85:220|170:192|142:107,1,206.167495910374,10|0,2:2|2:2,0:0:0:0:
0,129,106366,2,0,P|33:137|83:151,1,68.7224986367913,2|0,1:1|2:2,0:0:0:0:
193,267,106596,2,0,P|226:275|276:289,1,68.7224986367913,2|0,2:2|2:2,0:0:0:0:
512,255,106828,2,0,P|478:246|429:233,1,68.7224986367913,10|0,2:2|2:2,0:0:0:0:
319,117,107058,2,0,P|285:108|236:95,1,68.7224986367913,2|0,2:2|2:2,0:0:0:0:
114,305,107289,6,0,B|85:220|170:192|142:107,1,206.167495910374,2|0,1:1|2:2,0:0:0:0:
0,129,107751,2,0,P|33:137|83:151,1,68.7224986367913,10|0,2:2|2:2,0:0:0:0:
193,267,107981,2,0,P|226:275|276:289,1,68.7224986367913,2|0,2:2|2:2,0:0:0:0:
409,104,108212,6,0,P|312:79|205:46,1,206.167495910374,2|0,1:1|2:2,0:0:0:0:
0,129,108674,2,0,P|33:137|83:151,1,68.7224986367913,10|0,2:2|2:2,0:0:0:0:
193,267,108904,2,0,P|226:275|276:289,1,68.7224986367913,2|0,2:2|2:2,0:0:0:0:
351,116,109135,6,0,B|322:200|407:228|379:313,1,206.167495910374,2|0,1:1|2:2,0:0:0:0:
114,305,109597,6,0,B|85:220|170:192|142:107,1,206.167495910374,10|0,2:2|2:2,0:0:0:0:
0,56,110059,1,2,1:1:0:0:
0,129,110174,2,0,P|33:137|83:151,1,68.7224986367913,8|2,2:2|2:2,0:0:0:0:
312,229,110405,1,0,2:2:0:0:
259,284,110520,2,0,P|226:275|192:267,1,68.7224986367913,10|0,2:2|2:2,0:0:0:0:
126,210,110751,1,2,2:2:0:0:
277,0,110982,6,0,P|260:101|247:204,1,206.167495910374,6|0,1:1|2:2,0:0:0:0:
119,40,111443,2,0,P|151:32|195:16,1,68.7224986367913,10|0,2:2|2:2,0:0:0:0:
405,134,111674,2,0,P|372:141|329:158,1,68.7224986367913,2|0,2:2|2:2,0:0:0:0:
258,203,111847,5,0,2:2:0:0:
247,204,111905,2,0,P|260:101|277:0,1,206.167495910374,2|0,1:1|2:2,0:0:0:0:
119,40,112366,2,0,P|151:32|195:16,1,68.7224986367913,10|0,2:2|2:2,0:0:0:0:
405,134,112597,2,0,P|372:141|329:158,1,68.7224986367913,2|0,2:2|2:2,0:0:0:0:
258,203,112770,5,0,2:2:0:0:
247,204,112828,2,0,P|260:101|277:0,1,206.167495910374,2|0,1:1|2:2,0:0:0:0:
119,40,113289,2,0,P|151:32|195:16,1,68.7224986367913,10|0,2:2|2:2,0:0:0:0:
405,134,113520,2,0,P|372:141|329:158,1,68.7224986367913,2|0,2:2|2:2,0:0:0:0:
149,184,113751,6,0,B|156:250|143:296|94:302|119:388,1,206.167495910374,2|0,1:1|2:2,0:0:0:0:
70,223,114213,2,0,B|65:189|50:170|47:135,1,68.7224986367913,10|0,2:2|2:2,0:0:0:0:
207,318,114443,2,0,B|212:352|227:371|230:406,1,68.7224986367913,2|0,2:2|2:2,0:0:0:0:
149,213,114674,6,0,B|136:257|144:301|105:306|125:373,1,152.617498136993,2|0,1:1|2:2,0:0:0:0:
61,258,115136,2,0,B|57:236|48:224|46:202,1,50.8724993789978,10|0,2:2|2:2,0:0:0:0:
215,297,115366,2,0,B|218:318|227:330|229:352,1,50.8724993789978,2|0,2:2|2:2,0:0:0:0:
142,253,115597,6,0,B|134:279|149:281|112:337|127:350,1,99.0675024186402,2|0,1:1|2:2,0:0:0:0:
62,270,116059,2,0,B|59:256|53:248|52:234,1,33.0225008062134,10|0,2:2|2:2,0:0:0:0:
209,315,116289,2,0,B|211:329|217:337|218:352,1,33.0225008062134,2|0,2:2|2:2,0:0:0:0:
311,156,116520,6,0,L|332:150,1,16.5112504031067,2|0,1:1|2:2,0:0:0:0:
264,224,116636,6,0,L|247:209,1,16.5112504031067,0|0,3:3|2:2,0:0:0:0:
346,229,116751,6,0,L|342:250,1,16.5112504031067,2|0,3:2|2:2,0:0:0:0:
305,200,116866,5,0,2:2:0:0:
122,60,116982,1,14,2:2:0:0:
44,242,117213,6,0,L|2:232,1,33.0225008062134,2|0,3:2|2:2,0:0:0:0:
165,123,117443,2,0,L|88:146,1,59.7974971714441,2|0,1:1|2:2,0:0:0:0:
275,310,117674,2,0,L|164:284,1,86.5725020475369,10|0,2:2|2:2,0:0:0:0:
418,49,117905,2,0,L|274:84,1,113.347499135227,10|0,2:2|2:2,0:0:0:0:
511,374,118136,2,0,L|358:330,1,140.122500534525,10|0,2:2|2:2,0:0:0:0:
190,290,118366,6,0,P|171:193|128:53,1,232.942501954931,6|0,1:1|2:2,0:0:0:0:
307,99,118828,2,0,P|287:137|243:147,1,77.6475006516438,10|0,2:2|2:2,0:0:0:0:
63,47,119059,2,0,P|105:43|137:75,1,77.6475006516438,2|0,2:2|2:2,0:0:0:0:
91,228,119289,5,2,1:1:0:0:
161,151,119405,1,0,3:3:0:0:
70,135,119520,1,2,3:2:0:0:
80,146,119636,1,0,2:2:0:0:
200,245,119751,6,0,P|236:234|294:219,1,77.6475006516438,10|0,2:2|2:2,0:0:0:0:
376,42,119982,2,0,P|340:53|281:67,1,77.6475006516438,2|0,2:2|2:2,0:0:0:0:
410,276,120213,5,2,1:1:0:0:
474,180,120328,1,0,3:3:0:0:
353,172,120443,1,2,3:2:0:0:
365,179,120559,1,0,2:2:0:0:
301,300,120674,6,0,P|263:309|226:321,1,77.6475006516438,10|0,2:2|2:2,0:0:0:0:
37,235,120905,2,0,P|65:261|94:287,1,77.6475006516438,2|0,2:2|2:2,0:0:0:0:
341,148,121136,6,0,P|312:121|283:95,1,77.6475006516438,2|0,1:1|2:2,0:0:0:0:
77,83,121367,2,0,P|114:73|151:61,1,77.6475006516438,2|0,2:2|2:2,0:0:0:0:
186,198,121597,5,10,2:2:0:0:
239,0,121828,1,2,2:2:0:0:
367,258,122059,6,0,P|390:143|424:32,1,232.942501954931,2|0,1:1|2:2,0:0:0:0:
306,97,122520,2,0,P|299:136|290:173,1,77.6475006516438,10|0,2:2|2:2,0:0:0:0:
465,214,122751,2,0,P|472:175|481:138,1,77.6475006516438,2|0,2:2|2:2,0:0:0:0:
424,32,122982,6,0,P|390:143|367:258,1,232.942501954931,2|0,1:1|2:2,0:0:0:0:
290,173,123443,2,0,P|299:136|307:98,1,77.6475006516438,10|0,2:2|2:2,0:0:0:0:
481,138,123674,2,0,P|472:175|465:214,1,77.6475006516438,2|0,2:2|2:2,0:0:0:0:
346,356,123905,5,2,1:2:0:0:
205,271,124020,1,0,3:3:0:0:
279,293,124136,1,2,3:2:0:0:
282,308,124251,1,0,2:2:0:0:
152,209,124366,6,0,P|144:170|137:132,1,77.6475006516438,10|0,2:2|2:2,0:0:0:0:
55,342,124597,2,0,P|83:315|111:288,1,77.6475006516438,2|0,2:2|2:2,0:0:0:0:
233,186,124828,5,10,2:2:0:0:
289,137,124943,2,0,P|281:98|274:60,1,77.6475006516438,8|2,2:2|3:2,0:0:0:0:
195,38,125174,5,0,2:2:0:0:
364,94,125289,2,0,B|427:98|457:132|521:137,1,155.295001303288,10|2,2:2|2:2,0:0:0:0:
512,136,125751,6,0,P|247:162|63:354,1,543.532504561506,6|0,1:1|2:2,0:0:0:0:
209,150,126674,5,2,1:2:0:0:
161,57,126790,1,0,3:3:0:0:
113,135,126905,1,2,3:2:0:0:
126,129,127021,1,0,2:2:0:0:
32,56,127136,1,10,2:2:0:0:
32,56,127597,6,0,P|93:74|233:174,1,232.942501954931,2|0,1:1|2:2,0:0:0:0:
226,322,128059,2,0,P|195:292|205:251,1,77.6475006516438,10|0,2:2|2:2,0:0:0:0:
312,207,128289,2,0,P|343:237|333:278,1,77.6475006516438,2|0,2:2|2:2,0:0:0:0:
314,365,128520,5,2,1:3:0:0:
253,318,128636,1,0,3:3:0:0:
324,286,128751,1,2,3:2:0:0:
139,91,128982,6,0,P|98:84|34:71,1,77.6475006516438,10|0,2:2|2:2,0:0:0:0:
377,128,129213,2,0,P|417:134|481:147,1,77.6475006516438,2|0,2:2|2:2,0:0:0:0:
276,40,129443,5,2,1:1:0:0:
256,114,129559,2,0,B|236:173|295:213|275:273,1,155.295001303288,0|0,3:3|2:2,0:0:0:0:
146,318,129905,6,0,P|105:311|41:298,1,77.6475006516438,10|0,2:2|2:2,0:0:0:0:
384,355,130136,2,0,P|424:361|488:374,1,77.6475006516438,2|0,2:2|2:2,0:0:0:0:
278,264,130366,5,2,1:1:0:0:
267,186,130482,1,0,3:3:0:0:
183,227,130597,1,2,3:2:0:0:
197,231,130713,1,0,2:2:0:0:
130,289,130828,1,10,2:2:0:0:
100,116,131289,5,2,1:1:0:0:
84,40,131405,1,0,3:3:0:0:
233,80,131520,6,0,P|194:71|151:59,1,77.6475006516438,2|0,3:2|2:2,0:0:0:0:
25,195,131751,2,0,P|97:169|178:148,2,155.295001303288,14|2|2,2:2|2:2|1:1,0:0:0:0:
367,133,132443,6,0,L|460:156,1,77.6475006516438,10|0,2:2|2:2,0:0:0:0:
233,284,132674,6,0,L|163:350,1,77.6475006516438,10|0,2:2|2:2,0:0:0:0:
175,90,132905,6,0,L|155:-3,1,77.6475006516438,10|0,2:2|2:2,0:0:0:0:
256,192,133136,5,6,1:1:0:0:
329,210,133251,1,2,2:2:0:0:
402,228,133366,6,0,P|407:207|416:181,1,41.947499359932,2|0,2:2|2:2,0:0:0:0:
310,266,133597,2,0,P|315:245|321:225,1,41.947499359932,10|0,1:2|2:2,0:0:0:0:
215,317,133828,2,0,P|220:297|229:270,1,41.947499359932,2|0,2:2|2:2,0:0:0:0:
123,355,134059,2,0,P|128:334|134:314,1,41.947499359932,2|0,1:2|2:2,0:0:0:0:
19,143,134289,5,10,2:2:0:0:
63,202,134405,1,8,2:2:0:0:
109,97,134520,2,0,P|86:91|68:85,1,41.947499359932,10|0,1:2|2:2,0:0:0:0:
178,188,134751,5,2,2:2:0:0:
194,113,134866,1,2,2:2:0:0:
209,36,134982,6,0,P|231:29|252:23,1,41.947499359932,2|0,1:1|2:2,0:0:0:0:
308,109,135213,2,0,P|330:102|351:96,1,41.947499359932,10|8,2:2|2:2,0:0:0:0:
373,209,135443,2,0,P|395:202|416:196,1,41.947499359932,10|0,1:2|2:2,0:0:0:0:
472,282,135674,2,0,P|494:275|515:269,1,41.947499359932,2|0,2:2|2:2,0:0:0:0:
250,295,135905,5,2,1:2:0:0:
254,275,136020,1,0,3:3:0:0:
202,221,136136,5,10,2:2:0:0:
333,304,136251,1,8,2:2:0:0:
202,221,136366,6,0,P|178:229|147:239,1,41.947499359932,10|0,1:2|2:2,0:0:0:0:
333,304,136597,2,0,P|356:295|388:286,1,41.947499359932,2|2,2:2|2:2,0:0:0:0:
322,150,136828,6,0,B|290:86|354:54|322:-10,1,155.295001303288,2|2,1:1|3:3,0:0:0:0:
326,0,137174,1,0,3:3:0:0:
204,48,137289,6,0,P|224:42|244:36,1,41.947499359932,10|0,1:2|2:2,0:0:0:0:
164,154,137520,2,0,P|184:148|204:142,1,41.947499359932,2|0,2:2|2:2,0:0:0:0:
102,264,137751,2,0,P|81:258|61:252,1,41.947499359932,2|0,1:1|2:2,0:0:0:0:
308,323,137982,5,10,2:2:0:0:
332,255,138097,1,8,2:2:0:0:
218,256,138213,2,0,P|238:261|258:267,1,41.947499359932,10|0,1:2|2:2,0:0:0:0:
452,171,138443,5,2,2:2:0:0:
428,99,138559,1,2,2:2:0:0:
457,180,138674,6,0,P|451:200|447:227,1,41.947499359932,2|0,1:1|2:2,0:0:0:0:
352,134,138905,2,0,P|346:154|342:181,1,41.947499359932,2|0,3:3|3:3,0:0:0:0:
248,78,139136,2,0,P|242:98|238:125,1,41.947499359932,10|0,1:2|2:2,0:0:0:0:
143,32,139367,2,0,P|137:52|133:79,1,41.947499359932,2|0,2:2|2:2,0:0:0:0:
78,232,139597,5,2,1:2:0:0:
74,250,139713,1,0,3:3:0:0:
112,317,139828,5,10,2:2:0:0:
0,236,139943,1,8,2:2:0:0:
131,173,140059,2,0,P|152:168|175:161,1,41.947499359932,10|0,1:2|2:2,0:0:0:0:
413,92,140289,5,10,2:2:0:0:
259,137,140405,1,10,2:2:0:0:
349,24,140520,6,0,P|334:133|324:268,1,232.942501954931,6|0,1:1|3:3,0:0:0:0:
471,217,140982,2,0,P|446:210|427:202,1,41.947499359932,10|0,1:2|2:2,0:0:0:0:
336,334,141213,1,2,2:2:0:0:
401,282,141328,1,2,2:2:0:0:
330,340,141443,6,0,P|307:348|286:355,1,41.947499359932,2|0,1:1|2:2,0:0:0:0:
258,255,141674,2,0,P|235:263|214:270,1,41.947499359932,2|0,2:2|3:3,0:0:0:0:
186,178,141905,2,0,P|163:186|142:193,1,41.947499359932,10|0,1:2|2:2,0:0:0:0:
235,90,142136,1,2,2:2:0:0:
48,221,142366,6,0,P|57:180|69:123,1,83.8949987198639,2|2,1:1|3:2,0:0:0:0:
65,139,142713,1,0,3:3:0:0:
2,46,142828,2,0,P|18:41|43:31,1,41.947499359932,10|0,1:2|2:2,0:0:0:0:
262,49,143059,5,2,2:2:0:0:
286,121,143175,1,2,2:2:0:0:
257,40,143289,6,0,P|262:19|267:-7,1,41.947499359932,2|0,1:1|3:3,0:0:0:0:
342,65,143520,5,2,3:2:0:0:
199,108,143636,1,0,3:3:0:0:
354,61,143751,6,0,P|374:66|401:71,1,41.947499359932,10|0,1:2|2:2,0:0:0:0:
194,111,143982,2,0,P|173:105|147:101,1,41.947499359932,2|0,3:2|3:3,0:0:0:0:
320,160,144213,6,0,B|288:256|384:288|352:384,1,232.942501954931,2|0,1:1|3:3,0:0:0:0:
157,384,144674,6,0,P|175:380|197:371,1,41.947499359932,10|0,1:2|2:2,0:0:0:0:
97,277,144905,2,0,P|90:294|86:317,1,41.947499359932,2|0,2:3|2:2,0:0:0:0:
223,273,145136,2,0,P|212:258|194:242,1,41.947499359932,2|0,1:1|2:2,0:0:0:0:
80,107,145366,5,10,2:2:0:0:
126,204,145482,1,8,2:2:0:0:
75,101,145597,6,0,P|80:71|85:41,1,41.947499359932,10|0,1:2|2:2,0:0:0:0:
154,93,145828,5,2,2:2:0:0:
0,70,145943,1,2,2:2:0:0:
157,104,146059,6,0,P|180:95|213:87,1,41.947499359932,2|0,1:1|2:2,0:0:0:0:
343,44,146289,2,0,P|319:52|287:61,1,41.947499359932,2|0,3:2|3:3,0:0:0:0:
290,192,146520,2,0,P|283:172|277:152,1,41.947499359932,10|0,1:2|2:2,0:0:0:0:
229,16,146751,1,2,2:2:0:0:
225,0,146866,1,2,2:2:0:0:
280,141,146982,2,0,P|293:180|309:225,1,59.7974971714441,2|0,1:1|3:3,0:0:0:0:
191,354,147213,5,10,2:2:0:0:
312,384,147328,1,8,2:2:0:0:
342,261,147443,1,10,2:2:0:0:
221,231,147559,1,8,2:2:0:0:
268,314,147674,5,2,3:2:0:0:
263,311,147732,1,0,3:3:0:0:
264,305,147789,1,2,3:2:0:0:
271,304,147847,1,0,3:3:0:0:
272,310,147905,5,6,1:2:0:0:
156,108,148136,1,2,2:2:0:0:
86,235,148366,1,10,2:2:0:0:
277,97,148597,1,2,2:2:0:0:
272,310,148828,5,2,1:2:0:0:
156,108,149059,1,2,2:2:0:0:
86,235,149289,1,10,2:2:0:0:
277,97,149520,1,2,2:2:0:0:
233,254,149751,5,2,1:2:0:0:
236,238,149866,1,0,2:2:0:0:
293,174,149982,5,2,3:2:0:0:
296,190,150097,1,2,3:2:0:0:
140,139,150213,6,0,P|177:154|226:169,1,77.6475006516438,10|0,2:2|2:2,0:2:0:0:
383,296,150443,2,0,P|346:281|297:266,1,77.6475006516438,2|2,3:2|3:3,0:2:0:0:
233,254,150674,5,2,1:2:0:0:
236,238,150789,1,0,2:2:0:0:
293,174,150905,5,10,2:2:0:0:
334,302,151020,1,10,2:2:0:0:
212,165,151136,6,0,P|175:153|140:139,1,77.6475006516438,10|0,2:2|2:2,0:2:0:0:
396,358,151366,2,0,P|433:373|482:388,1,77.6475006516438,2|2,3:2|3:3,0:2:0:0:
201,229,151597,5,2,1:2:0:0:
197,213,151713,1,0,2:2:0:0:
343,143,151828,5,2,3:2:0:0:
347,159,151944,1,2,3:2:0:0:
120,132,152059,6,0,P|156:121|196:106,1,77.6475006516438,10|0,2:2|2:2,0:2:0:0:
411,223,152289,2,0,P|375:234|335:249,1,77.6475006516438,2|2,3:2|3:3,0:2:0:0:
201,229,152520,5,2,1:2:0:0:
197,213,152636,1,0,2:2:0:0:
343,143,152751,5,2,3:2:0:0:
347,159,152867,1,2,3:2:0:0:
120,132,152982,6,0,P|156:121|196:106,1,77.6475006516438,10|0,2:2|2:2,0:2:0:0:
411,223,153212,2,0,P|375:234|335:249,1,77.6475006516438,2|2,2:2|2:3,0:2:0:0:
233,354,153443,5,2,1:2:0:0:
235,337,153559,1,0,3:3:0:0:
247,261,153674,5,10,2:2:0:0:
261,185,153789,1,10,2:2:0:0:
275,108,153905,6,0,P|310:100|363:86,1,77.6475006516438,10|0,2:2|2:2,0:2:0:0:
166,287,154136,2,0,P|130:294|78:309,1,77.6475006516438,2|2,2:2|2:3,0:2:0:0:
233,354,154366,5,2,1:2:0:0:
235,337,154482,1,0,3:3:0:0:
322,233,154597,5,10,2:2:0:0:
198,133,154712,1,10,2:2:0:0:
275,108,154828,6,0,P|310:100|363:86,1,77.6475006516438,10|0,2:2|2:2,0:2:0:0:
166,287,155059,2,0,P|130:294|78:309,1,77.6475006516438,10|2,2:2|2:3,0:2:0:0:
256,192,155289,5,6,1:2:0:0:
61,113,155520,1,2,3:2:0:0:
100,45,155636,1,2,3:2:0:0:
166,84,155751,1,10,2:2:0:0:
134,154,155866,1,2,3:2:0:0:
128,142,155982,1,2,3:2:0:0:
256,192,156213,5,2,1:2:0:0:
451,113,156444,1,2,3:2:0:0:
412,45,156560,1,2,3:2:0:0:
346,84,156675,1,10,2:2:0:0:
378,154,156790,1,2,3:2:0:0:
384,142,156906,1,2,3:2:0:0:
256,192,157136,5,2,1:2:0:0:
451,271,157367,1,10,3:2:0:0:
412,339,157483,1,10,3:2:0:0:
346,300,157598,1,10,1:2:0:0:
378,230,157713,1,2,3:2:0:0:
384,242,157829,1,2,3:2:0:0:
260,172,158060,5,2,1:2:0:0:
256,186,158174,1,2,3:3:0:0:
185,231,158289,5,10,2:2:0:0:
331,148,158405,1,10,2:2:0:0:
214,115,158520,5,10,1:2:0:0:
297,261,158636,1,10,2:2:0:0:
170,240,158751,5,10,2:2:0:0:
341,143,158866,1,10,2:2:0:0:
162,246,158982,5,10,1:2:0:0:
256,192,159443,1,2,2:2:0:0:
256,192,159905,1,2,2:2:0:0:
256,192,160366,1,2,1:2:0:0:
256,192,160828,1,2,2:2:0:0:
256,192,161289,1,2,2:2:0:0:
182,292,161751,5,2,2:2:0:0:
335,64,161982,1,2,2:2:0:0:
144,101,162213,5,2,2:2:0:0:
372,254,162443,1,0,2:2:0:0:
448,96,162674,6,0,P|256:192|109:333,1,420.367501603575,6|0,1:1|2:2,0:0:0:0:
162,117,163136,6,0,P|187:114|208:127,1,50.8724993789978,10|0,2:2|2:2,0:0:0:0:
301,256,163366,2,0,P|322:268|347:266,1,50.8724993789978,2|0,2:2|2:2,0:0:0:0:
448,96,163597,6,0,P|256:192|109:333,1,420.367501603575,2|0,1:1|2:2,0:0:0:0:
162,117,164059,6,0,P|187:114|208:127,1,50.8724993789978,10|0,2:2|2:2,0:0:0:0:
301,256,164289,2,0,P|322:268|347:266,1,50.8724993789978,2|0,2:2|2:2,0:0:0:0:
319,384,164520,6,0,P|293:362|285:336,1,59.7974971714441,2|0,1:1|2:2,0:0:0:0:
168,372,164750,6,0,P|164:335|179:308,1,68.7224986367913,2|0,2:2|2:2,0:0:0:0:
69,259,164981,6,0,P|94:225|128:214,1,77.6475006516438,10|0,2:2|2:2,0:0:0:0:
75,108,165212,6,0,P|122:101|157:118,1,86.5725020475369,2|0,2:2|2:2,0:0:0:0:
185,4,165443,6,0,P|227:35|243:76,1,95.4974970856477,2|0,1:1|2:2,0:0:0:0:
340,11,165673,6,0,P|350:67|331:112,1,104.42250039834,2|0,2:2|2:2,0:0:0:0:
455,128,165904,6,0,P|420:181|370:201,1,113.347499135227,10|0,2:2|2:2,0:0:0:0:
255,191,166136,6,0,L|251:164,1,24.0975005883179,2|0,2:2|2:2,0:0:0:0:
464,255,166366,6,0,L|34:196,1,420.367501603575,2|0,1:1|2:2,0:0:0:0:
255,191,166828,6,0,L|251:164,1,24.0975005883179,10|0,2:2|2:2,0:0:0:0:
269,307,167059,2,0,L|272:334,1,24.0975005883179,2|0,2:2|2:2,0:0:0:0:
464,255,167289,6,0,L|34:196,1,420.367501603575,2|0,1:1|2:2,0:0:0:0:
255,191,167751,6,0,L|251:164,1,24.0975005883179,10|0,2:2|2:2,0:0:0:0:
269,307,167982,2,0,L|272:334,1,24.0975005883179,2|0,2:2|2:2,0:0:0:0:
464,255,168213,6,0,L|34:196,1,420.367501603575,2|0,1:1|2:2,0:0:0:0:
0,26,168674,2,0,P|15:85|58:91,1,104.42250039834,10|2,2:2|2:2,0:0:0:0:
238,29,168905,2,0,P|284:46|289:95,1,104.42250039834,2|0,2:2|2:2,0:0:0:0:
199,287,169136,6,0,P|172:272|172:231,1,52.2112501991701,2|0,1:1|2:2,0:0:0:0:
202,182,169251,1,8,2:2:0:0:
134,354,169366,6,0,P|184:362|247:380,1,104.42250039834,2|0,2:2|2:2,0:0:0:0:
384,333,169539,1,0,3:3:0:0:
378,326,169597,2,0,P|327:317|265:300,1,104.42250039834,10|0,2:2|2:2,0:0:0:0:
85,187,169828,5,2,2:2:0:0:
83,177,169886,1,2,2:2:0:0:
81,167,169943,1,2,2:2:0:0:
79,157,170001,1,2,2:2:0:0:
77,148,170059,2,0,B|107:108|176:98|221:163|221:163|266:228|336:218|364:179,1,340.042497405682,6|0,1:1|2:2,0:0:0:0:
376,54,170520,6,0,B|386:33|372:4|372:4|401:33|386:62,1,104.42250039834,10|0,2:2|2:2,0:0:0:0:
252,55,170751,6,0,P|277:49|303:39,1,52.2112501991701,2|0,2:2|2:2,0:0:0:0:
302,121,170866,1,0,2:2:0:0:
77,148,170982,6,0,B|107:108|176:98|221:163|221:163|266:228|336:218|364:179,1,340.042497405682,2|0,1:1|2:2,0:0:0:0:
142,252,171443,6,0,B|131:272|145:301|145:301|116:272|131:243,1,104.42250039834,10|0,2:2|2:2,0:0:0:0:
268,285,171674,6,0,P|243:279|217:269,1,52.2112501991701,2|0,2:2|2:2,0:0:0:0:
218,351,171789,1,0,2:2:0:0:
448,250,171906,6,0,P|426:224|400:216,1,59.7974971714441,2|0,1:1|2:2,0:0:0:0:
436,99,172136,6,0,P|399:95|372:110,1,68.7224986367913,2|0,2:2|2:2,0:0:0:0:
323,0,172367,6,0,P|289:25|278:59,1,77.6475006516438,10|0,2:2|2:2,0:0:0:0:
172,6,172598,6,0,P|165:53|182:88,1,86.5725020475369,2|0,2:2|2:2,0:0:0:0:
68,116,172829,6,0,P|99:158|140:174,1,95.4974970856477,2|0,1:1|2:2,0:0:0:0:
75,271,173059,6,0,P|131:281|176:262,1,104.42250039834,2|0,2:2|2:2,0:0:0:0:
201,384,173290,6,0,P|254:349|274:299,1,113.347499135227,10|0,2:2|2:2,0:0:0:0:
256,192,173520,6,0,L|259:169,1,22.7587501389084,2|0,2:2|2:2,0:0:0:0:
337,239,173751,6,0,L|0:197,1,340.042497405682,2|0,1:1|2:2,0:0:0:0:
256,192,174213,6,0,L|259:169,1,22.7587501389084,10|0,2:2|2:2,0:0:0:0:
180,180,174444,2,0,L|176:202,1,22.7587501389084,2|0,2:2|2:2,0:0:0:0:
337,239,174674,6,0,L|0:197,1,340.042497405682,2|0,1:1|2:2,0:0:0:0:
58,29,175136,2,0,L|185:44,1,113.347499135227,10|0,2:2|2:2,0:0:0:0:
205,112,175309,1,0,3:3:0:0:
199,121,175366,2,0,L|86:107,1,113.347499135227,2|0,2:2|2:2,0:0:0:0:
422,0,175597,6,0,P|383:170|375:367,1,393.592481682479,2|0,1:1|2:2,0:0:0:0:
242,201,176059,2,0,B|158:173|131:256|47:228,1,196.796240841239,10|0,2:2|2:2,0:0:0:0:
15,159,176289,2,0,P|47:158|79:150,1,65.5987469470798,2|0,3:2|2:2,0:0:0:0:
234,291,176405,1,8,2:2:0:0:
221,303,176463,1,8,2:2:0:0:
214,284,176520,2,0,P|225:252|245:215,1,65.5987469470798,10|0,2:2|2:2,0:0:0:0:
314,77,176636,2,0,P|299:106|287:137,1,65.5987469470798,8|0,2:2|2:2,0:0:0:0:
359,161,176751,2,0,P|279:187|163:222,1,196.796240841239,2|0,3:2|2:2,0:0:0:0:
139,290,176982,6,0,P|132:324|124:362,1,70.0612502672625,10|0,2:2|2:2,0:0:0:0:
88,226,177097,2,0,P|53:219|16:211,1,74.5237476688586,8|0,2:2|2:2,0:0:0:0:
135,98,177213,6,0,P|143:63|154:14,1,78.9862525611235,10|0,2:2|2:2,0:0:0:0:
182,163,177328,2,0,P|216:171|263:186,1,83.4487483446751,8|0,2:2|2:2,0:0:0:0:
26,137,177443,6,0,P|256:192|477:277,1,473.917515366741,6|0,1:2|2:2,0:0:0:0:
273,272,177905,5,10,2:2:0:0:
240,111,178020,1,0,2:2:0:0:
312,131,178136,6,0,L|357:123,1,34.3612493183956,2|0,3:2|2:2,0:0:0:0:
198,258,178251,2,0,L|152:265,1,34.3612493183956,0|0,3:3|2:2,0:0:0:0:
26,137,178366,6,0,P|256:192|477:277,1,473.917515366741,2|0,1:1|2:2,0:0:0:0:
273,272,178828,5,10,2:2:0:0:
240,111,178943,1,0,2:2:0:0:
312,131,179059,6,0,L|357:123,1,34.3612493183956,2|0,3:2|2:2,0:0:0:0:
198,258,179174,2,0,L|152:265,1,34.3612493183956,0|0,3:3|2:2,0:0:0:0:
273,272,179289,6,0,P|312:308|374:301,1,113.347499135227,2|0,1:1|2:2,0:0:0:0:
166,128,179520,6,0,P|106:121|54:168,1,131.19749389416,2|0,2:2|2:2,0:0:0:0:
336,183,179751,6,0,P|393:150|409:74,1,149.047495337717,10|0,2:2|2:2,0:0:0:0:
166,238,179982,6,0,P|134:306|171:386,1,166.89749668935,2|0,2:2|2:2,0:0:0:0:
272,94,180213,6,0,P|256:11|161:-8,1,184.747505144717,2|0,1:1|2:2,0:0:0:0:
351,318,180443,6,0,L|382:325,1,24.0975005883179,2|0,3:3|2:2,0:0:0:0:
89,196,180674,6,0,L|65:218,1,24.0975005883179,10|0,3:2|2:2,0:0:0:0:
327,30,180905,6,0,L|320:-1,1,24.0975005883179,2|0,2:3|2:2,0:0:0:0:
26,137,181136,6,0,P|256:192|477:277,1,473.917515366741,6|0,1:1|2:2,0:0:0:0:
273,272,181598,5,10,2:2:0:0:
240,111,181713,1,0,2:2:0:0:
312,131,181829,6,0,L|357:123,1,34.3612493183956,2|0,3:2|2:2,0:0:0:0:
198,258,181944,2,0,L|152:265,1,34.3612493183956,0|0,3:3|2:2,0:0:0:0:
26,137,182059,6,0,P|256:192|477:277,1,473.917515366741,2|0,1:1|2:2,0:0:0:0:
273,272,182521,5,10,2:2:0:0:
240,111,182636,1,0,2:2:0:0:
312,131,182752,6,0,L|357:123,1,34.3612493183956,2|0,3:2|2:2,0:0:0:0:
198,258,182867,2,0,L|152:265,1,34.3612493183956,0|0,3:3|2:2,0:0:0:0:
273,272,182982,6,0,P|312:308|374:301,1,113.347499135227,2|0,1:3|2:2,0:0:0:0:
166,128,183213,6,0,P|106:121|54:168,1,131.19749389416,2|0,2:2|2:2,0:0:0:0:
336,183,183444,6,0,P|393:150|409:74,1,149.047495337717,10|0,2:2|2:2,0:0:0:0:
166,238,183675,6,0,P|134:306|171:386,1,166.89749668935,2|0,2:2|2:2,0:0:0:0:
272,94,183906,6,0,P|256:11|161:-8,1,184.747505144717,2|8,1:2|2:2,0:0:0:0:
351,318,184136,6,0,L|382:325,1,24.0975005883179,2|0,2:3|2:2,0:0:0:0:
89,196,184367,6,0,L|65:218,1,24.0975005883179,2|0,1:3|2:2,0:0:0:0:
327,30,184598,6,0,L|320:-1,1,24.0975005883179,2|0,2:3|2:2,0:0:0:0:
5,59,184828,6,0,P|264:182|485:342,1,554.242515434152,14|0,1:2|2:2,0:0:0:0:
183,384,185289,2,0,B|198:341|227:328|243:287,1,113.347499135227,10|0,1:2|2:2,0:0:0:0:
491,171,185520,2,0,B|443:180|414:160|367:170,1,113.347499135227,2|0,2:2|2:2,0:0:0:0:
114,0,185751,2,0,B|153:42|152:84|191:126,1,131.19749389416,10|0,1:2|3:3,0:0:0:0:
273,193,185924,1,0,3:3:0:0:
273,193,185982,1,2,3:2:0:0:
317,97,186097,2,0,P|270:89|233:60,1,70.0612502672625,0|0,2:2|2:2,0:0:0:0:
10,277,186213,2,0,B|64:271|75:209|175:207,1,149.047495337717,10|0,1:2|2:2,0:0:0:0:
187,271,186386,1,0,3:3:0:0:
170,274,186443,2,0,P|57:240|-15:206,1,157.972505122247,2|0,2:2|2:2,0:0:0:0:
377,15,186674,2,0,P|309:186|273:367,1,369.495010289435,10|2,1:2|3:3,0:0:0:0:
289,368,186963,1,0,3:3:0:0:
293,361,187020,2,0,B|288:330|276:323|272:273,1,78.9862525611235,0|0,3:3|2:2,0:0:0:0:
69,39,187136,2,0,P|171:60|302:143,1,236.95875768337,10|0,1:2|2:2,0:0:0:0:
278,208,187366,2,0,P|378:269|494:296,1,236.95875768337,2|0,2:2|2:2,0:0:0:0:
395,148,187597,2,0,B|299:158|241:206|128:224,1,236.95875768337,10|0,1:2|2:2,0:0:0:0:
351,318,187828,6,0,L|382:325,1,24.0975005883179,2|0,2:2|2:2,0:0:0:0:
89,196,188059,6,0,L|65:218,1,24.0975005883179,10|0,1:2|2:2,0:0:0:0:
327,30,188290,6,0,L|320:-1,1,24.0975005883179,2|0,2:2|2:2,0:0:0:0:
5,59,188520,6,0,P|264:182|485:342,1,554.242515434152,10|0,1:2|2:2,0:0:0:0:
429,232,188924,1,0,3:3:0:0:
415,236,188982,2,0,P|350:285|321:288,1,78.9862525611235,10|0,1:2|2:2,0:0:0:0:
89,360,189097,2,0,P|154:310|183:307,1,78.9862525611235,0|0,2:2|2:2,0:0:0:0:
260,343,189213,1,2,3:2:0:0:
253,327,189270,1,0,3:3:0:0:
270,332,189328,1,0,3:3:0:0:
226,182,189443,2,0,B|214:119|267:67|264:9,1,157.972505122247,10|0,1:2|3:3,0:0:0:0:
264,10,189616,1,0,3:3:0:0:
264,10,189674,1,2,3:3:0:0:
105,228,189789,1,0,2:2:0:0:
449,339,189905,2,0,P|378:283|286:206,1,157.972505122247,10|0,1:2|2:2,0:0:0:0:
0,106,190136,2,0,P|87:74|205:35,1,157.972505122247,2|0,2:2|2:2,0:0:0:0:
476,133,190366,1,10,1:2:0:0:
442,148,190424,1,8,2:2:0:0:
408,163,190482,2,0,P|240:238|61:326,1,315.945010244494,8|0,2:2|2:2,0:0:0:0:
37,130,190828,1,10,1:2:0:0:
71,145,190886,1,8,2:2:0:0:
105,160,190944,2,0,P|273:235|452:323,1,315.945010244494,8|2,2:2|2:2,0:0:0:0:
43,236,191289,2,0,P|21:137|-4:45,1,157.972505122247,10|0,1:2|2:2,0:0:0:0:
469,236,191520,2,0,P|490:137|516:45,1,157.972505122247,2|0,2:2|2:2,0:0:0:0:
134,294,191751,2,0,P|87:310|37:336,1,78.9862525611235,10|0,1:2|2:2,0:0:0:0:
378,294,191866,2,0,P|424:310|475:336,1,78.9862525611235,8|0,2:2|2:2,0:0:0:0:
255,172,191982,1,10,2:2:0:0:
255,135,192039,1,8,2:2:0:0:
255,97,192097,1,8,2:2:0:0:
254,59,192155,1,8,2:2:0:0:
254,21,192213,1,6,1:1:0:0:
256,186,192674,5,10,1:2:0:0:
256,186,193136,5,2,1:2:0:0:
256,186,193597,5,10,1:2:0:0:
256,186,194059,5,2,1:2:0:0:
256,186,194520,5,10,1:2:0:0:
256,186,194982,5,2,1:2:0:0:
256,186,195443,5,10,1:2:0:0:
256,186,195905,5,2,1:2:0:0:
256,186,196366,5,10,1:2:0:0:
256,186,196828,5,2,1:2:0:0:
256,186,197289,5,10,1:2:0:0:
256,186,197751,5,2,1:2:0:0:
256,186,198213,5,10,1:2:0:0:
256,186,198674,5,2,1:2:0:0:
256,186,199136,5,10,1:2:0:0:
256,186,199597,5,6,1:2:0:0:
256,186,200059,5,10,1:2:0:0:
256,186,200520,5,2,1:2:0:0:
256,186,200982,5,10,1:2:0:0:
256,186,201443,5,2,1:2:0:0:
256,186,201905,5,10,1:2:0:0:
256,186,202366,5,2,1:2:0:0:
256,186,202828,5,10,1:2:0:0:
256,186,203289,5,2,1:2:0:0:
256,186,203751,5,10,1:2:0:0:
256,186,204213,5,2,1:2:0:0:
256,186,204674,5,10,1:2:0:0:
256,186,205136,5,2,1:2:0:0:
256,186,205597,5,10,1:2:0:0:
256,186,206059,5,2,1:2:0:0:
346,237,206289,6,0,L|418:281,1,68.7224986367913,10|2,2:2|2:2,0:0:0:0:
167,238,206520,6,0,L|95:275,1,68.7224986367913,10|2,2:2|2:2,0:0:0:0:
260,86,206751,6,0,L|268:1,1,68.7224986367913,10|2,2:2|2:3,0:0:0:0:
