osu file format v14

[General]
AudioFilename: audio.mp3
AudioLeadIn: 0
PreviewTime: 161636
Countdown: 0
SampleSet: Soft
StackLeniency: 0.7
Mode: 0
LetterboxInBreaks: 0
EpilepsyWarning: 1
WidescreenStoryboard: 1

[Editor]
Bookmarks: 14982,22213,29751,44520,59289,74059,88828,103597,133136,147905,162674,192213
DistanceSpacing: 0.2
BeatDivisor: 16
GridSize: 32
TimelineZoom: 1.600001

[Metadata]
Title:world.execute(me);
TitleUnicode:world.execute(me);
Artist:Mili
ArtistUnicode:Mili
Creator:SMOKELIND
Version:world.decode(frozz);
Source:
Tags:momocashew cassie wei projectmili yamato kasai hamo Yukihito Mitomo Shoto Yoshida Ame Yamaguchi project Piano Electronic Rock English Miracle Milk FA Featured Artist Mappers' Guild Iceluin Hinsvar Nymphe Kiyoshi Guarden frozz -Keqing Visionary Himada
BeatmapID:4002018
BeatmapSetID:1928286

[Difficulty]
HPDrainRate:5
CircleSize:4.2
OverallDifficulty:8.5
ApproachRate:9.2
SliderMultiplier:2.72
SliderTickRate:1

[Events]
//Background and Video events
0,0,"BG.jpg",0,0
//Break Periods
//Storyboard Layer 0 (Background)
//Storyboard Layer 1 (Fail)
//Storyboard Layer 2 (Pass)
//Storyboard Layer 3 (Foreground)
//Storyboard Layer 4 (Overlay)
//Storyboard Sound Samples

[TimingPoints]
213,461.538461538462,4,2,77,47,1,0
213,-142.857142857143,4,2,77,47,0,0
14982,-83.3333333333333,4,2,77,77,0,0
15385,-83.3333333333333,4,2,77,5,0,0
15443,-83.3333333333333,4,2,77,77,0,0
16366,-62.5,4,2,77,77,0,0
16539,-62.5,4,2,77,5,0,0
16597,-62.5,4,2,77,77,0,0
16770,-62.5,4,2,77,5,0,0
16828,-83.3333333333333,4,2,77,77,0,0
17001,-83.3333333333333,4,2,77,5,0,0
17059,-83.3333333333333,4,2,77,77,0,0
17751,-62.5,4,2,77,77,0,0
18213,-83.3333333333333,4,2,77,77,0,0
18386,-83.3333333333333,4,2,77,5,0,0
18443,-83.3333333333333,4,2,77,77,0,0
18616,-83.3333333333333,4,2,77,5,0,0
18674,-62.5,4,2,77,77,0,0
18847,-62.5,4,2,77,5,0,0
18905,-125,4,2,77,77,0,0
19136,-62.5,4,2,77,77,0,0
19309,-62.5,4,2,77,5,0,0
19366,-125,4,2,77,77,0,0
19597,-83.3333333333333,4,2,77,77,0,0
20059,-62.5,4,2,77,77,0,0
20232,-62.5,4,2,77,5,0,0
20289,-62.5,4,2,77,77,0,0
20462,-62.5,4,2,77,5,0,0
20520,-62.5,4,2,77,77,0,0
21213,-83.3333333333333,4,2,77,77,0,0
21559,-62.5,4,2,77,77,0,0
21905,-83.3333333333333,4,2,77,77,0,0
22213,-166.666666666667,4,2,77,77,0,0
22366,-83.3333333333333,4,2,77,77,0,0
23136,-166.666666666667,4,2,77,77,0,0
23289,-62.5,4,2,77,77,0,0
23462,-62.5,4,2,77,5,0,0
23520,-125,4,2,77,77,0,0
23751,-62.5,4,2,77,77,0,0
23924,-62.5,4,2,77,5,0,0
23982,-125,4,2,77,77,0,0
24213,-62.5,4,2,77,77,0,0
24905,-83.3333333333333,4,2,77,77,0,0
25597,-62.5,4,2,77,77,0,0
25770,-62.5,4,2,77,5,0,0
25828,-62.5,4,2,77,77,0,0
26001,-62.5,4,2,77,5,0,0
26059,-83.3333333333333,4,2,77,77,0,0
26520,-62.5,4,2,77,77,0,0
26828,-100,4,2,77,77,0,0
26982,-83.3333333333333,4,2,77,77,0,0
27289,-125,4,2,77,77,0,0
27443,-83.3333333333333,4,2,77,77,0,0
27616,-83.3333333333333,4,2,77,5,0,0
27674,-83.3333333333333,4,2,77,77,0,0
27751,-125,4,2,77,77,0,0
27905,-83.3333333333333,4,2,77,77,0,0
28366,-62.5,4,2,77,77,0,0
28674,-125,4,2,77,77,0,0
28828,-62.5,4,2,77,77,0,0
29289,-125,4,2,77,77,0,0
29751,-166.666666666667,4,2,77,47,0,0
44520,-125,4,2,77,57,0,0
45674,-76.9230769230769,4,2,77,57,0,0
46366,-111.111111111111,4,2,77,57,0,0
46597,-222.222222222222,4,2,77,57,0,0
47289,-111.111111111111,4,2,77,57,0,0
48213,-125,4,2,77,57,0,0
49366,-76.9230769230769,4,2,77,57,0,0
50059,-111.111111111111,4,2,77,57,0,0
50289,-222.222222222222,4,2,77,57,0,0
50982,-111.111111111111,4,2,77,57,0,0
51905,-125,4,2,77,57,0,0
53059,-76.9230769230769,4,2,77,57,0,0
53751,-111.111111111111,4,2,77,57,0,0
53982,-222.222222222222,4,2,77,57,0,0
54443,-111.111111111111,4,2,77,57,0,0
54674,-222.222222222222,4,2,77,57,0,0
55597,-125,4,2,77,57,0,0
56751,-76.9230769230769,4,2,77,57,0,0
57674,-111.111111111111,4,2,77,57,0,0
57847,-111.111111111111,4,2,77,5,0,0
57905,-62.5,4,2,77,57,0,0
58078,-62.5,4,2,77,5,0,0
58136,-62.5,4,2,77,57,0,0
58366,-111.111111111111,4,2,77,57,0,0
58539,-111.111111111111,4,2,77,5,0,0
58597,-62.5,4,2,77,57,0,0
58770,-62.5,4,2,77,5,0,0
58828,-1000,4,2,77,57,0,0
59289,-55.5555555555556,4,2,77,87,0,0
59751,-111.111111111111,4,2,77,87,0,0
60213,-55.5555555555556,4,2,77,87,0,0
60674,-111.111111111111,4,2,77,87,0,0
61136,-55.5555555555556,4,2,77,87,0,0
61309,-55.5555555555556,4,2,77,5,0,0
61366,-125,4,2,77,87,0,0
61597,-55.5555555555556,4,2,77,87,0,0
61770,-55.5555555555556,4,2,77,5,0,0
61828,-125,4,2,77,87,0,0
62059,-55.5555555555556,4,2,77,87,0,0
62232,-55.5555555555556,4,2,77,5,0,0
62289,-55.5555555555556,4,2,77,87,0,0
62462,-55.5555555555556,4,2,77,5,0,0
62520,-83.3333333333333,4,2,77,87,0,0
62982,-62.5,4,2,77,87,0,0
63443,-125,4,2,77,87,0,0
63905,-62.5,4,2,77,87,0,0
64366,-125,4,2,77,87,0,0
64828,-62.5,4,2,77,87,0,0
65520,-90.9090909090909,4,2,77,87,0,0
66674,-62.5,4,2,77,87,0,0
67597,-55.5555555555556,4,2,77,87,0,0
67770,-55.5555555555556,4,2,77,5,0,0
67828,-125,4,2,77,87,0,0
68059,-55.5555555555556,4,2,77,87,0,0
68232,-55.5555555555556,4,2,77,5,0,0
68289,-125,4,2,77,87,0,0
68520,-50,4,2,77,87,0,0
69213,-62.5,4,2,77,87,0,0
69386,-62.5,4,2,77,5,0,0
69443,-50,4,2,77,87,0,0
69616,-50,4,2,77,5,0,0
69674,-71.4285714285714,4,2,77,87,0,0
70366,-62.5,4,2,77,87,0,0
70828,-125,4,2,77,87,0,0
71289,-62.5,4,2,77,87,0,0
71751,-125,4,2,77,87,0,0
72213,-55.5555555555556,4,2,77,87,0,0
72443,-125,4,2,77,87,0,0
72674,-55.5555555555556,4,2,77,87,0,0
72905,-125,4,2,77,87,0,0
73136,-83.3333333333333,4,2,77,87,0,0
74059,-125,4,2,77,87,0,0
74289,-125,4,2,77,47,0,0
75905,-62.5,4,2,77,47,0,0
77232,-62.5,4,2,77,5,0,0
77289,-125,4,2,77,47,0,0
77751,-111.111111111111,4,2,77,67,0,0
77924,-111.111111111111,4,2,77,5,0,0
77982,-111.111111111111,4,2,77,67,0,0
78270,-111.111111111111,4,2,77,5,0,0
78328,-111.111111111111,4,2,77,67,0,0
78443,-62.5,4,2,77,67,0,0
78789,-62.5,4,2,77,47,0,0
88828,-500,4,2,77,47,0,0
90905,-125,4,2,77,47,0,0
91828,-500,4,2,77,47,0,0
94366,-125,4,2,77,47,0,0
97366,-100,4,2,77,47,0,0
103136,-200,4,2,77,47,0,0
103597,-71.4285714285714,4,2,77,57,0,0
104059,-125,4,2,77,57,0,0
104520,-71.4285714285714,4,2,77,57,0,0
104982,-125,4,2,77,57,0,0
105443,-71.4285714285714,4,2,77,57,0,0
106366,-55.5555555555556,4,2,77,57,0,0
106539,-55.5555555555556,4,2,77,5,0,0
106597,-166.666666666667,4,2,77,57,0,0
107289,-71.4285714285714,4,2,77,57,0,0
107751,-125,4,2,77,57,0,0
108213,-71.4285714285714,4,2,77,57,0,0
108674,-125,4,2,77,57,0,0
109136,-71.4285714285714,4,2,77,57,0,0
110289,-125,4,2,77,57,0,0
110982,-71.4285714285714,4,2,77,57,0,0
111443,-125,4,2,77,57,0,0
111905,-83.3333333333333,4,2,77,57,0,0
112366,-142.857142857143,4,2,77,57,0,0
112828,-100,4,2,77,57,0,0
113289,-166.666666666667,4,2,77,57,0,0
113751,-100,4,2,77,57,0,0
114213,-200,4,2,77,57,0,0
114674,-83.3333333333333,4,2,77,57,0,0
115136,-250.000000000001,4,2,77,57,0,0
115597,-250,4,2,77,57,0,0
116059,-333.333333333333,4,2,77,57,0,0
116520,-200,4,2,77,57,0,0
116577,-200,4,2,77,5,0,0
116636,-200,4,2,77,57,0,0
116693,-200,4,2,77,5,0,0
116751,-200,4,2,77,57,0,0
116808,-200,4,2,77,5,0,0
116866,-200,4,2,77,57,0,0
116982,-83.3333333333333,4,2,77,57,0,0
117155,-83.3333333333333,4,2,77,5,0,0
117213,-166.666666666667,4,2,77,57,0,0
117443,-66.6666666666667,4,2,77,57,0,0
117616,-66.6666666666667,4,2,77,5,0,0
117674,-125,4,2,77,57,0,0
117905,-55.5555555555556,4,2,77,57,0,0
118078,-55.5555555555556,4,2,77,5,0,0
118136,-100,4,2,77,57,0,0
118366,-71.4285714285714,4,2,77,57,0,0
118828,-125,4,2,77,57,0,0
119289,-71.4285714285714,4,2,77,57,0,0
119751,-125,4,2,77,57,0,0
120213,-71.4285714285714,4,2,77,57,0,0
121136,-55.5555555555556,4,2,77,57,0,0
121309,-55.5555555555556,4,2,77,5,0,0
121366,-166.666666666667,4,2,77,57,0,0
122059,-71.4285714285714,4,2,77,57,0,0
122520,-125,4,2,77,57,0,0
122982,-71.4285714285714,4,2,77,57,0,0
123443,-125,4,2,77,57,0,0
123905,-71.4285714285714,4,2,77,57,0,0
125059,-125,4,2,77,57,0,0
125751,-71.4285714285714,4,2,77,57,0,0
126213,-83.3333333333333,4,2,77,57,0,0
128232,-83.3333333333333,4,2,77,5,0,0
128289,-83.3333333333333,4,2,77,57,0,0
128462,-83.3333333333333,4,2,77,5,0,0
128520,-83.3333333333333,4,2,77,57,0,0
128924,-83.3333333333333,4,2,77,5,0,0
128982,-125,4,2,77,57,0,0
129443,-83.3333333333333,4,2,77,57,0,0
130078,-83.3333333333333,4,2,77,5,0,0
130136,-83.3333333333333,4,2,77,57,0,0
130309,-83.3333333333333,4,2,77,5,0,0
130366,-83.3333333333333,4,2,77,57,0,0
130828,-76.9230769230769,4,2,77,57,0,0
131520,-111.111111111111,4,2,77,57,0,0
131751,-71.4285714285714,4,2,77,57,0,0
132213,-52.6315789473684,4,2,77,57,0,0
132674,-76.9230769230769,4,2,77,57,0,0
133136,-166.666666666667,4,2,77,67,0,0
140520,-125,4,2,77,67,0,0
147905,-10,4,2,77,67,0,1
159443,-10,4,2,77,27,0,1
162674,-55.5555555555556,4,2,77,87,0,0
163136,-111.111111111111,4,2,77,87,0,0
163597,-55.5555555555556,4,2,77,87,0,0
164059,-111.111111111111,4,2,77,87,0,0
164520,-55.5555555555556,4,2,77,87,0,0
164693,-55.5555555555556,4,2,77,5,0,0
164751,-125,4,2,77,87,0,0
164982,-55.5555555555556,4,2,77,87,0,0
165155,-55.5555555555556,4,2,77,5,0,0
165213,-125,4,2,77,87,0,0
165443,-55.5555555555556,4,2,77,87,0,0
165616,-55.5555555555556,4,2,77,5,0,0
165674,-55.5555555555556,4,2,77,87,0,0
165847,-55.5555555555556,4,2,77,5,0,0
165905,-83.3333333333333,4,2,77,87,0,0
166366,-62.5,4,2,77,87,0,0
166828,-125,4,2,77,87,0,0
167289,-62.5,4,2,77,87,0,0
167751,-125,4,2,77,87,0,0
168213,-62.5,4,2,77,87,0,0
168905,-90.9090909090909,4,2,77,87,0,0
170059,-62.5,4,2,77,87,0,0
170520,-125,4,2,77,87,0,0
170982,-71.4285714285714,4,2,77,87,0,0
171443,-125,4,2,77,87,0,0
171905,-55.5555555555556,4,2,77,87,0,0
172078,-55.5555555555556,4,2,77,5,0,0
172136,-100,4,2,77,87,0,0
172366,-55.5555555555556,4,2,77,87,0,0
172539,-55.5555555555556,4,2,77,5,0,0
172597,-100,4,2,77,87,0,0
172828,-55.5555555555556,4,2,77,87,0,0
173001,-55.5555555555556,4,2,77,5,0,0
173059,-71.4285714285714,4,2,77,87,0,0
173751,-62.5,4,2,77,87,0,0
174213,-125,4,2,77,87,0,0
174674,-62.5,4,2,77,87,0,0
175136,-125,4,2,77,87,0,0
175597,-62.5,4,2,77,87,0,0
176751,-50,4,2,77,87,0,0
176924,-50,4,2,77,5,0,0
176982,-50,4,2,77,87,0,0
177443,-55.5555555555556,4,2,77,87,0,0
177905,-71.4285714285714,4,2,77,87,0,0
178366,-55.5555555555556,4,2,77,87,0,0
178828,-71.4285714285714,4,2,77,87,0,0
179289,-41.6666666666667,4,2,77,87,0,0
179462,-41.6666666666667,4,2,77,5,0,0
179520,-71.4285714285714,4,2,77,87,0,0
179751,-41.6666666666667,4,2,77,87,0,0
179924,-41.6666666666667,4,2,77,5,0,0
179982,-71.4285714285714,4,2,77,87,0,0
180213,-38.4615384615385,4,2,77,87,0,0
180386,-38.4615384615385,4,2,77,5,0,0
180443,-333.333333333333,4,2,77,87,0,0
181136,-50,4,2,77,87,0,0
181597,-71.4285714285714,4,2,77,87,0,0
182059,-50,4,2,77,87,0,0
182520,-71.4285714285714,4,2,77,87,0,0
182982,-50,4,2,77,87,0,0
183674,-71.4285714285714,4,2,77,87,0,0
184136,-200,4,2,77,87,0,0
184828,-62.5,4,2,77,87,0,0
185289,-83.3333333333333,4,2,77,87,0,0
185751,-62.5,4,2,77,87,0,0
185924,-38.4615384615385,4,2,77,5,0,0
185982,-62.5,4,2,77,87,0,0
186155,-62.5,4,2,77,5,0,0
186213,-50,4,2,77,87,0,0
186386,-50,4,2,77,5,0,0
186443,-50,4,2,77,87,0,0
186616,-50,4,2,77,5,0,0
186674,-50,4,2,77,87,0,0
187136,-62.5,4,2,77,87,0,0
187828,-333.333333333333,4,2,77,87,0,0
188520,-50,4,2,77,87,0,0
188982,-83.3333333333333,4,2,77,87,0,0
189443,-50,4,2,77,87,0,0
189905,-83.3333333333333,4,2,77,87,0,0
190366,-50,4,2,77,87,0,0
192673,-50,4,2,77,57,0,0
206288,-50,4,2,77,77,0,0

[Colours]
Combo1 : 255,121,188
Combo2 : 121,255,168

[HitObjects]
492,153,213,6,0,P|421:165|376:235,1,142.79999564209,2|0,1:0|0:0,0:0:0:0:
291,199,674,2,0,P|277:146|259:101,1,95.1999970947266,0|0,1:0|0:0,0:0:0:0:
354,119,1020,1,0,0:0:0:0:
203,181,1136,5,2,1:0:0:0:
203,181,1251,2,0,P|153:168|95:160,1,95.1999970947266
262,108,1597,1,0,1:0:0:0:
148,255,1828,5,0,0:0:0:0:
148,255,1943,1,0,0:0:0:0:
148,255,2059,2,0,P|162:300|171:355,1,95.1999970947266,2|0,1:0|0:0,0:0:0:0:
392,294,2520,2,0,P|378:249|369:194,1,95.1999970947266,0|0,1:0|0:0,0:0:0:0:
271,272,2982,1,2,1:0:0:0:
414,376,3213,6,0,B|466:370|445:347|503:342,2,95.1999970947266,0|0|0,0:0|1:0|0:0,0:0:0:0:
271,272,3905,6,0,P|294:163|304:120,1,142.79999564209,2|0,1:0|0:0,0:0:0:0:
322,45,4366,2,0,P|259:62|212:68,1,95.1999970947266,0|0,1:0|0:0,0:0:0:0:
213,143,4713,1,0,0:0:0:0:
382,104,4828,5,2,1:0:0:0:
382,104,4943,2,0,P|445:87|492:81,1,95.1999970947266
410,14,5289,1,0,1:0:0:0:
352,210,5520,5,0,0:0:0:0:
352,210,5636,1,0,0:0:0:0:
352,210,5751,2,0,P|289:225|249:240,1,95.1999970947266,2|0,1:0|0:0,0:0:0:0:
117,165,6213,2,0,P|102:102|87:62,1,95.1999970947266,0|0,1:0|0:0,0:0:0:0:
235,128,6674,5,2,1:0:0:0:
146,288,6905,1,0,0:0:0:0:
241,132,7136,1,0,1:0:0:0:
139,283,7367,1,0,0:0:0:0:
12,139,7597,6,0,P|74:139|120:215,1,142.79999564209,2|0,1:0|0:0,0:0:0:0:
205,219,8059,2,0,P|221:170|243:129,1,95.1999970947266,0|0,1:0|0:0,0:0:0:0:
139,283,8405,1,0,0:0:0:0:
296,213,8520,5,2,1:0:0:0:
296,213,8636,2,0,P|343:228|389:246,1,95.1999970947266
256,291,8982,1,0,1:0:0:0:
373,149,9213,5,0,0:0:0:0:
373,149,9328,1,0,0:0:0:0:
373,149,9443,2,0,P|360:88|353:44,1,95.1999970947266,2|0,1:0|0:0,0:0:0:0:
136,86,9905,2,0,P|149:147|156:191,1,95.1999970947266,0|0,1:0|0:0,0:0:0:0:
265,115,10366,1,2,1:0:0:0:
115,7,10597,6,0,B|63:13|84:36|26:41,2,95.1999970947266,0|0|0,0:0|1:0|0:0,0:0:0:0:
265,115,11289,6,0,P|249:177|222:289,1,142.79999564209,2|0,1:0|0:0,0:0:0:0:
143,312,11751,2,0,P|79:296|31:290,1,95.1999970947266,0|0,1:0|0:0,0:0:0:0:
150,229,12097,1,0,0:0:0:0:
232,349,12213,5,2,1:0:0:0:
232,349,12328,2,0,P|292:336|345:332,1,95.1999970947266
230,253,12674,1,0,1:0:0:0:
411,376,12905,5,0,0:0:0:0:
411,376,13020,1,0,0:0:0:0:
411,376,13136,2,0,P|420:318|432:268,1,95.1999970947266,2|0,1:0|0:0,0:0:0:0:
322,142,13597,2,0,P|264:133|214:121,1,95.1999970947266,0|0,1:0|0:0,0:0:0:0:
323,244,14059,5,0,0:0:0:0:
336,237,14289,1,0,0:0:0:0:
326,234,14520,1,0,0:0:0:0:
333,247,14750,1,0,0:0:0:0:
509,72,14982,6,0,P|399:93|204:129,1,285.59999128418,6|0,1:0|2:0,0:0:0:0:
213,122,15443,2,0,P|189:72|202:37,1,81.5999975097657,10|2,0:0|0:0,0:0:0:0:
376,141,15674,1,2,0:0:0:0:
214,227,15789,5,0,0:0:0:0:
214,227,15847,1,0,0:0:0:0:
214,227,15905,2,0,P|153:238|93:249,1,81.5999975097657,2|0,1:0|0:0,0:0:0:0:
275,306,16136,1,0,0:0:0:0:
313,210,16251,1,0,0:0:0:0:
151,335,16366,6,0,P|90:325|47:224,1,163.2,10|0,0:0|2:0,0:0:0:0:
36,251,16597,2,0,P|66:324|143:345,1,163.2,2|0,0:0|2:0,0:0:0:0:
224,369,16828,6,0,P|302:353|371:343,1,122.399996264649,2|0,1:0|2:0,0:0:0:0:
361,350,17059,2,0,P|392:312|396:270,1,81.5999975097657,2|2,0:0|0:0,0:0:0:0:
250,157,17289,2,0,P|219:195|215:237,1,81.5999975097657,10|0,0:0|0:0,0:0:0:0:
332,157,17520,1,2,0:0:0:0:
202,87,17636,5,0,0:0:0:0:
202,87,17693,1,0,0:0:0:0:
202,87,17751,2,0,B|162:118|98:63|107:-14|203:-54|289:-9|290:79,1,326.4,2|0,1:0|0:0,0:0:0:0:
145,167,18213,6,0,P|88:140|62:78,1,122.399996264649,10|0,0:0|2:0,0:0:0:0:
54,95,18443,2,0,P|82:149|137:174,1,122.399996264649,2|0,0:0|2:0,0:0:0:0:
213,226,18674,6,0,P|310:244|394:262,1,163.2,2|0,1:0|2:0,0:0:0:0:
384,260,18905,2,0,P|412:235|424:207,1,54.4,2|0,0:0|0:0,0:0:0:0:
429,42,19136,2,0,P|331:23|247:5,1,163.2,10|0,0:0|2:0,0:0:0:0:
258,7,19367,2,0,P|229:31|217:59,1,54.4,2|0,0:0|0:0,0:0:0:0:
333,117,19539,5,0,0:0:0:0:
333,117,19597,2,0,B|313:167|352:204|360:181|398:212|381:270,1,163.199995019531,2|2,1:0|0:0,0:0:0:0:
431,141,19943,1,0,0:0:0:0:
306,305,20059,6,0,P|241:282|227:178,1,163.2,10|0,0:0|2:0,0:0:0:0:
225,193,20289,2,0,P|240:269|312:300,1,163.2,2|0,0:0|2:0,0:0:0:0:
383,259,20520,6,0,P|266:250|105:387,1,326.4,2|0,1:0|0:0,0:0:0:0:
0,192,20982,5,10,0:0:0:0:
24,99,21097,1,2,0:0:0:0:
8,193,21213,2,0,P|68:181|99:177,1,81.5999975097657,2|0,0:0|0:0,0:0:0:0:
327,139,21443,5,2,1:0:0:0:
250,182,21559,2,0,B|189:183|161:132|161:132|187:187|142:252,1,217.6,8|0,0:0|0:0,0:0:0:0:
8,322,21905,2,0,P|61:354|126:346,1,108.799996679688,8|0,0:0|0:0,0:0:0:0:
223,300,22136,1,2,0:0:0:0:
216,310,22213,2,0,L|177:317,1,27.1999991699219,2|0,0:0|0:0,0:0:0:0:
79,272,22366,6,0,B|49:238|56:188|103:149|115:183|154:156|169:108|140:70,1,244.799992529297,6|0,1:0|0:0,0:0:0:0:
62,35,22828,2,0,P|-14:53|-55:58,1,81.5999975097657,10|0,0:0|0:0,0:0:0:0:
198,4,23059,1,2,0:0:0:0:
196,14,23136,2,0,L|232:6,1,27.1999991699219,2|0,0:0|0:0,0:0:0:0:
69,163,23289,6,0,P|120:177|152:290,1,163.2,2|0,1:0|2:0,0:0:0:0:
153,280,23520,2,0,P|165:316|182:330,1,54.4,2|0,0:0|0:0,0:0:0:0:
426,319,23751,2,0,P|377:296|280:362,1,163.2,10|0,0:0|2:0,0:0:0:0:
286,354,23982,2,0,P|253:373|231:373,1,54.4,2|0,0:0|0:0,0:0:0:0:
12,342,24213,6,0,B|-15:311|-8:266|33:231|44:261|79:237|93:194|66:160,2,217.6,2|0|10,1:0|0:0|0:0,0:0:0:0:
176,326,24789,1,0,0:0:0:0:
68,162,24905,2,0,P|22:176|-18:187,1,81.5999975097657,2|2,0:0|0:0,0:0:0:0:
200,210,25136,6,0,P|292:182|372:160,1,163.199995019531,2|2,1:0|0:0,0:0:0:0:
249,104,25482,1,0,0:0:0:0:
123,224,25597,2,0,P|161:283|258:264,1,163.2,10|0,0:0|2:0,0:0:0:0:
259,262,25828,2,0,P|336:251|381:314,1,163.2,2|0,0:0|2:0,0:0:0:0:
325,384,26059,6,0,B|294:358|294:358|311:299,1,81.5999975097657,2|0,1:0|0:0,0:0:0:0:
424,214,26289,1,2,0:0:0:0:
431,204,26366,2,0,P|440:163|435:134,1,54.3999983398438,2|0,0:0|0:0,0:0:0:0:
249,104,26520,6,0,B|218:77|173:84|138:125|168:136|144:171|101:185|67:158,1,217.6,10|2,0:0|0:0,0:0:0:0:
14,105,26828,2,0,L|24:46,1,45.3333333333333,2|0,0:0|0:0,0:0:0:0:
220,183,26982,6,0,P|211:245|193:391,1,163.199995019531,2|2,1:0|0:0,0:0:0:0:
127,367,27289,2,0,L|68:374,1,36.2666666666667
274,343,27443,2,0,L|417:326,1,122.399996264649,10|0,0:0|2:0,0:0:0:0:
354,256,27674,1,2,0:0:0:0:
342,257,27751,2,0,L|283:264,1,36.2666666666667,2|0,0:0|0:0,0:0:0:0:
220,183,27905,6,0,P|314:206|359:269,1,163.199995019531,2|0,1:0|0:0,0:0:0:0:
479,166,28251,5,2,0:0:0:0:
411,122,28366,2,0,B|347:96|301:145|330:156|291:203|218:182,1,217.6,10|0,0:0|0:0,0:0:0:0:
164,127,28674,2,0,L|173:72,1,36.2666666666667,2|0,0:0|0:0,0:0:0:0:
0,0,28828,5,2,1:0:0:0:
84,77,28943,2,0,P|207:52|316:26,1,217.6,8|0,0:0|3:0,0:0:0:0:
305,35,29232,1,0,3:0:0:0:
313,39,29289,2,0,P|286:45|259:50,1,54.4,8|0,0:0|0:0,0:0:0:0:
111,161,29520,5,8,0:0:0:0:
85,323,29635,1,8,0:0:0:0:
118,162,29751,6,0,P|164:170|202:181,1,81.5999975097657,6|0,1:0|0:0,0:0:0:0:
352,221,30213,2,0,P|306:213|268:202,1,81.5999975097657,2|0,1:0|0:0,0:0:0:0:
211,260,30559,5,2,0:0:0:0:
211,260,30674,1,2,1:0:0:0:
211,260,30789,2,0,P|221:296|225:311,1,40.7999987548829,2|0,0:0|0:0,0:0:0:0:
256,127,31020,2,0,P|246:91|242:76,1,40.7999987548829,2|0,0:0|1:0,0:0:0:0:
426,244,31366,5,2,0:0:0:0:
495,75,31597,6,0,P|430:89|401:96,1,81.5999975097657,2|2,1:0|0:0,0:0:0:0:
176,144,32059,2,0,P|241:130|270:123,1,81.5999975097657,2|2,1:0|0:0,0:0:0:0:
335,109,32520,5,2,1:0:0:0:
255,126,32751,1,2,0:0:0:0:
16,178,32982,5,10,0:0:0:0:
95,160,33213,1,2,0:0:0:0:
71,237,33443,6,0,P|59:295|53:329,1,81.5999975097657,2|0,1:0|0:0,0:0:0:0:
40,101,33905,2,0,P|52:43|58:9,1,81.5999975097657,2|0,1:0|0:0,0:0:0:0:
176,144,34251,5,2,0:0:0:0:
176,144,34366,1,2,1:0:0:0:
176,144,34482,2,0,P|156:148|136:152,1,40.7999987548829,2|0,0:0|0:0,0:0:0:0:
255,126,34713,2,0,P|275:122|295:118,1,40.7999987548829,2|0,0:0|1:0,0:0:0:0:
40,101,35059,5,2,0:0:0:0:
194,223,35289,6,0,P|206:271|212:319,1,81.5999975097657,2|2,1:0|0:0,0:0:0:0:
408,259,35751,2,0,P|360:271|312:277,1,81.5999975097657,2|2,1:0|0:0,0:0:0:0:
131,319,36213,5,2,1:0:0:0:
210,302,36443,1,2,0:0:0:0:
471,163,36674,5,10,0:0:0:0:
391,179,36904,1,2,0:0:0:0:
177,143,37136,6,0,P|190:93|198:52,1,81.5999975097657,2|0,1:0|0:0,0:0:0:0:
149,239,37597,2,0,P|136:289|128:330,1,81.5999975097657,2|0,1:0|0:0,0:0:0:0:
100,171,37943,5,2,0:0:0:0:
100,171,38059,1,2,1:0:0:0:
100,171,38174,2,0,P|81:166|61:162,1,40.7999987548829,2|0,0:0|0:0,0:0:0:0:
227,209,38405,2,0,P|246:214|266:218,1,40.7999987548829,2|0,0:0|1:0,0:0:0:0:
54,337,38751,5,2,0:0:0:0:
181,375,38982,6,0,P|248:358|272:349,1,81.5999975097657,2|2,1:0|0:0,0:0:0:0:
494,288,39443,2,0,P|427:305|403:314,1,81.5999975097657,2|2,1:0|0:0,0:0:0:0:
337,331,39905,5,2,1:0:0:0:
315,252,40136,1,2,0:0:0:0:
250,18,40366,5,10,0:0:0:0:
271,96,40596,1,2,0:0:0:0:
135,217,40828,6,0,P|116:224|96:228,1,40.7999987548829,2|0,1:0|0:0,0:0:0:0:
149,192,41059,2,0,P|143:173|139:153,1,40.7999987548829,2|0,0:0|0:0,0:0:0:0:
160,232,41289,2,0,P|166:251|171:271,1,40.7999987548829,2|0,1:0|0:0,0:0:0:0:
175,207,41520,2,0,P|194:200|214:196,1,40.7999987548829,2|0,0:0|0:0,0:0:0:0:
238,317,41751,5,2,1:0:0:0:
238,317,41866,2,0,P|244:336|248:356,1,40.7999987548829,2|0,0:0|0:0,0:0:0:0:
280,239,42097,1,2,0:0:0:0:
280,239,42213,2,0,P|299:232|319:228,1,40.7999987548829,0|0,1:0|0:0,0:0:0:0:
319,313,42443,5,2,0:0:0:0:
390,156,42674,6,0,P|329:144|292:134,1,81.5999975097657,2|2,1:0|0:0,0:0:0:0:
70,88,43136,2,0,P|131:100|168:110,1,81.5999975097657,2|2,1:0|0:0,0:0:0:0:
228,120,43597,1,2,1:0:0:0:
375,43,43828,5,10,0:0:0:0:
86,197,44059,1,10,0:0:0:0:
228,120,44289,1,2,0:0:0:0:
91,36,44520,6,0,P|55:48|-40:73,1,108.8,4|0,1:0|0:0,0:0:0:0:
149,104,44866,1,0,0:0:0:0:
178,19,44982,2,0,P|214:7|309:-18,1,108.8,10|0,0:0|0:0,0:0:0:0:
313,135,45328,5,0,0:0:0:0:
228,120,45443,2,0,P|236:94|246:69,1,54.4,2|0,1:0|0:0,0:0:0:0:
178,19,45674,2,0,P|204:111|222:200,2,176.799991906739,2|8|2,0:0|0:0|0:0,0:0:0:0:
88,308,46366,6,0,P|137:291|187:282,1,61.1999981323243,2|0,1:0|0:0,0:0:0:0:
377,219,46597,2,0,P|394:268|403:318,2,61.1999981323243,2|8|2,0:0|0:0|0:0,0:0:0:0:
281,312,47289,6,0,P|264:263|255:213,1,61.1999981323243,2|0,1:0|0:0,0:0:0:0:
226,138,47520,2,0,P|275:121|325:112,1,61.1999981323243,2|0,0:0|0:0,0:0:0:0:
146,288,47751,6,0,P|97:305|47:314,1,61.1999981323243,10|0,0:0|0:0,0:0:0:0:
91,114,47982,2,0,P|108:163|117:213,1,61.1999981323243,2|0,0:0|0:0,0:0:0:0:
281,312,48213,6,0,P|363:330|401:342,1,108.8,2|0,1:0|0:0,0:0:0:0:
201,367,48559,1,0,0:0:0:0:
146,288,48674,2,0,P|64:270|26:258,1,108.8,10|0,0:0|0:0,0:0:0:0:
226,233,49020,5,0,0:0:0:0:
280,312,49136,2,0,P|334:322|385:337,1,54.4,2|0,1:0|0:0,0:0:0:0:
201,367,49366,2,0,P|184:280|160:195,2,176.799991906739,2|8|2,0:0|0:0|0:0,0:0:0:0:
357,96,50059,6,0,P|335:46|291:30,1,61.1999981323243,2|0,1:0|0:0,0:0:0:0:
360,243,50289,2,0,P|406:269|450:257,2,61.1999981323243,2|8|2,0:0|0:0|0:0,0:0:0:0:
271,125,50982,6,0,P|217:130|188:166,1,61.1999981323243,2|0,1:0|0:0,0:0:0:0:
412,169,51213,2,0,P|452:133|454:87,1,61.1999981323243,2|0,0:0|0:0,0:0:0:0:
273,216,51444,2,0,P|261:268|287:307,1,61.1999981323243,10|0,0:0|0:0,0:0:0:0:
357,96,51674,2,0,P|335:46|291:30,1,61.1999981323243
96,59,51905,6,0,P|112:131|122:186,1,108.8,2|0,1:0|0:0,0:0:0:0:
71,230,52251,1,0,0:0:0:0:
159,384,52366,2,0,P|143:312|133:257,1,108.8,10|0,0:0|0:0,0:0:0:0:
184,213,52713,5,0,0:0:0:0:
71,230,52828,2,0,P|44:236|17:241,1,54.4,2|0,1:0|0:0,0:0:0:0:
184,213,53059,2,0,P|282:242|299:322,2,176.799991906739,2|8|2,0:0|0:0|0:0,0:0:0:0:
81,0,53751,6,0,L|144:11,1,61.1999981323243,2|0,1:0|0:0,0:0:0:0:
310,171,53982,2,0,L|373:182,1,61.1999981323243,2|8,0:0|0:0,0:0:0:0:
393,55,54443,6,0,L|333:45,1,61.1999981323243,2|0,0:0|0:0,0:0:0:0:
118,137,54674,2,0,L|58:127,1,61.1999981323243,2|2,1:0|0:0,0:0:0:0:
227,91,55136,5,10,0:0:0:0:
512,304,55597,6,0,P|459:318|408:335,1,108.8,2|0,1:0|0:0,0:0:0:0:
350,267,55943,1,0,0:0:0:0:
216,382,56059,2,0,P|269:368|321:352,1,108.8,10|0,0:0|0:0,0:0:0:0:
186,236,56405,5,0,0:0:0:0:
271,251,56520,2,0,P|263:277|253:302,1,54.4,2|0,1:0|0:0,0:0:0:0:
321,352,56751,2,0,P|295:260|277:171,2,176.799991906739,2|8|2,0:0|0:0|0:0,0:0:0:0:
265,94,57443,5,2,0:0:0:0:
474,176,57674,6,0,P|412:147|410:114,1,91.7999971984864,2|0,1:0|2:0,0:0:0:0:
413,116,57905,2,0,P|403:58|302:40,1,163.2,0|0,1:0|2:0,0:0:0:0:
265,94,58136,5,2,0:0:0:0:
474,176,58366,6,0,P|412:147|410:114,1,91.7999971984864,2|0,1:0|2:0,0:0:0:0:
413,116,58597,2,0,P|403:58|302:40,1,163.2,2|0,1:0|2:0,0:0:0:0:
265,94,58828,6,0,L|267:107,1,13.6
0,231,59289,6,0,B|45:189|130:194|197:252|131:264|193:333|262:355|317:316,1,367.199988793946,6|0,1:0|0:0,0:0:0:0:
306,203,59751,2,0,P|245:211|217:233,1,61.1999981323243,10|0,0:0|0:0,0:0:0:0:
78,334,59982,2,0,P|48:336|21:324,1,61.1999981323243,2|0,0:0|0:0,0:0:0:0:
14,336,60213,6,0,B|65:369|148:349|204:281|137:280|186:202|250:168|311:197,1,367.199988793946,2|0,1:0|0:0,0:0:0:0:
310,309,60674,2,0,P|249:317|216:303,1,61.1999981323243,10|0,0:0|0:0,0:0:0:0:
60,218,60905,2,0,P|30:224|6:243,1,61.1999981323243,2|0,0:0|0:0,0:0:0:0:
0,231,61136,6,0,P|82:209|167:273,1,183.599994396973,2|0,1:0|2:0,0:0:0:0:
170,271,61366,2,0,P|190:234|215:211,1,54.4,2|0,0:0|0:0,0:0:0:0:
260,41,61597,6,0,P|178:63|93:-1,1,183.599994396973,10|0,0:0|2:0,0:0:0:0:
90,1,61828,2,0,P|70:38|45:61,1,54.4,2|0,0:0|0:0,0:0:0:0:
306,149,62059,6,0,P|394:126|495:108,1,183.599994396973,2|0,1:0|2:0,0:0:0:0:
487,118,62289,2,0,P|396:134|307:157,1,183.599994396973,2|0,0:0|2:0,0:0:0:0:
272,220,62520,6,0,P|234:187|232:146,1,81.5999975097657,10|0,0:0|0:0,0:0:0:0:
298,18,62751,2,0,P|288:67|253:89,1,81.5999975097657,2|0,0:0|0:0,0:0:0:0:
90,1,62982,6,0,P|118:135|165:426,1,326.4,2|0,1:0|0:0,0:0:0:0:
202,378,63443,2,0,P|227:335|220:299,1,54.4,10|0,0:0|0:0,0:0:0:0:
50,197,63674,2,0,P|25:154|32:118,1,54.4,2|0,0:0|0:0,0:0:0:0:
90,1,63905,6,0,P|118:135|165:426,1,326.4,2|0,1:0|0:0,0:0:0:0:
202,378,64366,2,0,P|227:335|220:299,1,54.4,10|0,0:0|0:0,0:0:0:0:
50,197,64597,2,0,P|25:154|32:118,1,54.4,2|0,0:0|0:0,0:0:0:0:
90,1,64828,6,0,B|111:34|96:81|59:116|54:75|14:98|-1:149|26:190,2,217.6,2|0|10,1:0|0:0|0:0,0:0:0:0:
242,211,65405,5,0,0:0:0:0:
263,100,65520,2,0,P|218:110|120:126,1,74.8000022827149,2|0,0:0|0:0,0:0:0:0:
209,3,65751,5,2,1:0:0:0:
242,211,65866,1,10,0:0:0:0:
336,84,65982,6,0,P|381:74|479:58,1,74.8000022827149,2|0,0:0|0:0,0:0:0:0:
116,131,66213,2,0,P|71:141|-27:157,1,74.8000022827149,10|0,1:2|0:0,0:0:0:0:
242,211,66443,5,2,3:0:0:0:
258,315,66558,1,2,3:0:0:0:
228,221,66674,6,0,B|177:223|139:168|171:91|272:77|351:139|358:233|317:280|266:297,1,326.4,6|0,1:0|0:0,0:0:0:0:
158,292,67136,2,0,P|84:266|-2:257,1,108.8,8|0,0:0|0:0,0:0:0:0:
49,262,67309,1,0,0:0:0:0:
44,264,67366,1,2,0:0:0:0:
297,378,67597,6,0,P|392:359|486:344,1,183.599994396973,2|0,1:0|2:0,0:0:0:0:
486,344,67828,2,0,P|512:307|506:276,1,54.4,2|0,0:0|0:0,0:0:0:0:
409,68,68059,6,0,P|313:86|219:101,1,183.599994396973,10|0,0:0|2:0,0:0:0:0:
220,102,68290,2,0,P|193:138|199:169,1,54.4,2|0,0:0|0:0,0:0:0:0:
297,378,68520,6,0,B|272:340|287:279|337:237|338:287|395:251|420:203|399:158,2,272,2|2|10,1:0|0:0|0:0,0:0:0:0:
392,332,69097,5,0,0:0:0:0:
269,211,69213,2,0,P|188:197|119:286,1,163.2,2|0,0:0|2:0,0:0:0:0:
147,323,69443,6,0,B|158:349|201:380|272:357|277:302|232:260|205:279,1,204,2|0,1:0|2:0,0:0:0:0:
199,287,69674,6,0,P|252:311|290:283,1,95.1999970947267,2|0,0:0|0:0,0:0:0:0:
415,109,69905,2,0,P|367:142|372:189,1,95.1999970947267,10|0,0:0|0:0,0:0:0:0:
461,384,70136,2,0,P|455:326|412:307,1,95.1999970947267,2|0,0:0|0:0,0:0:0:0:
236,57,70366,6,0,P|264:191|311:482,1,326.4,2|0,1:0|0:0,0:0:0:0:
189,340,70828,6,0,P|195:299|204:259,1,54.4,10|0,0:0|0:0,0:0:0:0:
365,174,71059,2,0,P|358:133|349:93,1,54.4,2|0,0:0|0:0,0:0:0:0:
236,57,71289,6,0,P|264:191|311:482,1,326.4,2|0,1:0|0:0,0:0:0:0:
189,340,71751,6,0,P|195:299|204:259,1,54.4,10|0,0:0|0:0,0:0:0:0:
365,174,71982,2,0,P|358:133|349:93,1,54.4,2|0,0:0|0:0,0:0:0:0:
236,57,72213,6,0,P|191:20|109:35,1,122.399996264649,2|0,1:0|0:0,0:0:0:0:
128,28,72386,1,0,3:0:0:0:
126,33,72443,2,0,P|139:82|145:108,1,54.4,0|0,3:0|3:0,0:0:0:0:
0,204,72674,6,0,P|45:241|127:226,1,122.399996264649,10|0,0:0|0:0,0:0:0:0:
108,233,72847,1,0,3:0:0:0:
110,228,72905,2,0,P|97:179|91:153,1,54.4,0|0,0:0|3:0,0:0:0:0:
269,371,73136,5,2,1:0:0:0:
230,148,73251,1,8,0:0:0:0:
305,249,73366,6,0,P|333:241|428:230,1,81.5999975097657,2|0,3:2|3:0,0:0:0:0:
193,269,73597,2,0,P|165:277|70:288,1,81.5999975097657,10|0,0:0|0:0,0:0:0:0:
230,148,73828,5,10,0:0:0:0:
224,119,73886,5,8,0:0:0:0:
218,90,73943,5,8,0:0:0:0:
212,61,74001,5,8,0:0:0:0:
206,32,74059,5,2,3:2:0:0:
269,371,75213,5,0,0:0:0:0:
340,345,75328,1,0,0:0:0:0:
269,371,75443,2,0,P|232:361|192:354,2,54.4,0|0|0,3:0|3:0|0:0,0:0:0:0:
411,319,75789,1,0,3:0:0:0:
295,223,75905,6,0,P|192:202|42:178,1,217.6,2|2,1:3|1:3,0:0:0:0:
382,232,77059,6,0,L|415:42,1,163.2,12|0,0:0|2:0,0:0:0:0:
398,60,77289,2,0,L|386:123,1,54.4,8|0,0:3|0:0,0:0:0:0:
478,207,77520,2,0,L|489:270,1,54.4,4|0,0:3|0:0,0:0:0:0:
245,237,77751,6,0,P|186:220|127:213,1,91.7999971984864,12|0,0:2|2:0,0:0:0:0:
146,216,77982,1,0,1:0:0:0:
285,318,78097,6,0,P|343:334|403:342,1,91.7999971984864,12|0,0:0|2:0,0:0:0:0:
384,339,78328,1,0,1:0:0:0:
228,377,78443,6,0,B|230:250|299:301|301:180,1,217.6,8|0,0:0|3:0,0:0:0:0:
470,344,78905,5,0,0:0:0:0:
472,357,78982,1,0,0:0:0:0:
474,370,79059,1,0,0:0:0:0:
477,384,79136,1,2,0:3:0:0:
0,208,79597,5,4,1:0:0:0:
0,208,80059,5,0,1:0:0:0:
84,113,80289,1,8,0:3:0:0:
183,132,80520,1,8,1:3:0:0:
209,208,80751,1,8,0:3:0:0:
261,228,80982,1,0,1:0:0:0:
285,214,81213,1,0,0:0:0:0:
304,32,81443,5,4,1:0:0:0:
304,32,83289,6,0,P|324:135|348:284,1,217.6,0|0,1:0|1:0,0:0:0:0:
304,32,85136,6,0,P|324:135|348:284,1,217.6,0|0,1:0|1:0,0:0:0:0:
304,32,86982,6,0,P|324:135|348:284,1,217.6,0|0,1:0|1:0,0:0:0:0:
169,303,88828,6,0,L|157:366,2,54.4,4|0|0,1:0|0:0|0:0,0:0:0:0:
236,345,89982,5,8,0:3:0:0:
243,346,90059,1,8,0:3:0:0:
251,347,90136,1,8,0:3:0:0:
258,349,90213,1,8,0:3:0:0:
92,314,90443,1,8,0:3:0:0:
92,314,90905,6,0,P|189:279|325:239,1,217.6,2|0,1:3|3:0,0:0:0:0:
297,253,91443,1,0,3:0:0:0:
296,261,91520,1,0,3:0:0:0:
294,268,91597,1,8,0:0:0:0:
58,229,91828,6,0,L|52:260,2,27.2,2|0|0,1:3|0:0|0:0,0:0:0:0:
158,355,92520,6,0,L|169:303,2,54.4,2|0|0,0:0|0:0|0:0,0:0:0:0:
158,355,93674,1,0,0:0:0:0:
432,175,94059,5,2,0:3:0:0:
409,102,94213,1,2,0:3:0:0:
432,175,94366,2,0,B|337:191|358:220|279:234,1,163.2,12|0,0:0|0:0,0:0:0:0:
281,234,94828,1,0,1:0:0:0:
389,377,95059,6,0,P|404:317|426:247,1,108.8,12|0,0:0|0:0,0:0:0:0:
310,322,95520,1,0,1:0:0:0:
479,372,95751,1,12,0:0:0:0:
310,322,95982,5,8,0:3:0:0:
303,323,96059,1,8,0:3:0:0:
295,324,96136,1,8,0:3:0:0:
288,326,96213,1,8,1:3:0:0:
481,280,96443,1,8,0:3:0:0:
196,196,97366,6,0,P|328:170|463:148,1,272,2|2,1:3|1:3,0:0:0:0:
463,148,98982,5,8,0:3:0:0:
462,155,99059,1,8,0:3:0:0:
461,163,99136,1,8,0:3:0:0:
459,170,99213,1,8,0:3:0:0:
427,346,99443,1,12,0:0:0:0:
340,237,99905,6,0,P|327:170|316:103,1,136,2|2,1:3|1:3,0:0:0:0:
512,247,103136,6,0,B|532:223|524:194|524:194|523:224|494:241,1,102
436,272,103597,6,0,P|300:247|120:216,1,285.59999128418,6|0,1:0|0:0,0:0:0:0:
92,264,104059,6,0,L|102:320,1,54.4,10|0,0:0|0:0,0:0:0:0:
288,168,104289,2,0,L|277:111,1,54.4,2|0,0:0|0:0,0:0:0:0:
436,272,104520,6,0,P|300:247|120:216,1,285.59999128418,2|0,1:0|0:0,0:0:0:0:
92,264,104982,6,0,L|102:320,1,54.4,10|0,0:0|0:0,0:0:0:0:
288,168,105212,2,0,L|277:111,1,54.4,2|0,0:0|0:0,0:0:0:0:
85,105,105443,6,0,B|37:106|2:56|32:-14|125:-27|198:29|204:116|167:159|120:175,1,285.59999128418,2|0,1:0|0:0,0:0:0:0:
339,265,105905,2,0,B|351:284|411:312|485:285|518:210|477:153|415:154|393:195,1,285.59999128418,10|0,0:0|0:0,0:0:0:0:
193,275,106366,6,0,B|95:273|127:332|18:332,1,183.599994396973,2|0,1:0|2:0,0:0:0:0:
15,330,106597,6,0,P|20:357|23:377,1,40.7999987548829,2|0,0:0|0:0,0:0:0:0:
206,236,106828,2,0,P|197:262|189:281,1,40.7999987548829,10|0,0:0|0:0,0:0:0:0:
418,250,107059,2,0,P|397:268|381:280,1,40.7999987548829,2|0,0:0|0:0,0:0:0:0:
315,377,107289,6,0,P|294:248|264:93,1,285.59999128418,2|0,1:0|0:0,0:0:0:0:
337,57,107751,6,0,P|347:110|357:162,1,54.4,10|0,0:0|0:0,0:0:0:0:
206,236,107982,2,0,P|195:289|185:341,1,54.4,2|0,0:0|0:0,0:0:0:0:
315,377,108213,6,0,P|294:248|264:93,1,285.59999128418,2|0,1:0|0:0,0:0:0:0:
337,57,108674,6,0,P|347:110|357:162,1,54.4,10|0,0:0|0:0,0:0:0:0:
206,236,108905,2,0,P|195:289|185:341,1,54.4,2|0,0:0|0:0,0:0:0:0:
315,377,109136,6,0,B|343:395|384:382|414:350|379:345|399:310|443:297|479:321,2,190.399994189453,2|0|10,1:0|0:0|0:0,0:0:0:0:
315,377,109713,5,0,0:0:0:0:
194,289,109828,2,0,P|203:242|212:195,1,95.1999970947267
297,264,110059,5,2,1:0:0:0:
109,220,110174,1,8,0:0:0:0:
297,264,110289,6,0,P|342:247|366:213,1,54.4,2|0,0:0|0:0,0:0:0:0:
389,69,110520,2,0,P|381:116|398:154,1,54.4,10|0,0:0|0:0,0:0:0:0:
512,245,110751,2,0,P|474:214|433:210,1,54.4,2|0,0:0|0:0,0:0:0:0:
285,93,110982,6,0,L|1:143,1,285.59999128418,6|0,1:0|0:0,0:0:0:0:
0,65,111443,6,0,L|11:1,1,54.4,10|0,0:0|0:0,0:0:0:0:
212,195,111674,2,0,L|202:248,1,54.4,2|0,0:0|0:0,0:0:0:0:
285,93,111905,6,0,L|43:135,1,244.799992529297,2|0,1:0|0:0,0:0:0:0:
40,57,112366,6,0,L|49:3,1,47.5999985473633,10|0,0:0|0:0,0:0:0:0:
212,195,112597,2,0,L|202:248,1,47.5999985473633,2|0,0:0|0:0,0:0:0:0:
285,93,112828,6,0,L|84:128,1,204,2|0,1:0|0:0,0:0:0:0:
80,49,113289,6,0,L|88:2,1,40.7999987548829,10|0,0:0|0:0,0:0:0:0:
212,195,113520,2,0,L|203:241,1,40.7999987548829,2|0,0:0|0:0,0:0:0:0:
285,93,113751,6,0,B|253:61|205:77|205:109|205:109|205:141|152:151|124:121,1,204,2|0,1:0|0:0,0:0:0:0:
120,41,114213,6,0,L|127:0,1,34,10|0,0:0|0:0,0:0:0:0:
212,195,114444,2,0,L|204:235,1,34,2|0,0:0|0:0,0:0:0:0:
285,93,114674,6,0,B|297:118|337:124|337:124|285:117|225:173|164:114,1,244.799992529297,2|0,1:0|0:0,0:0:0:0:
160,33,115136,6,0,L|165:0,1,27.2,10|0,0:0|0:0,0:0:0:0:
212,195,115367,2,0,L|206:228,1,27.2,2|0,0:0|0:0,0:0:0:0:
285,93,115597,6,0,L|188:110,1,81.6,2|0,1:0|0:0,0:0:0:0:
200,25,116059,6,0,L|204:-1,1,20.3999993774414,10|0,0:0|0:0,0:0:0:0:
212,195,116290,2,0,L|207:221,1,20.3999993774414,2|0,0:0|0:0,0:0:0:0:
217,351,116520,6,0,L|213:371,1,17,2|0,1:0|2:0,0:0:0:0:
197,295,116636,6,0,L|180:281,1,17,0|0,3:0|2:0,0:0:0:0:
256,306,116751,6,0,L|276:299,1,17,0|0,3:0|2:0,0:0:0:0:
223,317,116866,5,0,0:0:0:0:
107,352,116982,6,0,P|53:345|-3:292,1,122.399996264649,14|0,0:0|2:0,0:0:0:0:
7,289,117213,2,0,P|29:317|47:324,1,40.7999987548829,2|0,3:2|0:0,0:0:0:0:
133,218,117443,6,0,P|96:177|96:79,1,153.000005836487,2|0,1:0|2:0,0:0:0:0:
106,84,117674,2,0,P|92:122|94:151,1,54.4,10|0,0:0|0:0,0:0:0:0:
273,144,117905,6,0,P|270:89|373:6,1,183.599994396973,10|0,0:0|2:0,0:0:0:0:
366,17,118136,2,0,P|325:29|293:60,1,68,10|0,0:0|0:0,0:0:0:0:
367,276,118366,6,0,B|379:295|439:323|513:296|546:221|505:164|443:165|421:206,1,285.59999128418,6|0,1:0|0:0,0:0:0:0:
264,259,118828,6,0,P|276:307|281:339,1,54.4,10|0,0:0|0:0,0:0:0:0:
213,71,119059,2,0,P|201:23|196:-9,1,54.4,2|0,0:0|0:0,0:0:0:0:
168,184,119289,5,2,1:0:0:0:
309,145,119405,1,0,3:0:0:0:
168,184,119520,6,0,P|122:178|80:125,1,95.1999970947267,0|0,3:0|0:0,0:0:0:0:
264,259,119751,6,0,P|276:307|281:339,1,54.4,10|0,0:0|0:0,0:0:0:0:
213,71,119982,2,0,P|201:23|196:-9,1,54.4,2|0,0:0|0:0,0:0:0:0:
309,145,120213,5,2,1:0:0:0:
168,184,120328,1,0,3:0:0:0:
309,145,120443,6,0,P|355:151|397:204,1,95.1999970947267,2|0,3:2|0:0,0:0:0:0:
512,50,120674,2,0,P|483:86|416:96,1,95.1999970947267,10|0,0:0|0:0,0:0:0:0:
492,273,120905,2,0,P|474:230|499:167,1,95.1999970947267,2|0,0:0|0:0,0:0:0:0:
376,4,121136,6,0,P|268:26|206:79,1,183.599994396973,2|0,1:0|2:0,0:0:0:0:
209,82,121366,6,0,L|200:34,1,40.7999987548829,2|0,0:0|0:0,0:0:0:0:
100,206,121597,2,0,L|69:169,1,40.7999987548829,10|0,0:0|0:0,0:0:0:0:
67,367,121828,2,0,L|21:350,1,40.7999987548829,2|0,0:0|0:0,0:0:0:0:
271,374,122059,6,0,P|292:245|322:90,1,285.59999128418,2|0,1:0|0:0,0:0:0:0:
249,54,122521,6,0,P|239:107|229:159,1,54.4,10|0,0:0|0:0,0:0:0:0:
380,233,122752,2,0,P|391:286|401:338,1,54.4,2|0,0:0|0:0,0:0:0:0:
271,374,122983,6,0,P|292:245|322:90,1,285.59999128418,2|0,1:0|0:0,0:0:0:0:
249,54,123444,6,0,P|239:107|229:159,1,54.4,10|0,0:0|0:0,0:0:0:0:
380,233,123675,2,0,P|391:286|401:338,1,54.4,2|0,0:0|0:0,0:0:0:0:
271,374,123905,6,0,B|243:392|202:379|172:347|207:342|187:307|143:294|107:318,2,190.399994189453,2|2|10,1:2|3:2|0:0,0:0:0:0:
271,374,124482,5,0,0:0:0:0:
391,286,124597,2,0,P|380:233|370:181,1,95.1999970947267,2|0,0:0|0:0,0:0:0:0:
280,138,124828,5,10,0:0:0:0:
428,99,124943,1,8,0:0:0:0:
280,138,125059,6,0,P|230:129|195:97,1,54.4,2|0,3:2|0:0,0:0:0:0:
145,0,125289,2,0,P|162:47|151:94,1,54.4,10|0,0:0|0:0,0:0:0:0:
93,186,125520,2,0,P|125:147|171:132,1,54.4
267,38,125751,6,0,P|359:66|374:179,1,190.399994189453,6|0,1:0|0:0,0:0:0:0:
488,256,126097,5,0,0:0:0:0:
467,172,126213,2,0,P|341:144|183:121,1,244.799992529297,8|0,0:0|0:0,0:0:0:0:
136,152,126674,6,0,P|153:223|161:266,1,81.5999975097657,2|0,1:2|3:0,0:0:0:0:
154,231,126847,1,0,3:0:0:0:
154,231,126905,2,0,P|211:247|242:257,1,81.5999975097657,2|0,3:2|0:0,0:0:0:0:
370,260,127136,6,0,B|325:229|275:233|242:267|237:308|253:299|247:339|224:364|167:361,1,244.799992529297,10|0,0:2|0:0,0:0:0:0:
120,313,127597,6,0,B|149:285|207:288|251:327|207:335|249:381|295:396|332:370,1,244.799992529297,2|0,1:0|0:0,0:0:0:0:
441,344,128059,6,0,P|458:250|466:212,1,122.399996264649,8|0,0:0|2:0,0:0:0:0:
457,218,128289,2,0,P|469:157|479:97,1,122.399996264649,0|0,0:0|2:0,0:0:0:0:
486,97,128520,5,0,1:0:0:0:
391,10,128636,1,0,3:0:0:0:
272,53,128751,2,0,P|260:114|250:174,1,122.399996264649,0|0,3:0|2:0,0:0:0:0:
250,188,128982,6,0,P|263:220|286:238,1,54.4,10|0,0:0|0:0,0:0:0:0:
382,145,129213,2,0,P|350:158|332:181,1,54.4,2|0,0:0|0:0,0:0:0:0:
243,309,129443,5,2,1:0:0:0:
357,251,129559,1,0,3:0:0:0:
243,309,129674,2,0,P|181:300|149:263,1,81.5999975097657,0|0,3:0|0:0,0:0:0:0:
48,112,129905,6,0,P|117:105|178:98,1,122.399996264649,8|0,0:0|2:0,0:0:0:0:
176,113,130136,2,0,P|147:176|123:232,1,122.399996264649,0|0,0:0|2:0,0:0:0:0:
126,224,130366,5,2,1:0:0:0:
64,300,130482,2,0,P|46:260|29:221,1,81.5999975097657,0|0,3:0|3:0,0:0:0:0:
126,224,130713,5,0,0:0:0:0:
2,376,130828,2,0,P|141:349|285:326,1,265.199987860108,8|0,0:0|0:0,0:0:0:0:
325,251,131289,5,2,1:0:0:0:
343,384,131405,1,0,3:0:0:0:
404,308,131520,2,0,P|435:310|492:364,1,61.1999981323243,0|0,3:0|0:0,0:0:0:0:
444,111,131751,6,0,P|305:138|161:161,1,285.59999128418,14|0,0:0|0:0,0:0:0:0:
11,124,132213,6,0,B|-5:113|-30:60|-6:-5|59:-34|110:1|109:56|73:76,1,258.399993099976,2|8,1:0|0:0,0:0:0:0:
141,248,132559,1,0,0:0:0:0:
76,186,132674,6,0,P|6:199|-65:211,1,88.3999959533693,10|0,0:0|0:0,0:0:0:0:
227,222,132905,2,0,P|296:208|368:197,1,88.3999959533693,10|0,0:0|0:0,0:0:0:0:
444,111,133136,5,6,1:0:0:0:
355,125,133251,1,2,0:0:0:0:
313,204,133366,6,0,L|299:282,1,40.7999987548829,2|0,0:0|0:0,0:0:0:0:
402,190,133597,2,0,L|388:268,1,40.7999987548829,8|0,1:2|0:0,0:0:0:0:
491,176,133828,2,0,L|477:254,1,40.7999987548829
352,309,134059,6,0,P|298:327|253:304,1,81.5999975097657,0|8,1:0|0:0,0:0:0:0:
217,259,134405,1,8,0:0:0:0:
224,218,134520,1,8,1:2:0:0:
27,70,134751,5,2,0:0:0:0:
20,111,134866,1,2,0:0:0:0:
78,172,134982,2,0,P|118:178|155:161,1,81.5999975097657,2|8,1:0|0:0,0:0:0:0:
251,21,135328,1,8,0:0:0:0:
172,7,135443,6,0,L|124:-1,1,40.7999987548829,8|0,1:2|0:0,0:0:0:0:
237,100,135674,2,0,L|228:147,1,40.7999987548829
330,35,135905,2,0,L|377:43,1,40.7999987548829,0|0,1:0|3:0,0:0:0:0:
482,125,136136,5,8,0:0:0:0:
441,117,136251,1,8,0:0:0:0:
364,118,136366,2,0,P|339:155|348:228,1,81.5999975097657,8|0,1:2|0:0,0:0:0:0:
422,274,136713,1,2,0:0:0:0:
488,228,136828,6,0,P|459:201|392:204,1,81.5999975097657,2|0,1:0|3:0,0:0:0:0:
344,267,137174,1,0,3:0:0:0:
360,344,137289,2,0,L|371:407,1,40.7999987548829,8|0,1:2|0:0,0:0:0:0:
285,319,137520,2,0,L|221:330,1,40.7999987548829
42,297,137751,6,0,L|105:285,1,40.7999987548829,2|0,1:0|0:0,0:0:0:0:
153,348,137982,1,8,0:0:0:0:
163,308,138097,1,8,0:0:0:0:
172,267,138213,1,8,1:2:0:0:
81,96,138443,5,2,0:0:0:0:
100,177,138559,1,2,0:0:0:0:
90,96,138674,2,0,P|158:111|178:147,1,81.5999975097657,2|0,1:0|3:0,0:0:0:0:
255,241,139020,1,0,3:0:0:0:
236,164,139136,6,0,L|247:100,1,40.7999987548829,8|0,1:2|0:0,0:0:0:0:
317,147,139366,2,0,L|328:83,1,40.7999987548829
163,117,139597,2,0,L|174:53,1,40.7999987548829,0|0,1:0|3:0,0:0:0:0:
306,28,139828,5,8,0:0:0:0:
350,34,139943,1,8,0:0:0:0:
387,59,140059,1,8,1:2:0:0:
464,209,140289,5,10,0:0:0:0:
444,319,140405,1,10,0:0:0:0:
454,216,140520,6,0,P|369:247|313:256,1,108.8,6|0,1:0|3:0,0:0:0:0:
272,201,140866,1,0,3:0:0:0:
280,153,140982,1,8,1:2:0:0:
316,338,141213,5,2,0:0:0:0:
237,351,141328,1,2,0:0:0:0:
186,289,141443,2,0,L|197:225,1,54.4,2|0,1:0|0:0,0:0:0:0:
174,59,141674,5,0,0:0:0:0:
82,27,141789,1,0,3:0:0:0:
8,89,141905,2,0,L|19:152,1,54.4,8|0,1:2|0:0,0:0:0:0:
108,197,142136,6,0,P|113:178|104:196,1,54.4,2|0,0:0|3:0,0:0:0:0:
15,331,142366,6,0,P|54:283|130:298,1,108.8,2|0,1:0|3:0,0:0:0:0:
134,353,142713,1,0,3:0:0:0:
128,384,142828,1,8,1:2:0:0:
286,280,143059,5,2,0:0:0:0:
272,201,143174,1,2,0:0:0:0:
196,173,143289,2,0,L|132:184,1,54.4,2|0,1:0|3:0,0:0:0:0:
280,16,143520,5,0,3:0:0:0:
263,110,143636,1,0,3:0:0:0:
208,52,143751,6,0,L|144:40,1,54.4,8|0,1:2|0:0,0:0:0:0:
334,74,143982,2,0,L|397:85,1,54.4,2|0,3:2|3:0,0:0:0:0:
396,245,144213,6,0,P|345:195|362:131,1,108.8,2|0,1:0|3:0,0:0:0:0:
440,18,144559,1,0,3:0:0:0:
474,97,144674,2,0,L|462:160,1,54.4,8|0,1:2|0:0,0:0:0:0:
498,229,144905,2,0,L|486:292,1,54.4
335,348,145136,6,0,L|398:359,1,54.4,2|0,1:0|0:0,0:0:0:0:
265,296,145366,1,8,0:0:0:0:
252,372,145482,1,8,0:0:0:0:
183,321,145597,2,0,L|119:309,1,54.4,8|0,1:2|0:0,0:0:0:0:
18,161,145828,5,2,0:0:0:0:
37,271,145943,1,2,0:0:0:0:
28,162,146059,6,0,P|93:182|142:196,1,108.8,2|0,1:0|3:0,0:0:0:0:
227,104,146405,1,0,3:0:0:0:
214,183,146520,2,0,L|202:246,1,54.4,8|0,1:2|0:0,0:0:0:0:
363,242,146751,5,2,0:0:0:0:
286,226,146866,1,2,0:0:0:0:
302,149,146982,2,0,L|313:85,1,54.4,2|0,1:0|3:0,0:0:0:0:
440,258,147213,5,8,0:0:0:0:
363,242,147328,1,8,0:0:0:0:
424,335,147443,5,8,0:0:0:0:
379,165,147559,1,8,0:0:0:0:
313,307,147674,5,0,3:0:0:0:
315,320,147731,5,0,3:0:0:0:
317,333,147789,5,0,3:0:0:0:
320,347,147847,5,0,3:0:0:0:
322,360,147904,5,6,1:2:0:0:
165,293,148136,1,2,0:2:0:0:
232,137,148366,1,10,0:2:0:0:
232,137,148597,1,2,0:2:0:0:
388,204,148828,5,2,1:2:0:0:
322,360,149059,1,2,0:2:0:0:
165,293,149289,1,10,0:2:0:0:
165,293,149520,1,2,0:2:0:0:
232,137,149751,5,2,1:2:0:0:
388,204,149982,1,2,3:2:0:0:
322,360,150213,1,10,0:2:0:0:
322,360,150443,1,2,3:2:0:0:
165,293,150674,5,2,1:2:0:0:
232,137,150905,1,10,0:2:0:0:
388,204,151136,1,10,0:2:0:0:
388,204,151366,1,2,3:2:0:0:
322,360,151597,5,2,1:2:0:0:
232,137,151828,1,2,3:2:0:0:
165,293,152059,1,10,0:2:0:0:
165,293,152289,1,2,3:2:0:0:
388,204,152520,5,2,1:2:0:0:
165,293,152751,1,2,3:2:0:0:
322,360,152982,1,10,0:2:0:0:
322,360,153213,1,2,0:2:0:0:
232,137,153443,5,2,1:2:0:0:
322,360,153674,1,10,0:2:0:0:
388,204,153905,1,10,0:2:0:0:
388,204,154136,1,2,0:2:0:0:
165,293,154366,5,2,1:2:0:0:
388,204,154597,1,10,0:2:0:0:
232,137,154828,1,10,0:2:0:0:
232,137,155059,1,10,0:2:0:0:
322,360,155289,5,6,1:2:0:0:
165,293,155520,1,2,3:2:0:0:
232,137,155751,1,10,0:2:0:0:
388,204,155982,1,2,3:2:0:0:
165,293,156213,5,2,1:2:0:0:
232,137,156444,1,2,3:2:0:0:
388,204,156675,1,10,0:2:0:0:
322,360,156906,1,2,3:2:0:0:
232,137,157136,5,2,1:2:0:0:
388,204,157367,1,10,3:2:0:0:
322,360,157598,1,10,1:2:0:0:
165,293,157829,1,2,3:2:0:0:
388,204,158059,5,2,1:2:0:0:
322,360,158290,1,10,0:2:0:0:
244,326,158405,1,8,0:0:0:0:
165,293,158521,1,10,1:2:0:0:
199,215,158636,1,8,0:0:0:0:
232,137,158752,1,10,0:2:0:0:
310,171,158866,1,8,0:0:0:0:
388,204,158982,1,10,1:2:0:0:
355,281,159443,5,0,0:0:0:0:
388,204,159674,1,0,1:0:0:0:
310,171,159905,1,0,0:0:0:0:
232,137,160366,5,0,1:0:0:0:
199,215,160828,5,0,0:0:0:0:
165,293,161059,1,0,1:0:0:0:
244,326,161289,1,0,0:0:0:0:
322,360,161751,5,0,0:0:0:0:
232,137,161982,1,0,0:0:0:0:
388,203,162213,1,0,0:0:0:0:
166,293,162443,1,0,0:0:0:0:
199,35,162674,6,0,B|244:-7|329:-2|396:56|330:68|392:137|461:159|516:120,1,367.199988793946,6|0,1:0|0:0,0:0:0:0:
505,7,163136,2,0,P|444:15|416:37,1,61.1999981323243,10|0,0:0|0:0,0:0:0:0:
277,138,163367,2,0,P|247:140|220:128,1,61.1999981323243,2|0,0:0|0:0,0:0:0:0:
213,140,163598,6,0,B|264:173|347:153|403:85|336:84|385:6|449:-28|510:1,1,367.199988793946,2|0,1:0|0:0,0:0:0:0:
509,113,164059,2,0,P|448:121|415:107,1,61.1999981323243,10|0,0:0|0:0,0:0:0:0:
259,22,164290,2,0,P|229:28|205:47,1,61.1999981323243,2|0,0:0|0:0,0:0:0:0:
199,35,164520,6,0,P|281:13|366:77,1,183.599994396973,2|0,1:0|2:0,0:0:0:0:
364,79,164751,2,0,P|353:130|348:159,1,54.4,2|0,0:0|0:0,0:0:0:0:
228,315,164982,6,0,P|146:337|61:273,1,183.599994396973,10|0,0:0|2:0,0:0:0:0:
63,271,165213,2,0,P|74:220|79:191,1,54.4,2|0,0:0|0:0,0:0:0:0:
131,128,165443,6,0,P|247:187|306:219,1,183.599994396973,2|0,1:0|2:0,0:0:0:0:
297,204,165674,2,0,P|216:161|134:120,1,183.599994396973,2|0,0:0|2:0,0:0:0:0:
98,54,165905,6,0,P|57:98|58:147,1,81.5999975097657,10|0,0:0|0:0,0:0:0:0:
117,256,166136,2,0,P|99:198|56:174,1,81.5999975097657,2|0,0:0|0:0,0:0:0:0:
4,373,166366,6,0,P|187:339|350:311,1,326.4,2|0,1:0|0:0,0:0:0:0:
398,349,166828,2,0,P|369:380|345:387,1,54.4,10|0,0:0|0:0,0:0:0:0:
201,256,167059,2,0,P|160:243|136:249,1,54.4,2|0,0:0|0:0,0:0:0:0:
4,373,167289,6,0,P|187:339|350:311,1,326.4,2|0,1:0|0:0,0:0:0:0:
398,349,167751,2,0,P|369:380|345:387,1,54.4,10|0,0:0|0:0,0:0:0:0:
201,256,167982,2,0,P|160:243|136:249,1,54.4,2|0,0:0|0:0,0:0:0:0:
4,373,168213,6,0,B|40:387|83:365|111:322|70:324|86:281|133:257|179:277,2,217.6,2|2|10,1:0|0:0|0:0,0:0:0:0:
185,201,168789,5,0,0:0:0:0:
140,110,168905,2,0,P|198:103|229:96,1,74.8000022827149,2|0,0:0|0:0,0:0:0:0:
167,2,169136,5,2,1:0:0:0:
185,201,169251,1,8,0:0:0:0:
66,120,169366,6,0,P|8:127|-23:134,1,74.8000022827149,2|0,0:0|0:0,0:0:0:0:
286,88,169597,2,0,P|344:81|375:74,1,74.8000022827149,10|0,0:0|0:0,0:0:0:0:
185,201,169828,5,2,0:0:0:0:
194,300,169943,1,2,0:0:0:0:
174,216,170059,6,0,B|123:218|85:163|117:86|218:72|297:134|304:228|263:275|212:292,1,326.4,6|0,1:0|0:0,0:0:0:0:
131,359,170520,6,0,P|93:362|57:369,1,54.4,10|0,0:0|0:0,0:0:0:0:
262,171,170751,2,0,P|299:167|335:160,1,54.4,2|0,0:0|0:0,0:0:0:0:
124,56,170982,6,0,B|94:96|107:158|152:208|163:156|212:191|227:258|186:310,1,285.59999128418,2|0,1:0|0:0,0:0:0:0:
131,359,171443,6,0,P|93:362|57:369,1,54.4,10|0,0:0|0:0,0:0:0:0:
262,171,171674,2,0,P|299:167|335:160,1,54.4,2|0,0:0|0:0,0:0:0:0:
124,56,171905,6,0,P|100:152|82:251,1,183.599994396973,2|0,1:0|2:0,0:0:0:0:
83,245,172136,2,0,P|112:278|141:286,1,68,2|0,0:0|0:0,0:0:0:0:
376,285,172366,6,0,P|400:189|418:90,1,183.599994396973,10|0,0:0|2:0,0:0:0:0:
417,96,172597,2,0,P|388:63|359:55,1,68,2|0,0:0|0:0,0:0:0:0:
176,211,172828,6,0,B|205:222|241:204|264:168|230:170|243:135|282:115|323:131,1,183.599994396973,2|0,1:0|2:0,0:0:0:0:
324,137,173059,6,0,P|301:225|284:316,1,95.1999970947267,2|0,0:0|0:0,0:0:0:0:
457,384,173289,2,0,P|391:320|321:260,1,95.1999970947267,10|0,0:0|0:0,0:0:0:0:
176,375,173520,2,0,P|264:349|350:319,1,95.1999970947267,2|0,0:0|0:0,0:0:0:0:
120,144,173751,6,0,B|86:127|16:131|-49:192|-29:289|40:318|92:284|90:233,1,326.4,2|0,1:0|0:0,0:0:0:0:
203,70,174213,6,0,P|211:22|219:-7,1,54.4,10|0,0:0|0:0,0:0:0:0:
176,211,174443,2,0,P|168:259|160:288,1,54.4,2|0,0:0|0:0,0:0:0:0:
352,141,174674,6,0,B|385:157|455:153|521:92|501:-4|431:-33|379:0|381:51,1,326.4,2|0,1:0|0:0,0:0:0:0:
269,215,175136,6,0,P|261:263|253:292,1,54.4,10|0,0:0|0:0,0:0:0:0:
296,74,175366,2,0,P|304:26|312:-3,1,54.4,2|0,0:0|0:0,0:0:0:0:
30,85,175597,6,0,P|192:110|376:146,1,326.4,2|0,1:0|0:0,0:0:0:0:
474,10,176059,6,0,P|408:23|368:98,1,108.8,10|0,0:0|0:0,0:0:0:0:
269,215,176289,2,0,P|203:202|163:127,1,108.8,2|8,3:2|0:0,0:0:0:0:
175,173,176463,1,8,0:0:0:0:
175,173,176520,1,8,0:0:0:0:
217,30,176636,5,8,0:0:0:0:
258,132,176751,2,0,P|366:112|475:96,1,204,2|0,3:2|2:0,0:0:0:0:
459,98,176982,5,10,0:0:0:0:
409,310,177097,1,8,0:0:0:0:
356,217,177213,5,8,0:0:0:0:
512,191,177328,1,8,0:0:0:0:
356,217,177443,6,0,B|304:250|221:230|165:162|232:161|183:83|119:49|58:78,1,367.199988793946,4|0,1:2|0:0,0:0:0:0:
18,213,177905,6,0,P|28:262|34:307,1,95.1999970947267,10|0,0:0|0:0,0:0:0:0:
119,324,178078,1,0,0:0:0:0:
128,329,178136,2,0,P|117:279|111:234,1,95.1999970947267,2|0,3:2|3:0,0:0:0:0:
356,217,178366,6,0,B|304:250|221:230|165:162|232:161|183:83|119:49|58:78,1,367.199988793946,2|0,1:0|0:0,0:0:0:0:
18,213,178828,6,0,P|28:262|34:307,1,95.1999970947267,10|0,0:0|0:0,0:0:0:0:
119,324,179001,1,0,0:0:0:0:
128,329,179059,2,0,P|117:279|111:234,1,95.1999970947267,2|0,3:2|3:0,0:0:0:0:
297,132,179289,6,0,B|283:105|286:50|334:0|410:15|433:69|406:110|366:108,1,244.799992529297,2|0,1:0|2:0,0:0:0:0:
370,116,179520,2,0,P|406:98|392:38,1,95.1999970947267,2|0,0:0|0:0,0:0:0:0:
336,268,179751,6,0,B|349:294|346:349|298:400|222:384|199:330|226:289|266:291,1,244.799992529297,10|0,0:0|2:0,0:0:0:0:
263,284,179982,2,0,P|227:302|241:362,1,95.1999970947267,2|0,0:0|0:0,0:0:0:0:
439,257,180213,6,0,P|340:171|211:160,1,265.199987860108,2|0,1:0|2:0,0:0:0:0:
163,226,180443,6,0,L|166:246,1,20.3999993774414,2|0,3:0|0:0,0:0:0:0:
33,75,180674,6,0,L|13:67,1,20.3999993774414,10|0,3:2|0:0,0:0:0:0:
229,38,180905,6,0,L|244:24,1,20.3999993774414,2|0,0:3|0:0,0:0:0:0:
3,234,181136,6,0,P|190:199|459:153,1,408,6|0,1:0|0:0,0:0:0:0:
333,299,181597,6,0,P|270:290|235:247,1,95.1999970947267,10|0,0:0|0:0,0:0:0:0:
196,169,181770,1,0,0:0:0:0:
192,158,181828,2,0,P|153:130|106:129,1,95.1999970947267,2|0,3:2|3:0,0:0:0:0:
3,234,182059,6,0,P|190:199|459:153,1,408,2|0,1:0|0:0,0:0:0:0:
333,299,182520,6,0,P|270:290|235:247,1,95.1999970947267,10|0,0:0|0:0,0:0:0:0:
196,169,182693,1,0,0:0:0:0:
192,158,182751,2,0,P|153:130|106:129,1,95.1999970947267,2|0,3:2|3:0,0:0:0:0:
3,234,182982,6,0,B|-14:189|12:136|65:102|63:152|116:133|145:75|121:18,2,272,0|2|8,1:0|0:0|0:0,0:0:0:0:
3,234,183559,1,0,0:0:0:0:
154,287,183674,6,0,P|204:277|254:268,1,95.1999970947267
182,173,183905,5,0,1:0:0:0:
219,384,184020,1,8,0:0:0:0:
340,253,184136,6,0,P|356:249|373:247,1,34,2|0,0:3|0:0,0:0:0:0:
165,79,184366,6,0,P|161:62|159:45,1,34,2|0,1:3|0:0,0:0:0:0:
60,303,184597,6,0,P|43:306|26:308,1,34,2|0,0:3|0:0,0:0:0:0:
385,358,184828,6,0,P|411:202|443:27,1,326.4,14|0,1:2|0:0,0:0:0:0:
282,81,185289,6,0,P|282:129|314:177,1,81.5999975097657,10|0,1:2|0:0,0:0:0:0:
480,242,185463,1,0,3:0:0:0:
486,247,185520,2,0,P|487:287|471:324,1,81.5999975097657,2|0,0:0|0:0,0:0:0:0:
283,340,185751,6,0,P|217:350|109:370,1,163.2,10|0,1:2|0:0,0:0:0:0:
121,360,185982,2,0,P|201:345|282:332,1,163.2,2|0,3:2|2:0,0:0:0:0:
385,358,186213,6,0,P|376:271|268:223,1,204,10|0,1:2|2:0,0:0:0:0:
271,224,186443,2,0,P|181:184|166:87,1,204,2|0,0:0|2:0,0:0:0:0:
219,26,186674,5,10,1:2:0:0:
10,225,186905,5,0,3:0:0:0:
38,336,187020,1,0,0:0:0:0:
10,224,187136,6,0,P|77:242|135:255,1,108.8,10|0,1:2|0:0,0:0:0:0:
278,384,187366,2,0,P|259:317|241:260,1,108.8,2|0,0:0|0:0,0:0:0:0:
282,72,187597,2,0,P|233:121|193:165,1,108.8,10|0,1:2|0:0,0:0:0:0:
167,325,187828,6,0,L|162:344,1,20.3999993774414,2|0,0:0|0:0,0:0:0:0:
114,157,188059,6,0,L|99:143,1,20.3999993774414,10|0,1:2|0:0,0:0:0:0:
286,195,188289,6,0,L|305:188,1,20.3999993774414,2|0,0:0|0:0,0:0:0:0:
38,15,188520,6,0,P|227:46|479:92,1,408,10|0,1:2|0:0,0:0:0:0:
208,271,188982,6,0,P|168:224|178:174,1,81.5999975097657,10|0,1:2|0:0,0:0:0:0:
231,129,189155,1,0,3:0:0:0:
244,130,189213,2,0,P|284:177|274:227,1,81.5999975097657,2|0,0:0|0:0,0:0:0:0:
414,384,189443,6,0,P|224:352|-27:306,1,408,10|0,1:2|0:0,0:0:0:0:
244,128,189905,6,0,P|284:175|274:225,1,81.5999975097657,10|0,1:2|0:0,0:0:0:0:
221,270,190078,1,0,3:0:0:0:
208,269,190136,2,0,P|168:222|178:172,1,81.5999975097657,2|0,0:0|0:0,0:0:0:0:
440,84,190366,5,10,1:2:0:0:
440,84,190424,1,8,0:0:0:0:
440,84,190482,2,0,B|465:122|450:183|400:225|399:175|342:211|317:259|338:304,1,272
12,313,190828,5,10,1:2:0:0:
12,313,190886,1,8,0:0:0:0:
12,313,190944,2,0,B|-13:275|2:214|52:172|53:222|110:186|135:138|114:93,1,272
337,302,191289,6,0,P|270:312|203:325,1,136,10|0,1:2|0:0,0:0:0:0:
114,94,191520,2,0,P|180:83|247:70,1,136,2|0,0:0|0:0,0:0:0:0:
121,309,191751,5,10,1:2:0:0:
329,86,191866,1,8,0:0:0:0:
219,164,191982,5,10,0:0:0:0:
222,181,192040,5,8,0:0:0:0:
225,198,192098,5,8,0:0:0:0:
228,215,192156,5,8,0:0:0:0:
231,232,192213,5,4,1:0:0:0:
