osu file format v14

[General]
AudioFilename: audio.mp3
AudioLeadIn: 0
PreviewTime: 59323
Countdown: 0
SampleSet: None
StackLeniency: 0.7
Mode: 0
LetterboxInBreaks: 0
EpilepsyWarning: 1
WidescreenStoryboard: 1

[Editor]
DistanceSpacing: 1.2
BeatDivisor: 2
GridSize: 16
TimelineZoom: 1.4

[Metadata]
Title:world.execute(me);
TitleUnicode:world.execute(me);
Artist:Mili
ArtistUnicode:Mili
Creator:Exile-
Version:mapset.insane(Exile-);
Source:
Tags:HAMO MOMOCASHEW 6th Alphabet HB24 Miracle Milk
BeatmapID:1010030
BeatmapSetID:470977

[Difficulty]
HPDrainRate:6
CircleSize:4
OverallDifficulty:7.5
ApproachRate:8.4
SliderMultiplier:2
SliderTickRate:1

[Events]
//Background and Video events
0,0,"maxresdefault (1).jpg",0,0
//Break Periods
2,29980,43167
2,88857,102906
//Storyboard Layer 0 (Background)
//Storyboard Layer 1 (Fail)
//Storyboard Layer 2 (Pass)
//Storyboard Layer 3 (Foreground)
//Storyboard Sound Samples

[TimingPoints]
242,461.538461538462,4,3,1,65,1,0
242,-125,4,3,1,65,0,0
15011,-100,4,3,1,80,0,0
43857,-100,4,3,1,65,0,0
44549,-117.647058823529,4,3,1,65,0,0
59318,-83.3333333333333,4,3,1,100,0,1
74088,-100,4,3,1,40,0,0
75934,-100,4,3,1,65,0,0
77088,-117.647058823529,4,3,1,40,0,0
77780,-100,4,3,1,65,0,0
78472,-117.647058823529,4,3,1,40,0,0
79626,-117.647058823529,4,3,1,65,0,0
80088,-100,4,3,1,55,0,0
81472,-117.647058823529,4,3,1,65,0,0
83318,-117.647058823529,4,3,1,40,0,0
103626,-100,4,3,1,70,0,0
105818,-100,4,3,1,5,0,0
105934,-100,4,3,1,70,0,0
106280,-100,4,3,1,5,0,0
106395,-100,4,3,1,70,0,0
111472,-97.0873786407767,4,3,1,70,0,0
112395,-94.3396226415094,4,3,1,70,0,0
113318,-91.743119266055,4,3,1,70,0,0
114242,-89.2857142857143,4,3,1,70,0,0
115165,-86.9565217391304,4,3,1,70,0,0
116088,-84.7457627118644,4,3,1,70,0,0
117011,-83.3333333333333,4,3,1,70,0,0
118395,-100,4,3,1,70,0,0
125780,-117.647058823529,4,3,1,70,0,0
131318,-95.2380952380952,4,3,1,70,0,0
131780,-90.9090909090909,4,3,1,70,0,0
132242,-86.9565217391304,4,3,1,70,0,0
133165,-83.3333333333333,4,3,8,80,0,0
133280,-83.3333333333333,4,3,4,80,0,0
133395,-83.3333333333333,4,3,5,80,0,0
133626,-83.3333333333333,4,3,1,80,0,0
134780,-83.3333333333333,4,3,4,80,0,0
134895,-83.3333333333333,4,3,5,80,0,0
135011,-83.3333333333333,4,3,8,80,0,0
135242,-83.3333333333333,4,3,1,80,0,0
136857,-83.3333333333333,4,3,8,80,0,0
137088,-83.3333333333333,4,3,1,80,0,0
137780,-83.3333333333333,4,3,5,80,0,0
138011,-83.3333333333333,4,3,1,80,0,0
138472,-83.3333333333333,4,3,4,80,0,0
138588,-83.3333333333333,4,3,5,80,0,0
138703,-83.3333333333333,4,3,4,80,0,0
138934,-83.3333333333333,4,3,1,80,0,0
140318,-83.3333333333333,4,3,2,80,0,0
140549,-83.3333333333333,4,3,4,80,0,0
140780,-83.3333333333333,4,3,1,80,0,0
141242,-83.3333333333333,4,3,5,80,0,0
141357,-83.3333333333333,4,3,6,80,0,0
141472,-83.3333333333333,4,3,5,80,0,0
141703,-83.3333333333333,4,3,1,80,0,0
142165,-83.3333333333333,4,3,2,80,0,0
142395,-83.3333333333333,4,3,8,80,0,0
142626,-83.3333333333333,4,3,1,80,0,0
143088,-83.3333333333333,4,3,7,80,0,0
143203,-83.3333333333333,4,3,6,80,0,0
143318,-83.3333333333333,4,3,5,80,0,0
143549,-83.3333333333333,4,3,1,80,0,0
144011,-83.3333333333333,4,3,4,80,0,0
144242,-83.3333333333333,4,3,5,80,0,0
144472,-83.3333333333333,4,3,1,80,0,0
144703,-83.3333333333333,4,3,3,80,0,0
144934,-83.3333333333333,4,3,1,80,0,0
145165,-83.3333333333333,4,3,8,80,0,0
145395,-83.3333333333333,4,3,1,80,0,0
145857,-83.3333333333333,4,3,7,80,0,0
145972,-83.3333333333333,4,3,6,80,0,0
146088,-83.3333333333333,4,3,5,80,0,0
146318,-83.3333333333333,4,3,1,80,0,0
146780,-83.3333333333333,4,3,5,80,0,0
146895,-83.3333333333333,4,3,6,80,0,0
147011,-83.3333333333333,4,3,5,80,0,0
147242,-83.3333333333333,4,3,1,80,0,0
155318,-80,4,3,1,90,0,0
159011,-80,4,3,1,65,0,0
161780,-80,4,3,1,90,0,0
162703,-76.9230769230769,4,3,1,100,0,1
177357,-76.9230769230769,4,3,1,100,0,0
177472,-71.4285714285714,4,3,1,100,0,1
192242,-117.647058823529,4,3,1,80,0,0

[Colours]
Combo1 : 255,157,111
Combo2 : 129,211,148
Combo3 : 205,170,50
Combo4 : 167,121,208
Combo5 : 218,94,75
Combo6 : 81,81,255

[HitObjects]
90,229,242,5,0,0:0:0:0:
90,229,703,1,0,0:0:0:0:
90,229,1165,1,0,0:0:0:0:
90,229,1626,1,0,0:0:0:0:
244,272,2088,5,0,0:0:0:0:
244,272,2549,1,0,0:0:0:0:
244,272,3011,1,0,0:0:0:0:
316,237,3242,1,0,0:0:0:0:
316,237,3472,2,0,L|320:138,1,80,0|0,0:0|0:0,0:0:0:0:
428,319,3934,5,0,0:0:0:0:
428,319,4395,1,0,0:0:0:0:
428,319,4857,1,0,0:0:0:0:
428,319,5318,1,0,0:0:0:0:
268,333,5780,5,0,0:0:0:0:
268,333,6242,1,0,0:0:0:0:
196,298,6472,1,0,0:0:0:0:
196,298,6703,2,0,P|197:246|227:197,1,80,0|0,0:0|0:0,0:0:0:0:
111,275,7165,2,0,P|110:327|80:376,1,80,0|0,0:0|0:0,0:0:0:0:
86,100,7626,5,0,0:0:0:0:
86,100,8088,1,0,0:0:0:0:
86,100,8549,1,0,0:0:0:0:
86,100,9011,1,0,0:0:0:0:
242,130,9472,5,0,0:0:0:0:
242,130,9934,1,0,0:0:0:0:
297,71,10165,1,0,0:0:0:0:
297,71,10395,2,0,P|354:78|390:71,1,80,0|0,0:0|0:0,0:0:0:0:
409,97,10742,1,0,0:0:0:0:
409,97,10857,2,0,L|415:188,1,80,0|0,0:0|0:0,0:0:0:0:
228,285,11318,5,0,0:0:0:0:
228,285,11780,1,0,0:0:0:0:
228,285,12242,1,0,0:0:0:0:
228,285,12703,1,0,0:0:0:0:
98,190,13165,1,0,0:0:0:0:
98,190,13626,1,0,0:0:0:0:
143,204,15011,6,0,P|207:214|267:201,1,100,4|2,0:0|0:0,0:0:0:0:
354,168,15472,1,8,0:0:0:0:
119,78,15703,1,2,0:0:0:0:
119,78,15818,1,0,0:0:0:0:
119,78,15934,2,0,P|132:135|105:209,1,100,0|2,0:0|0:0,0:0:0:0:
221,309,16395,2,0,P|208:252|235:178,1,100,8|2,0:0|0:0,0:0:0:0:
391,61,16857,5,0,0:0:0:0:
456,161,17088,1,2,0:0:0:0:
272,75,17318,1,8,0:0:0:0:
391,61,17549,1,2,0:0:0:0:
244,194,17780,2,0,L|128:179,1,100,0|2,0:0|0:0,0:0:0:0:
346,288,18242,2,0,L|462:273,1,100,8|2,0:0|0:0,0:0:0:0:
409,27,18703,6,0,P|392:104|412:141,1,100,0|2,0:0|0:0,0:0:0:0:
470,217,19165,1,8,0:0:0:0:
281,146,19395,1,2,0:0:0:0:
281,146,19511,1,0,0:0:0:0:
281,146,19626,2,0,P|223:133|165:142,1,100,0|2,0:0|0:0,0:0:0:0:
156,254,20088,1,8,0:0:0:0:
267,297,20318,1,2,0:0:0:0:
456,187,20549,6,0,L|323:184,1,100,0|2,0:0|0:0,0:0:0:0:
432,45,21011,2,0,P|465:42|518:60,2,66.6666666666667,8|0|0,0:0|0:0|0:0,0:0:0:0:
464,133,21472,2,0,P|463:185|444:238,1,100,8|2,0:0|0:0,0:0:0:0:
209,235,21934,2,0,P|161:232|134:242,2,66.6666666666667,8|8|8,0:0|0:0|0:0,0:0:0:0:
264,311,22395,6,0,L|259:174,1,100,4|2,0:0|0:0,0:0:0:0:
259,90,22857,1,8,0:0:0:0:
127,312,23088,1,2,0:0:0:0:
127,312,23203,1,0,0:0:0:0:
127,312,23318,2,0,P|185:328|249:313,1,100,0|2,0:0|0:0,0:0:0:0:
350,196,23780,2,0,P|292:180|228:195,1,100,8|2,0:0|0:0,0:0:0:0:
380,351,24242,5,0,0:0:0:0:
438,246,24472,1,2,0:0:0:0:
229,181,24703,1,8,0:0:0:0:
250,299,24933,1,2,0:0:0:0:
418,332,25165,5,0,0:0:0:0:
476,227,25395,1,2,0:0:0:0:
267,162,25626,1,8,0:0:0:0:
288,280,25856,1,2,0:0:0:0:
401,83,26088,6,0,P|320:68|285:42,1,100,4|2,0:0|0:0,0:0:0:0:
265,57,26434,1,0,0:0:0:0:
265,57,26549,2,0,P|250:138|224:173,1,100,8|2,0:0|0:0,0:0:0:0:
254,190,26895,1,0,0:0:0:0:
254,190,27011,2,0,P|335:205|370:231,1,100,0|2,0:0|0:0,0:0:0:0:
378,240,27357,1,0,0:0:0:0:
378,240,27472,2,0,L|449:237,1,50,8|0,0:0|0:0,0:0:0:0:
459,331,27703,5,2,0:0:0:0:
459,331,27818,1,0,0:0:0:0:
459,331,27934,2,0,L|342:338,1,100,0|2,0:0|0:0,0:0:0:0:
296,250,28280,1,0,0:0:0:0:
296,250,28396,2,0,L|413:257,1,100,8|2,0:0|0:0,0:0:0:0:
460,168,28742,1,0,0:0:0:0:
460,168,28857,2,0,L|394:171,3,50,0|8|2|0,0:0|0:0|0:0|0:0,0:0:0:0:
455,86,29318,2,0,L|389:89,3,50,8|0|10|8,0:0|0:0|0:0|0:0,0:0:0:0:
308,96,29780,5,12,0:0:0:0:
126,149,43857,5,8,0:0:0:0:
126,149,44088,2,0,L|126:35,1,100,8|0,0:0|0:0,0:0:0:0:
239,183,44549,6,0,P|178:227|191:327,1,170.000003242493,4|8,0:0|0:0,0:0:0:0:
336,279,45242,1,2,0:0:0:0:
336,279,45472,2,0,P|266:262|247:269,2,85.0000016212464,0|2|8,0:0|0:0|0:0,0:0:0:0:
410,208,46165,5,2,0:0:0:0:
473,128,46395,2,0,P|478:71|503:30,2,85.0000016212464,0|2|8,0:0|0:0|0:0,0:0:0:0:
410,208,47088,1,2,0:0:0:0:
345,129,47318,2,0,P|340:72|315:31,1,85.0000016212464,0|2,0:0|0:0,0:0:0:0:
232,9,47780,1,8,0:0:0:0:
148,67,48011,1,2,0:0:0:0:
206,222,48242,6,0,L|309:211,1,85.0000016212464,0|2,0:0|0:0,0:0:0:0:
449,279,48703,2,0,L|346:268,1,85.0000016212464,8|2,0:0|0:0,0:0:0:0:
215,342,49165,2,0,L|318:331,2,85.0000016212464,0|2|8,0:0|0:0|0:0,0:0:0:0:
124,294,49857,1,2,0:0:0:0:
51,222,50088,6,0,P|38:165|66:114,2,85.0000016212464,0|2|8,0:0|0:0|0:0,0:0:0:0:
124,294,50780,1,2,0:0:0:0:
195,220,51011,2,0,P|208:180|200:138,1,85.0000016212464,0|2,0:0|0:0,0:0:0:0:
295,99,51472,1,10,0:0:0:0:
358,238,51703,1,2,0:0:0:0:
488,46,51934,6,0,P|401:79|392:172,1,170.000003242493,0|8,0:0|0:0,0:0:0:0:
470,221,52626,1,2,0:0:0:0:
470,221,52857,2,0,L|471:128,2,85.0000016212464,0|2|8,0:0|0:0|0:0,0:0:0:0:
375,260,53549,1,2,0:0:0:0:
283,305,53780,6,0,L|283:391,2,85.0000016212464,0|2|8,0:0|0:0|0:0,0:0:0:0:
190,261,54472,1,2,0:0:0:0:
96,219,54703,2,0,L|96:115,1,85.0000016212464,0|2,0:0|0:0,0:0:0:0:
98,321,55165,1,8,0:0:0:0:
106,332,55626,6,0,P|167:335|214:315,1,85.0000016212464,0|2,0:0|0:0,0:0:0:0:
273,269,56088,2,0,P|297:209|295:164,1,85.0000016212464,8|2,0:0|0:0,0:0:0:0:
249,99,56549,2,0,P|211:56|173:47,2,85.0000016212464,0|2|8,0:0|0:0|0:0,0:0:0:0:
298,189,57242,1,2,0:0:0:0:
377,125,57472,6,0,L|461:115,2,85.0000016212464
298,189,58165,1,0,0:0:0:0:
221,255,58395,2,0,L|129:265,2,85.0000016212464,0|0|0,0:0|0:0|0:0,0:0:0:0:
377,54,59318,6,0,B|377:128|377:128|412:203,1,119.999996337891,4|2,0:0|0:0,0:0:0:0:
487,282,59780,1,8,0:0:0:0:
505,139,60011,1,2,0:0:0:0:
358,286,60242,2,0,B|287:310|287:310|213:310,1,119.999996337891,0|2,0:0|0:0,0:0:0:0:
112,246,60703,1,8,0:0:0:0:
165,379,60934,1,2,0:0:0:0:
296,120,61165,5,0,0:0:0:0:
154,144,61395,1,2,0:0:0:0:
317,209,61626,1,8,0:0:0:0:
220,64,61857,1,2,0:0:0:0:
96,258,62088,2,0,P|167:269|231:249,1,119.999996337891,0|2,0:0|0:0,0:0:0:0:
336,63,62549,2,0,P|265:52|201:72,1,119.999996337891,8|2,0:0|0:0,0:0:0:0:
417,324,63011,6,0,B|411:253|411:253|425:168|425:168|414:85,1,239.999992675781,4|8,0:0|0:0,0:0:0:0:
321,310,63703,1,2,0:0:0:0:
321,310,63934,2,0,B|315:239|315:239|329:154|329:154|318:71,1,239.999992675781,0|8,0:0|0:0,0:0:0:0:
227,287,64626,1,2,0:0:0:0:
227,287,64857,6,0,P|169:269|99:284,1,119.999996337891,0|2,0:0|0:0,0:0:0:0:
16,143,65318,2,0,P|74:161|144:146,1,119.999996337891,8|2,0:0|0:0,0:0:0:0:
313,61,65780,1,0,0:0:0:0:
313,61,65895,1,0,0:0:0:0:
313,61,66011,1,2,0:0:0:0:
363,242,66242,1,8,0:0:0:0:
490,98,66472,1,2,0:0:0:0:
344,257,66703,6,0,L|345:131,1,119.999996337891,4|2,0:0|0:0,0:0:0:0:
235,232,67165,1,8,0:0:0:0:
378,228,67395,1,2,0:0:0:0:
207,127,67626,2,0,P|150:164|130:225,1,119.999996337891,0|2,0:0|0:0,0:0:0:0:
301,311,68088,2,0,P|358:274|378:213,1,119.999996337891,8|2,0:0|0:0,0:0:0:0:
211,55,68549,5,0,0:0:0:0:
74,102,68780,1,2,0:0:0:0:
268,188,69011,1,8,0:0:0:0:
211,55,69242,1,2,0:0:0:0:
165,291,69472,5,0,0:0:0:0:
434,259,69703,1,2,0:0:0:0:
157,166,69934,1,8,0:0:0:0:
438,132,70165,1,2,0:0:0:0:
228,39,70395,6,0,P|112:42|9:148,1,239.999992675781,0|8,0:0|0:0,0:0:0:0:
309,141,71088,1,2,0:0:0:0:
309,141,71318,2,0,P|386:128|426:77,1,119.999996337891,0|0,0:0|0:0,0:0:0:0:
228,39,71780,1,8,0:0:0:0:
168,170,72011,1,2,0:0:0:0:
404,278,72242,6,0,L|403:150,1,119.999996337891,8|2,0:0|0:0,0:0:0:0:
168,170,72703,2,0,L|169:298,1,119.999996337891,0|2,0:0|0:0,0:0:0:0:
316,69,73165,1,8,0:0:0:0:
293,76,73280,1,0,0:0:0:0:
269,82,73395,1,2,0:0:0:0:
245,86,73511,1,0,0:0:0:0:
221,85,73626,1,8,0:0:0:0:
108,111,73857,1,10,0:0:0:0:
89,126,73972,1,8,0:0:0:0:
73,145,74088,5,12,0:0:0:0:
134,57,75934,5,2,0:0:0:0:
134,57,76165,2,0,L|255:44,1,100,2|0,0:0|0:0,0:0:0:0:
248,57,77088,6,0,P|203:93|248:198,1,170.000003242493,8|0,0:0|0:0,0:0:0:0:
282,275,77780,6,0,L|157:278,1,100,12|0,0:0|0:0,0:0:0:0:
150,316,78126,2,0,L|275:313,1,100,12|0,0:0|0:0,0:0:0:0:
283,351,78472,2,0,L|6:355,1,255.000004863739,12|0,0:0|0:0,0:0:0:0:
168,37,79626,5,4,0:0:0:0:
305,291,80088,2,0,P|368:301|441:282,1,100,0|0,0:0|0:0,0:0:0:0:
502,195,80549,2,0,P|439:205|366:186,1,100,0|0,0:0|0:0,0:0:0:0:
268,103,81011,2,0,P|331:113|404:94,1,100,0|0,0:0|0:0,0:0:0:0:
168,37,81472,5,4,0:0:0:0:
144,55,83318,6,0,L|160:164,1,85.0000016212464,0|0,0:0|0:0,0:0:0:0:
120,73,85165,6,0,L|136:182,1,85.0000016212464,0|0,0:0|0:0,0:0:0:0:
96,91,87011,6,0,L|112:200,1,85.0000016212464,0|0,0:0|0:0,0:0:0:0:
324,319,103626,6,0,P|331:254|319:188,1,100,4|2,0:0|0:0,0:0:0:0:
294,103,104088,1,8,0:0:0:0:
206,184,104318,1,2,0:0:0:0:
354,337,104549,2,0,P|361:272|349:206,1,100,0|2,0:0|0:0,0:0:0:0:
324,121,105011,1,8,0:0:0:0:
236,202,105241,1,2,0:0:0:0:
341,102,105472,6,0,P|410:92|471:184,1,150,0|0,0:0|0:0,0:0:0:0:
465,142,105934,2,0,P|431:199|463:286,1,150,8|0,0:0|0:0,0:0:0:0:
452,275,106395,1,0,0:0:0:0:
338,312,106626,1,2,0:0:0:0:
229,155,106857,1,8,0:0:0:0:
343,191,107088,1,2,0:0:0:0:
200,325,107318,6,0,B|136:227|238:227|181:130,1,200,0|8,0:0|0:0,0:0:0:0:
100,350,108011,1,2,0:0:0:0:
100,350,108242,2,0,B|36:252|138:252|81:155,1,200,0|8,0:0|0:0,0:0:0:0:
205,51,108934,1,2,0:0:0:0:
205,51,109165,6,0,P|271:71|325:58,1,100,0|0,0:0|0:0,0:0:0:0:
370,164,109626,1,8,0:0:0:0:
271,232,109857,1,2,0:0:0:0:
300,67,110088,1,8,0:0:0:0:
300,67,110203,1,8,0:0:0:0:
300,67,110318,1,2,0:0:0:0:
370,164,110549,1,8,0:0:0:0:
271,232,110780,1,10,0:0:0:0:
84,111,111011,6,0,P|150:100|215:117,1,100,4|2,0:0|0:0,0:0:0:0:
370,164,111472,1,8,0:0:0:0:
271,238,111703,1,2,0:0:0:0:
370,164,111934,6,0,L|374:52,1,102.99999913559,0|2,0:0|0:0,0:0:0:0:
170,184,112395,1,8,0:0:0:0:
273,257,112626,1,2,0:0:0:0:
170,184,112857,6,0,L|167:76,1,106.000000161743,0|2,0:0|0:0,0:0:0:0:
379,199,113318,1,8,0:0:0:0:
274,277,113549,1,2,0:0:0:0:
379,199,113780,6,0,P|391:142|377:73,1,109.000001164246,0|2,0:0|0:0,0:0:0:0:
163,238,114242,1,8,0:0:0:0:
277,306,114472,1,2,0:0:0:0:
163,238,114703,6,0,B|160:202|160:202|170:159|170:159|167:100,1,112.000001367188,0|2,0:0|0:0,0:0:0:0:
392,248,115165,1,8,0:0:0:0:
278,326,115395,1,2,0:0:0:0:
392,248,115626,6,0,L|395:128,1,115.000002193451,0|2,0:0|0:0,0:0:0:0:
161,272,116088,1,8,0:0:0:0:
281,345,116318,1,2,0:0:0:0:
161,272,116549,5,8,0:0:0:0:
158,248,116665,1,8,0:0:0:0:
155,224,116780,1,2,0:0:0:0:
205,89,117011,5,8,0:0:0:0:
205,89,117242,1,10,0:0:0:0:
272,215,117472,1,10,0:0:0:0:
309,63,117703,1,10,0:0:0:0:
380,209,117934,1,10,0:0:0:0:
409,42,118165,1,10,0:0:0:0:
494,201,118395,6,0,P|495:257|431:307,1,100,4|2,0:0|0:0,0:0:0:0:
362,235,118857,1,8,0:0:0:0:
392,118,119088,1,2,0:0:0:0:
465,230,119318,6,0,P|466:286|402:336,1,100,0|2,0:0|0:0,0:0:0:0:
333,264,119780,1,8,0:0:0:0:
363,147,120011,1,2,0:0:0:0:
246,56,120242,6,0,P|174:72|131:60,1,100,0|2,0:0|0:0,0:0:0:0:
60,184,120703,2,0,P|132:168|175:180,1,100,8|2,0:0|0:0,0:0:0:0:
299,307,121165,1,0,0:0:0:0:
123,269,121395,1,2,0:0:0:0:
299,307,121626,1,8,0:0:0:0:
123,269,121857,1,2,0:0:0:0:
327,105,122088,6,0,B|320:185|320:185|330:214|330:214|319:320,1,200,0|8,0:0|0:0,0:0:0:0:
416,92,122780,1,2,0:0:0:0:
416,92,123011,2,0,B|409:172|409:172|419:201|419:201|408:307,1,200,0|8,0:0|0:0,0:0:0:0:
512,82,123703,1,2,0:0:0:0:
512,82,123934,6,0,P|439:95|382:81,1,100,2|2,0:0|0:0,0:0:0:0:
290,92,124395,2,0,P|220:103|173:90,1,100,8|2,0:0|0:0,0:0:0:0:
352,10,124857,1,8,0:0:0:0:
352,10,124972,1,8,0:0:0:0:
352,10,125088,1,2,0:0:0:0:
423,174,125318,1,8,0:0:0:0:
244,148,125549,1,10,0:0:0:0:
84,275,125780,6,0,P|176:295|276:268,2,170.000003242493,4|8|0,0:0|0:0|0:0,0:0:0:0:
168,129,126934,1,2,0:0:0:0:
168,129,127165,2,0,L|169:228,1,85.0000016212464,8|2,0:0|0:0,0:0:0:0:
252,42,127626,6,0,P|168:27|86:47,2,170.000003242493,0|8|0,0:0|0:0|0:0,0:0:0:0:
258,70,129011,1,8,0:0:0:0:
358,51,129242,1,10,0:0:0:0:
457,30,129472,6,0,L|447:221,2,170.000003242493,0|8|0,0:0|0:0|0:0,0:0:0:0:
456,49,130857,1,8,0:0:0:0:
451,75,131318,6,0,P|370:88|328:83,1,104.999996795654,0|2,0:0|0:0,0:0:0:0:
195,154,131780,2,0,P|265:164|316:155,1,110.000003356934,12|2,0:0|0:0,0:0:0:0:
472,235,132242,2,0,P|412:245|354:236,1,115.000002193451,0|10,0:0|0:0,0:0:0:0:
187,305,132703,1,8,0:0:0:0:
323,328,132934,1,10,0:0:0:0:
310,119,133165,5,6,0:0:0:0:
310,119,133280,1,2,0:0:0:0:
310,119,133395,1,2,0:0:0:0:
199,211,133626,1,8,0:0:0:0:
95,110,133857,1,0,0:0:0:0:
310,119,134088,2,0,P|329:207|312:270,1,119.999996337891,0|8,0:0|0:0,0:0:0:0:
261,365,134549,1,8,0:0:0:0:
54,199,134780,1,2,0:0:0:0:
54,199,134895,1,2,0:0:0:0:
54,199,135011,6,0,P|146:217|194:187,1,119.999996337891,2|8,0:0|0:0,0:0:0:0:
245,87,135472,1,8,0:0:0:0:
302,219,135703,1,0,0:0:0:0:
444,29,135934,2,0,P|375:16|322:41,1,119.999996337891,0|8,0:0|0:0,0:0:0:0:
398,161,136395,1,8,0:0:0:0:
164,256,136626,1,0,0:0:0:0:
164,256,136742,1,0,0:0:0:0:
164,256,136857,6,0,L|22:245,1,119.999996337891,2|8,0:0|0:0,0:0:0:0:
220,127,137318,1,8,0:0:0:0:
283,256,137549,1,0,0:0:0:0:
366,31,137780,2,0,L|378:172,1,119.999996337891,2|8,0:0|0:0,0:0:0:0:
387,294,138242,1,8,0:0:0:0:
220,127,138472,1,2,0:0:0:0:
220,127,138588,1,2,0:0:0:0:
220,127,138703,6,0,P|159:112|91:140,1,119.999996337891,2|8,0:0|0:0,0:0:0:0:
51,262,139165,1,8,0:0:0:0:
191,231,139395,1,0,0:0:0:0:
397,316,139626,2,0,L|260:310,1,119.999996337891,0|8,0:0|0:0,0:0:0:0:
132,304,140088,1,8,0:0:0:0:
234,83,140318,1,2,0:0:0:0:
234,83,140549,6,0,P|225:167|253:216,1,119.999996337891,6|8,0:0|0:0,0:0:0:0:
371,140,141011,1,8,0:0:0:0:
171,358,141242,1,2,0:0:0:0:
171,358,141357,1,2,0:0:0:0:
171,358,141472,2,0,P|180:274|152:225,1,119.999996337891,2|8,0:0|0:0,0:0:0:0:
73,132,141934,1,8,0:0:0:0:
286,261,142165,1,2,0:0:0:0:
286,261,142395,6,0,L|415:250,1,119.999996337891,2|8,0:0|0:0,0:0:0:0:
500,360,142857,1,8,0:0:0:0:
424,139,143088,1,2,0:0:0:0:
424,139,143203,1,2,0:0:0:0:
424,139,143318,2,0,P|364:162|311:150,1,119.999996337891,2|8,0:0|0:0,0:0:0:0:
213,43,143780,1,8,0:0:0:0:
90,263,144011,1,2,0:0:0:0:
90,263,144242,6,0,L|215:257,1,119.999996337891,2|8,0:0|0:0,0:0:0:0:
460,182,144703,2,0,L|335:176,1,119.999996337891,10|0,0:0|0:0,0:0:0:0:
107,101,145165,2,0,L|232:95,1,119.999996337891,2|8,0:0|0:0,0:0:0:0:
370,83,145626,1,8,0:0:0:0:
305,328,145857,1,2,0:0:0:0:
305,328,145972,1,2,0:0:0:0:
305,328,146088,6,0,P|295:253|314:204,1,119.999996337891,2|8,0:0|0:0,0:0:0:0:
370,83,146549,1,8,0:0:0:0:
146,28,146780,1,2,0:0:0:0:
146,28,146895,1,2,0:0:0:0:
146,28,147011,2,0,P|156:103|137:152,1,119.999996337891,2|8,0:0|0:0,0:0:0:0:
63,305,147472,5,8,0:0:0:0:
86,308,147588,1,8,0:0:0:0:
109,308,147703,1,8,0:0:0:0:
132,306,147818,1,8,0:0:0:0:
155,301,147934,6,0,L|156:170,1,119.999996337891,12|0,0:0|0:0,0:0:0:0:
155,36,148395,1,8,0:0:0:0:
155,36,148626,1,0,0:0:0:0:
189,310,148857,6,0,L|190:179,1,119.999996337891,0|0,0:0|0:0,0:0:0:0:
189,45,149318,1,8,0:0:0:0:
189,45,149549,1,0,0:0:0:0:
234,299,149780,6,0,L|235:168,1,119.999996337891,0|0,0:0|0:0,0:0:0:0:
234,34,150241,1,8,0:0:0:0:
234,34,150472,1,0,0:0:0:0:
279,306,150703,6,0,L|280:175,1,119.999996337891,0|8,0:0|0:0,0:0:0:0:
279,41,151164,1,8,0:0:0:0:
279,41,151395,1,0,0:0:0:0:
445,266,151626,6,0,L|280:277,1,119.999996337891,0|0,0:0|0:0,0:0:0:0:
181,288,152088,1,8,0:0:0:0:
181,288,152318,1,0,0:0:0:0:
0,183,152549,6,0,L|165:194,1,119.999996337891,0|0,0:0|0:0,0:0:0:0:
264,205,153011,1,8,0:0:0:0:
264,205,153241,1,0,0:0:0:0:
457,91,153472,6,0,L|292:102,1,119.999996337891,0|0,0:0|0:0,0:0:0:0:
193,113,153934,1,8,0:0:0:0:
193,113,154164,1,0,0:0:0:0:
12,8,154395,6,0,L|177:19,1,119.999996337891,0|8,0:0|0:0,0:0:0:0:
276,30,154857,1,8,0:0:0:0:
276,30,155087,1,0,0:0:0:0:
161,359,155318,6,0,L|146:217,1,125,4|0,0:0|0:0,0:0:0:0:
131,84,155780,1,8,0:0:0:0:
131,84,156011,1,0,0:0:0:0:
361,317,156242,6,0,L|371:186,1,125,0|0,0:0|0:0,0:0:0:0:
382,42,156703,1,8,0:0:0:0:
382,42,156934,1,0,0:0:0:0:
117,290,157165,6,0,L|102:148,1,125,0|8,0:0|0:0,0:0:0:0:
87,15,157627,1,8,0:0:0:0:
87,15,157858,1,0,0:0:0:0:
339,131,158088,5,0,0:0:0:0:
278,267,158318,1,8,0:0:0:0:
254,276,158434,1,8,0:0:0:0:
229,282,158549,1,8,0:0:0:0:
204,286,158665,1,8,0:0:0:0:
179,286,158780,1,8,0:0:0:0:
154,281,158895,1,8,0:0:0:0:
130,271,159011,5,12,0:0:0:0:
77,186,159472,1,0,0:0:0:0:
102,89,159934,1,0,0:0:0:0:
189,39,160395,1,0,0:0:0:0:
289,41,160857,1,0,0:0:0:0:
374,92,161318,1,0,0:0:0:0:
420,180,161780,5,2,0:0:0:0:
371,267,162011,1,2,0:0:0:0:
278,305,162242,1,2,0:0:0:0:
179,291,162472,1,2,0:0:0:0:
95,228,162703,6,0,B|93:142|93:142|123:71,1,129.999994049073,4|2,0:0|0:0,0:0:0:0:
258,49,163165,1,8,0:0:0:0:
215,198,163395,1,2,0:0:0:0:
21,42,163626,2,0,B|98:24|98:24|164:34,1,129.999994049073,0|2,0:0|0:0,0:0:0:0:
286,105,164088,1,8,0:0:0:0:
146,173,164318,1,2,0:0:0:0:
391,302,164549,5,0,0:0:0:0:
418,148,164780,1,2,0:0:0:0:
272,205,165011,1,8,0:0:0:0:
391,302,165242,1,2,0:0:0:0:
448,114,165472,5,0,0:0:0:0:
206,164,165703,1,2,0:0:0:0:
460,251,165934,1,8,0:0:0:0:
213,295,166165,1,2,0:0:0:0:
373,348,166395,6,0,B|383:264|383:264|360:185|360:185|380:75,1,259.999988098145,4|8,0:0|0:0,0:0:0:0:
280,356,167088,1,2,0:0:0:0:
280,356,167318,2,0,B|290:272|290:272|267:193|267:193|287:83,1,259.999988098145,0|8,0:0|0:0,0:0:0:0:
196,368,168011,1,2,0:0:0:0:
196,368,168242,6,0,P|117:349|63:368,1,129.999994049073,0|2,0:0|0:0,0:0:0:0:
237,242,168703,2,0,P|316:261|370:242,1,129.999994049073,8|2,0:0|0:0,0:0:0:0:
281,44,169165,5,0,0:0:0:0:
34,80,169395,1,2,0:0:0:0:
284,160,169626,1,8,0:0:0:0:
32,198,169857,1,10,0:0:0:0:
206,276,170088,6,0,L|343:281,1,129.999994049073,4|2,0:0|0:0,0:0:0:0:
491,289,170549,1,8,0:0:0:0:
363,379,170780,1,2,0:0:0:0:
370,181,171011,2,0,P|394:122|463:92,1,129.999994049073,0|2,0:0|0:0,0:0:0:0:
475,246,171472,1,8,0:0:0:0:
318,244,171703,1,2,0:0:0:0:
138,85,171934,5,0,0:0:0:0:
294,79,172165,1,2,0:0:0:0:
177,182,172395,1,8,0:0:0:0:
216,31,172626,1,2,0:0:0:0:
358,215,172857,5,0,0:0:0:0:
97,214,173088,1,2,0:0:0:0:
342,332,173318,1,8,0:0:0:0:
71,330,173549,1,2,0:0:0:0:
254,364,173780,6,0,B|207:198|323:267|259:105,1,259.999988098145,0|8,0:0|0:0,0:0:0:0:
349,378,174472,1,2,0:0:0:0:
349,378,174703,2,0,B|302:212|418:281|354:119,1,259.999988098145,0|8,0:0|0:0,0:0:0:0:
441,384,175395,1,2,0:0:0:0:
441,384,175626,2,0,P|428:305|455:251,1,129.999994049073,0|2,0:0|0:0,0:0:0:0:
414,35,176088,5,4,0:0:0:0:
408,73,176203,1,0,0:0:0:0:
388,106,176318,1,2,0:0:0:0:
355,128,176434,1,0,0:0:0:0:
316,135,176549,5,8,0:0:0:0:
277,125,176665,1,8,0:0:0:0:
250,96,176780,1,10,0:0:0:0:
213,82,176895,1,8,0:0:0:0:
173,79,177011,5,8,0:0:0:0:
138,97,177126,1,8,0:0:0:0:
114,128,177242,1,10,0:0:0:0:
106,166,177357,1,8,0:0:0:0:
114,204,177472,6,0,P|185:216|259:202,1,139.999995727539,4|2,0:0|0:0,0:0:0:0:
398,121,177934,1,8,0:0:0:0:
244,52,178165,1,2,0:0:0:0:
109,231,178395,2,0,P|180:243|254:229,1,139.999995727539,0|2,0:0|0:0,0:0:0:0:
393,148,178857,1,8,0:0:0:0:
239,79,179088,1,2,0:0:0:0:
335,316,179318,5,0,0:0:0:0:
478,228,179549,1,2,0:0:0:0:
320,224,179780,1,8,0:0:0:0:
471,330,180011,1,2,0:0:0:0:
391,68,180242,5,0,0:0:0:0:
335,316,180472,1,10,0:0:0:0:
252,302,180703,1,10,0:0:0:0:
168,288,180934,1,10,0:0:0:0:
249,10,181165,6,0,P|267:90|249:165,1,139.999995727539,6|2,0:0|0:0,0:0:0:0:
168,288,181626,1,8,0:0:0:0:
127,124,181857,1,2,0:0:0:0:
285,28,182088,2,0,P|303:108|285:183,1,139.999995727539,2|2,0:0|0:0,0:0:0:0:
204,306,182549,1,8,0:0:0:0:
163,142,182780,1,2,0:0:0:0:
457,152,183011,5,0,0:0:0:0:
378,300,183242,1,2,0:0:0:0:
311,146,183472,1,8,0:0:0:0:
492,258,183703,1,2,0:0:0:0:
166,268,183934,5,0,0:0:0:0:
373,34,184165,1,10,0:0:0:0:
379,117,184395,1,10,0:0:0:0:
385,200,184626,1,10,0:0:0:0:
181,318,184857,6,0,P|170:218|184:167,1,139.999995727539,4|2,0:0|0:0,0:0:0:0:
313,281,185318,1,8,0:0:0:0:
144,281,185549,1,2,0:0:0:0:
319,31,185780,1,0,0:0:0:0:
442,145,186011,1,2,0:0:0:0:
262,141,186242,1,8,0:0:0:0:
465,30,186472,1,2,0:0:0:0:
382,239,186703,6,0,B|313:229|313:229|229:244,1,139.999995727539,0|2,0:0|0:0,0:0:0:0:
86,302,187165,1,8,0:0:0:0:
247,347,187395,1,2,0:0:0:0:
190,72,187626,5,0,0:0:0:0:
86,302,187857,1,10,0:0:0:0:
166,325,188088,1,10,0:0:0:0:
247,347,188318,1,10,0:0:0:0:
407,248,188549,6,0,B|397:168|397:168|423:84,1,139.999995727539,2|0,0:0|0:0,0:0:0:0:
301,12,189011,2,0,B|311:92|311:92|285:176,1,139.999995727539,8|2,0:0|0:0,0:0:0:0:
103,339,189472,2,0,L|95:187,1,139.999995727539,2|0,0:0|0:0,0:0:0:0:
201,60,189934,1,8,0:0:0:0:
286,227,190165,1,2,0:0:0:0:
403,65,190395,2,0,P|402:155|436:238,1,139.999995727539,4|2,0:0|0:0,0:0:0:0:
299,364,190857,2,0,P|300:274|266:191,1,139.999995727539,4|2,0:0|0:0,0:0:0:0:
148,77,191318,5,0,0:0:0:0:
385,211,191549,1,2,0:0:0:0:
130,210,191780,1,10,0:0:0:0:
355,76,192011,1,10,0:0:0:0:
491,341,192242,6,0,P|441:353|382:333,1,85.0000016212464,4|2,0:0|0:0,0:0:0:0:
331,232,192703,2,0,L|426:238,1,85.0000016212464,8|2,0:0|0:0,0:0:0:0:
319,346,193165,2,0,P|269:358|210:338,1,85.0000016212464,0|2,0:0|0:0,0:0:0:0:
246,226,193626,2,0,L|341:232,1,85.0000016212464,8|2,0:0|0:0,0:0:0:0:
451,117,194088,6,0,P|468:68|457:29,1,85.0000016212464,0|2,0:0|0:0,0:0:0:0:
341,59,194549,2,0,L|342:150,1,85.0000016212464,8|2,0:0|0:0,0:0:0:0:
233,227,195011,2,0,P|212:177|225:119,1,85.0000016212464,0|2,0:0|0:0,0:0:0:0:
341,143,195472,2,0,L|342:234,1,85.0000016212464,8|2,0:0|0:0,0:0:0:0:
108,289,195934,6,0,P|54:276|15:291,1,85.0000016212464,0|2,0:0|0:0,0:0:0:0:
58,169,196395,2,0,L|152:177,1,85.0000016212464,8|2,0:0|0:0,0:0:0:0:
280,299,196857,2,0,P|226:286|187:301,1,85.0000016212464,0|2,0:0|0:0,0:0:0:0:
142,176,197318,2,0,L|236:184,1,85.0000016212464,8|2,0:0|0:0,0:0:0:0:
280,47,197780,6,0,P|298:109|284:139,1,85.0000016212464,0|2,0:0|0:0,0:0:0:0:
393,161,198242,2,0,L|383:65,1,85.0000016212464,8|2,0:0|0:0,0:0:0:0:
482,135,198703,2,0,P|492:189|529:219,1,85.0000016212464,0|2,0:0|0:0,0:0:0:0:
401,245,199165,2,0,L|391:149,1,85.0000016212464,8|2,0:0|0:0,0:0:0:0:
306,312,199626,5,4,0:0:0:0:
137,286,200088,1,8,0:0:0:0:
306,312,200549,1,0,0:0:0:0:
137,286,201011,1,8,0:0:0:0:
352,223,201472,5,0,0:0:0:0:
183,197,201934,1,8,0:0:0:0:
352,223,202395,1,0,0:0:0:0:
183,197,202857,1,8,0:0:0:0:
408,139,203318,5,0,0:0:0:0:
239,113,203780,1,8,0:0:0:0:
408,139,204241,1,0,0:0:0:0:
239,113,204703,1,8,0:0:0:0:
465,58,205165,5,0,0:0:0:0:
296,32,205627,1,8,0:0:0:0:
465,58,206088,5,0,0:0:0:0:
296,32,206318,1,4,0:0:0:0:
270,201,206549,1,4,0:0:0:0:
439,227,206780,1,4,0:0:0:0:
