osu file format v14

[General]
AudioFilename: audio.mp3
AudioLeadIn: 0
PreviewTime: 158999
Countdown: 0
SampleSet: None
StackLeniency: 0.7
Mode: 0
LetterboxInBreaks: 0
WidescreenStoryboard: 0

[Editor]
Bookmarks: 59480,74076,103614,133153
DistanceSpacing: 0.9
BeatDivisor: 8
GridSize: 4
TimelineZoom: 1

[Metadata]
Title:world.execute(Me);
TitleUnicode:world.execute(Me);
Artist:Mili
ArtistUnicode:Mili
Creator:Chai the Tea
Version:AR-Lowo
Source:
Tags:
BeatmapID:2058821
BeatmapSetID:983960

[Difficulty]
HPDrainRate:3
CircleSize:5
OverallDifficulty:9
ApproachRate:6
SliderMultiplier:1.4
SliderTickRate:1

[Events]
//Background and Video events
0,0,"milibackground.jpg",0,0
//Break Periods
//Storyboard Layer 0 (Background)
//Storyboard Layer 1 (Fail)
//Storyboard Layer 2 (Pass)
//Storyboard Layer 3 (Foreground)
//Storyboard Sound Samples

[TimingPoints]
-1616,461.538461538462,4,3,1,52,1,0
14999,-133.333333333333,4,2,1,52,0,0
29768,-80,4,2,1,52,0,0
32768,-44.4444444444445,4,2,1,52,0,0
33460,-80,4,2,1,52,0,0
36460,-44.4444444444445,4,2,1,52,0,0
37153,-80,4,2,1,52,0,0
40384,-44.4444444444445,4,2,1,52,0,0
40845,-80,4,2,1,52,0,0
43614,-44.4444444444445,4,2,1,52,0,0
44537,-58.8235294117647,4,2,1,52,0,0
81922,-80,4,2,1,52,0,0
85614,-44.4444444444445,4,2,1,52,0,0
86537,-80,4,2,1,52,0,0
92999,-44.4444444444445,4,2,1,52,0,0
94845,-80,4,2,1,52,0,0
96230,-44.4444444444445,4,2,1,52,0,0
105460,-133.333333333333,4,2,1,52,0,0
120230,-44.4444444444445,4,2,1,52,0,0
125768,-133.333333333333,4,2,1,52,0,0
133153,-66.6666666666667,4,2,1,52,0,0
160845,-33.3333333333333,4,2,1,52,0,0
161249,-66.6666666666667,4,2,1,52,0,0
200768,-133.333333333333,4,2,1,52,0,0
203999,-66.6666666666667,4,2,1,52,0,0
205384,-166.666666666667,4,2,1,52,0,0

[Colours]
Combo1 : 223,57,57
Combo2 : 27,101,98
Combo3 : 72,200,139
Combo4 : 162,215,51
Combo5 : 226,177,29

[HitObjects]
163,130,230,6,0,P|236:107|269:126,1,105
183,226,691,2,0,P|155:183|160:153,1,70
324,214,1037,1,0,0:0:0:0:
300,213,1153,2,0,P|227:236|194:217,1,105
282,142,1614,2,0,P|296:189|277:222,1,70
99,130,2076,2,0,P|142:131|187:150,1,70
142,64,2537,2,0,P|141:107|122:152,1,70
73,54,2999,2,0,P|116:55|161:74,1,70
71,123,3460,2,0,P|67:80|81:33,1,70
264,365,3922,6,0,P|263:288|235:262,1,105
166,376,4383,2,0,P|215:389|242:375,1,70
134,238,4729,1,0,0:0:0:0:
142,261,4845,2,0,P|142:337|170:363,1,105
296,343,5307,2,0,P|336:328|386:338,1,70
508,324,5768,2,0,P|497:282|450:263,1,70
384,359,6230,2,0,P|424:343|438:294,1,70
308,264,6691,2,0,P|340:293|389:283,1,70
393,165,7153,2,0,P|367:199|382:248,1,70
376,32,7615,6,0,P|375:108|347:134,1,105
278,21,8076,2,0,P|327:7|354:21,1,70
246,159,8422,1,0,0:0:0:0:
254,136,8538,2,0,P|254:59|282:33,1,105
225,134,8999,2,0,P|191:120|135:120,1,70
0,72,9460,2,0,P|34:58|90:58,1,70
144,53,9922,2,0,P|178:39|234:39,1,70
144,53,10384,2,0,P|178:39|234:39,1,70
0,72,10845,2,0,P|34:58|90:58,1,70
24,223,11307,6,0,P|24:299|52:325,1,105
122,212,11768,2,0,P|72:198|45:212,1,70
154,350,12114,1,0,0:0:0:0:
146,327,12230,2,0,P|145:250|117:224,1,105
86,148,12691,2,0,P|151:191|109:239,1,140
267,333,13384,1,0,0:0:0:0:
398,357,13614,1,0,0:0:0:0:
398,357,13845,1,0,0:0:0:0:
316,176,14076,1,0,0:0:0:0:
459,205,14307,1,0,0:0:0:0:
464,203,14537,1,0,0:0:0:0:
316,176,14768,1,0,0:0:0:0:
61,267,14999,6,0,P|57:298|45:326,1,52.5000020027161
72,119,15460,1,0,0:0:0:0:
147,113,15691,1,2,0:0:0:0:
84,246,15922,2,0,P|106:284|100:300,1,52.5000020027161,0|2,0:0|0:0,0:0:0:0:
150,107,16384,1,0,0:0:0:0:
72,111,16614,1,2,0:0:0:0:
100,206,16845,2,0,P|132:225|142:256,1,52.5000020027161,0|2,0:3|0:3,0:3:0:0:
66,99,17307,1,0,0:0:0:0:
153,95,17537,1,2,0:0:0:0:
102,156,17768,2,0,P|152:160|161:162,1,52.5000020027161,0|2,0:0|0:0,0:0:0:0:
56,80,18230,1,0,0:0:0:0:
151,83,18460,1,2,0:0:0:0:
275,119,18691,5,0,0:0:0:0:
267,0,18922,1,2,0:0:0:0:
37,16,19153,2,0,P|36:48|47:78,1,52.5000020027161,0|2,0:0|0:0,0:0:0:0:
76,61,19614,2,0,P|88:90|110:114,1,52.5000020027161,0|2,0:0|0:0,0:0:0:0:
277,141,20076,1,0,0:0:0:0:
280,15,20307,1,2,0:0:0:0:
112,89,20537,2,0,P|137:108|168:116,1,52.5000020027161,0|2,0:0|0:0,0:0:0:0:
281,157,20999,1,0,0:0:0:0:
296,13,21230,1,2,0:0:0:0:
309,13,21460,1,0,0:0:0:0:
300,83,21576,1,0,0:0:0:0:
288,150,21691,1,2,0:0:0:0:
151,90,21922,2,0,P|181:100|213:98,1,52.5000020027161,0|2,0:0|0:0,0:0:0:0:
304,74,22268,1,0,0:0:0:0:
416,131,22384,6,0,P|373:129|349:121,1,52.5000020027161,0|2,0:0|0:0,0:0:0:0:
419,264,22845,1,0,0:0:0:0:
312,240,23076,1,2,0:0:0:0:
357,258,23191,1,0,0:0:0:0:
410,274,23307,1,0,0:0:0:0:
444,181,23537,2,0,P|414:187|376:189,1,52.5000020027161,2|0,0:0|0:0,0:0:0:0:
410,274,23999,1,2,0:0:0:0:
491,227,24230,2,0,P|453:245|428:250,1,52.5000020027161,0|2,0:0|0:0,0:0:0:0:
296,227,24691,1,0,0:0:0:0:
414,267,24922,1,2,0:0:0:0:
352,257,25037,1,0,0:0:0:0:
294,219,25153,1,0,0:0:0:0:
512,270,25384,2,0,P|482:300|461:314,1,52.5000020027161,2|0,0:0|0:0,0:0:0:0:
305,214,25845,1,2,0:0:0:0:
366,384,26076,5,0,0:0:0:0:
311,297,26307,2,0,P|357:299|385:309,1,52.5000020027161,2|0,0:0|0:0,0:0:0:0:
264,383,26768,1,2,0:0:0:0:
369,376,26999,1,0,0:0:0:0:
255,370,27230,1,2,0:0:0:0:
280,276,27460,2,0,P|323:261|353:260,1,52.5000020027161,0|2,0:0|0:0,0:0:0:0:
246,266,27922,6,0,P|280:235|307:223,1,52.5000020027161,0|2,0:0|0:0,0:0:0:0:
258,365,28384,1,0,0:0:0:0:
369,368,28614,1,2,0:0:0:0:
374,359,28845,1,0,0:0:0:0:
313,356,28960,1,0,0:0:0:0:
256,355,29076,1,2,0:0:0:0:
107,288,29307,1,0,0:0:0:0:
103,270,29537,1,2,0:0:0:0:
167,272,29653,1,0,0:0:0:0:
227,274,29768,6,0,B|231:197|231:197|168:207,1,131.25
81,137,30230,2,0,B|77:214|77:214|105:205,1,87.5
240,181,30576,1,0,0:0:0:0:
185,186,30691,1,0,0:0:0:0:
82,106,30922,1,0,0:0:0:0:
68,221,31153,2,0,L|178:207,1,87.5
217,359,31614,1,0,0:0:0:0:
218,295,31845,1,0,0:0:0:0:
240,185,32076,1,0,0:0:0:0:
167,196,32307,1,0,0:0:0:0:
61,151,32537,1,0,0:0:0:0:
90,79,32768,2,0,L|74:222,1,118.125004506111
71,223,32999,2,0,L|205:201,1,118.125004506111
201,206,33230,2,0,L|193:333,1,118.125004506111
434,368,33460,6,0,B|474:341|488:288|471:243,1,131.25
284,332,33922,2,0,P|315:370|356:383,1,87.5
267,264,34268,1,0,0:0:0:0:
278,326,34384,2,0,P|319:193|348:181,1,175
453,214,35076,1,0,0:0:0:0:
385,180,35307,1,0,0:0:0:0:
422,190,35537,1,0,0:0:0:0:
467,242,35768,1,0,0:0:0:0:
452,213,35999,1,0,0:0:0:0:
477,283,36230,1,0,0:0:0:0:
434,367,36460,2,0,P|474:311|466:242,1,118.125004506111
443,207,36691,2,0,P|380:177|314:197,1,118.125004506111
281,236,36922,2,0,P|270:260|289:322,1,78.7500030040742
62,301,37153,6,0,P|78:217|100:156,1,131.25
160,38,37614,2,0,P|175:76|183:129,1,87.5
185,249,37960,1,0,0:0:0:0:
205,312,38076,6,0,P|221:228|243:167,1,131.25
282,93,38537,1,0,0:0:0:0:
318,39,38768,1,0,0:0:0:0:
355,100,38999,2,0,P|364:129|371:198,1,87.5
386,321,39460,1,0,0:0:0:0:
403,246,39691,1,0,0:0:0:0:
442,179,39922,1,0,0:0:0:0:
398,237,40153,1,0,0:0:0:0:
397,50,40384,2,0,L|401:193,1,118.125004506111
400,179,40614,2,0,L|404:322,1,118.125004506111
324,258,40845,5,0,0:0:0:0:
273,212,41076,1,0,0:0:0:0:
203,220,41307,1,0,0:0:0:0:
200,290,41537,1,0,0:0:0:0:
297,295,41768,1,0,0:0:0:0:
253,322,41884,1,0,0:0:0:0:
363,267,42114,1,0,0:0:0:0:
429,247,42460,1,0,0:0:0:0:
457,290,42691,1,0,0:0:0:0:
425,333,42922,1,0,0:0:0:0:
381,334,43153,1,0,0:0:0:0:
354,299,43384,1,0,0:0:0:0:
105,112,43614,2,0,B|101:189|101:189|144:192,1,118.125004506111
229,163,43845,2,0,L|227:240,1,39.3750015020371
300,179,44076,2,0,B|300:208|300:208|311:172|322:166|322:166|339:181|348:210|348:210|364:162|382:170|382:170|393:187|396:232,1,236.250009012223
229,348,44537,5,0,0:0:0:0:
133,340,44768,1,0,0:0:0:0:
314,227,44999,2,0,L|309:283,1,43.75
133,327,45460,1,0,0:0:0:0:
225,336,45691,1,0,0:0:0:0:
314,227,45922,2,0,L|309:283,1,43.75
141,305,46153,1,0,0:0:0:0:
156,93,46384,1,0,0:0:0:0:
224,328,46614,1,0,0:0:0:0:
314,227,46845,2,0,L|309:278,1,39.3750015020371
225,313,47076,1,0,0:0:0:0:
153,82,47307,1,0,0:0:0:0:
123,307,47537,2,0,L|123:404,1,87.5
149,64,47999,1,0,0:0:0:0:
76,200,48230,6,0,P|166:212|194:169,1,131.25
196,152,48691,2,0,P|169:124|69:120,1,131.25
132,171,49153,1,0,0:0:0:0:
412,177,49384,1,0,0:0:0:0:
452,204,49614,2,0,P|380:226|358:217,1,87.5
305,62,50076,2,0,B|325:79|335:96|337:104,1,43.75
402,117,50307,2,0,P|367:136|357:184,1,87.5
306,60,50768,2,0,B|326:80|336:97|338:105,1,43.75
403,118,50999,2,0,P|368:137|358:185,1,87.5
420,279,51460,1,0,0:0:0:0:
448,181,51691,1,0,0:0:0:0:
467,83,51922,6,0,P|367:66|331:80,1,131.25
212,118,52384,1,0,0:0:0:0:
234,111,52614,1,0,0:0:0:0:
252,293,52845,1,0,0:0:0:0:
271,287,53076,1,0,0:0:0:0:
479,232,53307,2,0,L|382:262,1,87.5
455,81,53768,1,0,0:0:0:0:
271,287,53999,2,0,L|181:313,2,87.5
222,110,54691,1,0,0:0:0:0:
484,234,54922,1,0,0:0:0:0:
488,306,55153,1,0,0:0:0:0:
453,363,55384,1,0,0:0:0:0:
383,266,55614,6,0,P|337:245|307:278,1,87.5
133,219,56076,2,0,P|157:250|175:305,1,87.5
311,202,56537,2,0,P|291:227|288:283,1,87.5
165,152,56999,1,0,0:0:0:0:
241,322,57230,1,0,0:0:0:0:
210,183,57460,2,0,L|221:282,1,87.5
160,153,57922,1,0,0:0:0:0:
250,325,58153,1,0,0:0:0:0:
210,183,58384,2,0,L|221:282,1,87.5
261,341,58787,1,0,0:0:0:0:
0,50,59307,5,0,0:0:0:0:
0,44,59768,1,0,0:0:0:0:
225,57,59999,1,0,0:0:0:0:
0,36,60230,1,0,0:0:0:0:
1,28,60691,1,0,0:0:0:0:
226,50,60922,1,0,0:0:0:0:
59,186,61153,6,0,P|54:211|73:282,1,89.2500017023087
70,186,61384,2,0,P|75:211|56:282,1,89.2500017023087
437,198,61614,6,0,P|449:240|445:284,1,89.2500017023087
433,284,61845,2,0,P|428:259|447:188,1,89.2500017023087
72,272,62076,2,0,P|77:247|58:176,1,89.2500017023087
68,273,62307,2,0,P|63:248|82:177,1,89.2500017023087
441,284,62537,6,0,P|453:241|449:197,1,89.2500017023087
437,198,62768,2,0,P|432:242|445:284,1,89.2500017023087
501,14,62999,5,0,0:0:0:0:
493,15,63460,1,0,0:0:0:0:
266,76,63691,1,0,0:0:0:0:
481,20,63922,1,0,0:0:0:0:
473,20,64384,1,0,0:0:0:0:
246,81,64615,1,0,0:0:0:0:
509,281,64845,6,0,P|484:272|412:283,1,89.2500017023087
507,291,65076,2,0,P|481:292|413:265,1,89.2500017023087
61,59,65306,6,0,P|73:101|69:145,1,89.2500017023087
57,145,65537,2,0,P|52:120|71:49,1,89.2500017023087
438,185,65768,1,0,0:0:0:0:
447,243,65884,1,0,0:0:0:0:
421,293,65999,2,0,P|416:268|435:197,1,89.2500017023087
73,144,66229,6,0,P|77:100|65:58,1,89.2500017023087
66,58,66460,2,0,P|53:101|57:145,1,89.2500017023087
0,114,66691,5,0,0:0:0:0:
1,100,67153,1,0,0:0:0:0:
226,38,67384,1,0,0:0:0:0:
96,164,67614,2,0,P|104:203|94:254,1,89.2500017023087
84,246,67845,2,0,P|92:285|82:336,1,89.2500017023087
83,333,68076,2,0,P|75:294|85:243,1,89.2500017023087
95,76,68307,2,0,P|87:115|97:166,1,89.2500017023087
214,271,68537,6,0,P|206:310|216:361,1,89.2500017023087
226,270,68768,2,0,P|234:309|224:360,1,89.2500017023087
255,91,68999,6,0,P|263:47|254:3,1,89.2500017023087
243,2,69230,2,0,P|234:45|242:89,1,89.2500017023087
214,271,69460,6,0,P|206:310|216:361,1,89.2500017023087
226,270,69691,2,0,P|234:309|224:360,1,89.2500017023087
242,89,69922,6,0,P|233:45|242:1,1,89.2500017023087
253,3,70153,2,0,P|261:46|253:90,1,89.2500017023087
486,3,70384,5,0,0:0:0:0:
486,17,70614,1,0,0:0:0:0:
423,32,70730,1,0,0:0:0:0:
358,47,70845,1,0,0:0:0:0:
356,77,71076,1,0,0:0:0:0:
351,91,71307,1,0,0:0:0:0:
344,106,71537,1,0,0:0:0:0:
280,98,71653,1,0,0:0:0:0:
214,89,71768,1,0,0:0:0:0:
205,115,71999,1,0,0:0:0:0:
115,188,72230,2,0,P|196:191|313:256,1,208.250003972054
113,203,72691,2,0,P|215:211|304:264,1,208.250003972054
287,289,73153,2,0,P|253:271|185:258,1,89.2500017023087
281,297,73384,2,0,P|247:279|179:266,1,89.2500017023087
101,293,73614,2,0,P|141:275|185:268,1,89.2500017023087
101,283,73845,2,0,P|141:265|185:258,1,89.2500017023087
467,238,74076,6,0,B|469:267|469:267|497:274|498:276|498:280|491:337|446:384|417:372|287:405|219:341|219:341|291:271|403:288|406:243|446:260|446:260|478:238,1,654.500012483597
423,199,75460,1,0,0:0:0:0:
482,220,75576,1,0,0:0:0:0:
410,127,75807,1,0,0:0:0:0:
427,191,75922,1,0,0:0:0:0:
485,214,76153,1,0,0:0:0:0:
347,170,76384,1,0,0:0:0:0:
226,222,76614,1,0,0:0:0:0:
214,384,76845,1,0,0:0:0:0:
348,156,77076,1,0,0:0:0:0:
234,208,77307,1,0,0:0:0:0:
479,197,77537,1,0,0:0:0:0:
203,373,77768,5,0,0:0:0:0:
203,352,77999,1,0,0:0:0:0:
273,382,78114,1,0,0:0:0:0:
115,348,78345,1,0,0:0:0:0:
200,327,78460,1,0,0:0:0:0:
206,299,78691,1,0,0:0:0:0:
233,305,78807,1,0,0:0:0:0:
128,291,79037,1,0,0:0:0:0:
207,269,79153,1,0,0:0:0:0:
299,302,79384,1,0,0:0:0:0:
238,173,79614,1,0,0:0:0:0:
125,285,79845,1,0,0:0:0:0:
217,172,80076,1,0,0:0:0:0:
85,171,80307,1,0,0:0:0:0:
256,174,80537,1,0,0:0:0:0:
419,179,80768,1,0,0:0:0:0:
327,38,80999,1,0,0:0:0:0:
172,34,81230,1,0,0:0:0:0:
252,171,81460,5,0,0:0:0:0:
31,85,81922,2,0,P|74:82|116:110,1,87.5
150,210,82268,1,0,0:0:0:0:
91,188,82384,1,0,0:0:0:0:
142,147,82499,1,0,0:0:0:0:
156,233,82730,1,0,0:0:0:0:
58,195,83076,1,0,0:0:0:0:
404,203,83307,2,0,P|374:198|306:214,1,87.5
108,203,83768,2,0,P|138:198|206:214,1,87.5
377,138,84230,2,0,P|352:155|315:215,1,87.5
141,138,84691,2,0,P|165:155|202:215,1,87.5
337,361,85153,5,0,0:0:0:0:
338,227,85384,1,0,0:0:0:0:
199,249,85614,2,0,B|153:314|153:314|242:315|242:315|194:242,1,236.250009012223
195,361,86076,2,0,B|241:293|241:293|150:292|150:292|199:367,1,236.250009012223
199,353,86537,1,0,0:0:0:0:
422,343,86884,1,0,0:0:0:0:
403,311,86999,1,0,0:0:0:0:
421,244,87230,1,0,0:0:0:0:
239,269,87460,1,0,0:0:0:0:
306,292,87691,1,0,0:0:0:0:
421,150,87922,1,0,0:0:0:0:
320,170,88153,1,0,0:0:0:0:
310,269,88384,1,0,0:0:0:0:
407,311,88614,1,0,0:0:0:0:
473,235,88845,5,0,0:0:0:0:
474,223,89307,1,0,0:0:0:0:
477,208,89768,1,0,0:0:0:0:
307,192,89999,1,0,0:0:0:0:
317,190,90076,1,0,0:0:0:0:
332,191,90153,1,0,0:0:0:0:
352,194,90230,1,0,0:0:0:0:
266,349,90460,1,0,0:0:0:0:
345,220,90691,2,0,B|304:221|304:221|308:260|308:260|326:261|326:261|309:261|309:261|314:320,1,175
325,365,91384,1,0,0:0:0:0:
158,303,91614,2,0,B|158:246|158:246|186:265|186:265|208:247|208:247|213:305,1,175
72,357,92307,1,0,0:0:0:0:
76,221,92537,5,0,0:0:0:0:
33,78,92999,2,0,B|66:151|66:151|92:136|92:136|121:158|121:158|164:64,1,236.250009012223
220,94,93460,2,0,B|182:190,1,78.7500030040742
308,145,93691,2,0,B|338:143|338:143|340:105|305:110|305:110|260:112|265:166|265:166|271:238|344:198,1,275.62501051426
412,196,94153,1,0,0:0:0:0:
422,283,94384,1,0,0:0:0:0:
426,311,94614,1,0,0:0:0:0:
254,267,94845,2,0,L|251:368,1,87.5
68,284,95307,1,0,0:0:0:0:
55,310,95537,1,0,0:0:0:0:
254,267,95768,2,0,L|251:368,1,87.5
0,320,96076,1,0,0:0:0:0:
13,305,96153,1,0,0:0:0:0:
12,268,96230,6,0,B|10:140|10:140|72:114|90:187|90:187|63:222|34:214|34:214|61:222|81:210|81:210|105:292|15:278,1,472.500018024445
165,301,97153,2,0,B|169:126|169:126|239:104|279:263|157:304,1,393.750015020371
400,130,98076,2,0,B|329:119|306:144|298:229|355:187|389:202|417:227|390:255|365:313|310:303|294:332|280:286,1,315.000012016297
274,286,98768,1,0,0:0:0:0:
435,288,98999,2,0,B|464:190|464:190|477:242|477:242|515:202|515:202|488:307,1,315.000012016297
391,368,99922,1,0,0:0:0:0:
205,303,100384,1,0,0:0:0:0:
374,276,100845,1,0,0:0:0:0:
387,361,101076,1,0,0:0:0:0:
200,294,101537,1,0,0:0:0:0:
358,264,101768,1,0,0:0:0:0:
372,362,102460,1,0,0:0:0:0:
197,283,102691,1,0,0:0:0:0:
209,197,102922,1,0,0:0:0:0:
197,283,103153,1,0,0:0:0:0:
0,62,103614,5,0,0:0:0:0:
31,59,104076,1,0,0:0:0:0:
59,283,104307,1,0,0:0:0:0:
59,61,104537,1,0,0:0:0:0:
89,61,104999,1,0,0:0:0:0:
134,294,105230,1,0,0:0:0:0:
163,57,105460,2,0,L|176:157,1,78.7500030040742
210,314,105922,2,0,L|212:232,1,78.7500030040742
222,57,106384,1,0,0:0:0:0:
256,56,106614,1,0,0:0:0:0:
272,304,106845,1,0,0:0:0:0:
307,302,107076,1,0,0:0:0:0:
510,72,107307,5,0,0:0:0:0:
470,66,107768,1,0,0:0:0:0:
434,60,107999,1,0,0:0:0:0:
442,316,108230,1,0,0:0:0:0:
411,302,108691,1,0,0:0:0:0:
407,63,108922,1,0,0:0:0:0:
357,61,109153,2,0,P|353:115|356:146,1,78.7500030040742
361,315,109614,2,0,P|361:269|361:272,1,39.3750015020371
356,321,109845,2,0,P|356:275|356:278,1,39.3750015020371
308,73,110076,1,0,0:0:0:0:
273,75,110191,1,0,0:0:0:0:
243,81,110307,1,0,0:0:0:0:
247,308,110537,1,0,0:0:0:0:
206,355,110768,1,0,0:0:0:0:
32,85,110999,5,0,0:0:0:0:
51,82,111460,1,0,0:0:0:0:
51,307,111691,1,0,0:0:0:0:
76,81,111922,1,0,0:0:0:0:
96,85,112384,1,0,0:0:0:0:
126,310,112614,1,0,0:0:0:0:
141,77,112845,1,0,0:0:0:0:
170,77,113307,1,0,0:0:0:0:
184,307,113537,1,0,0:0:0:0:
0,384,113768,1,0,0:0:0:0:
211,304,114230,1,0,0:0:0:0:
214,78,114460,1,0,0:0:0:0:
441,0,114691,1,0,0:0:0:0:
244,79,115153,1,0,0:0:0:0:
252,308,115384,1,0,0:0:0:0:
288,306,115614,1,0,0:0:0:0:
325,307,116134,1,0,0:0:0:0:
322,77,116307,1,0,0:0:0:0:
363,72,116537,1,0,0:0:0:0:
357,71,116653,1,0,0:0:0:0:
352,74,116768,1,0,0:0:0:0:
402,69,116999,1,0,0:0:0:0:
409,305,117230,1,0,0:0:0:0:
466,189,117460,1,0,0:0:0:0:
427,69,117691,1,0,0:0:0:0:
491,190,117922,1,0,0:0:0:0:
429,309,118153,1,0,0:0:0:0:
500,60,118384,5,0,0:0:0:0:
455,61,118845,1,0,0:0:0:0:
471,320,119076,1,0,0:0:0:0:
426,62,119307,1,0,0:0:0:0:
373,314,119768,1,0,0:0:0:0:
370,55,119999,1,0,0:0:0:0:
327,56,120230,2,0,P|299:54|240:126,1,118.125004506111
327,56,120460,2,0,P|296:104|240:113,1,118.125004506111
232,320,120691,2,0,P|260:322|319:250,1,118.125004506111
318,262,120921,2,0,P|262:271|232:320,1,118.125004506111
333,56,121153,2,0,P|305:54|246:126,1,118.125004506111
247,114,121383,2,0,P|303:105|333:56,1,118.125004506111
318,262,121614,2,0,P|290:260|231:332,1,118.125004506111
318,262,121844,2,0,P|287:310|231:319,1,118.125004506111
6,50,122076,5,0,0:0:0:0:
38,54,122537,1,0,0:0:0:0:
69,63,122768,1,0,0:0:0:0:
82,309,122999,1,0,0:0:0:0:
113,306,123460,1,0,0:0:0:0:
154,309,123691,1,0,0:0:0:0:
226,117,123922,2,0,P|236:52|220:-6,1,118.125004506111
191,118,124153,2,0,P|181:53|197:-5,1,118.125004506111
264,383,124384,2,0,P|254:318|270:260,1,118.125004506111
299,384,124615,2,0,P|309:319|293:261,1,118.125004506111
194,117,124845,2,0,P|213:53|191:-7,1,118.125004506111
179,0,125076,2,0,P|160:64|182:124,1,118.125004506111
264,383,125307,2,0,P|254:318|270:260,1,118.125004506111
299,384,125538,2,0,P|309:319|293:261,1,118.125004506111
509,65,125768,6,0,P|495:171|492:230,1,157.500006008148
470,323,126691,1,0,0:0:0:0:
396,286,126922,1,0,0:0:0:0:
345,220,127153,1,0,0:0:0:0:
409,70,127614,2,0,B|406:114|354:212|354:212|292:279|263:282,1,262.500010013581
281,157,128999,1,0,0:0:0:0:
257,75,129230,1,0,0:0:0:0:
128,59,129460,2,0,B|175:76|253:78|253:78|302:46,1,183.750007009506
385,96,130384,2,0,B|342:133|282:158|282:158|210:149,1,183.750007009506
72,241,131307,1,0,0:0:0:0:
102,233,131768,1,0,0:0:0:0:
122,376,132230,1,0,0:0:0:0:
141,234,132460,1,0,0:0:0:0:
177,238,132691,1,0,0:0:0:0:
208,258,132922,1,0,0:0:0:0:
248,93,133153,6,0,B|287:153|343:169|343:169|293:194|262:221|262:221|304:294|293:333|268:358|299:381,1,367.500014019013
299,366,134076,1,0,0:0:0:0:
502,196,134307,1,0,0:0:0:0:
458,203,134422,1,0,0:0:0:0:
409,209,134537,1,0,0:0:0:0:
375,232,134768,5,0,0:0:0:0:
357,278,134884,1,0,0:0:0:0:
318,303,134999,2,0,B|282:277|214:269|214:269,1,105.000004005432
66,285,135345,1,0,0:0:0:0:
92,320,135460,1,0,0:0:0:0:
131,330,135691,6,0,L|136:220,1,105.000004005432
20,146,136153,1,0,0:0:0:0:
5,190,136268,1,0,0:0:0:0:
22,235,136384,1,0,0:0:0:0:
63,251,136614,5,0,0:0:0:0:
151,32,136845,6,0,L|45:74,1,105.000004005432
40,86,137191,1,0,0:0:0:0:
36,129,137307,1,0,0:0:0:0:
54,158,137537,5,0,0:0:0:0:
286,36,137768,2,0,L|181:10,1,105.000004005432
168,30,138114,1,0,0:0:0:0:
167,64,138230,1,0,0:0:0:0:
194,98,138460,5,0,0:0:0:0:
236,100,138576,1,0,0:0:0:0:
267,136,138691,1,0,0:0:0:0:
337,106,138922,6,0,L|389:99,1,52.5000020027161
432,46,139153,2,0,L|359:57,1,52.5000020027161
476,121,139384,2,0,B|418:137|418:137|365:155,1,105.000004005432
446,228,139845,1,0,0:0:0:0:
485,235,139960,1,0,0:0:0:0:
508,268,140076,1,0,0:0:0:0:
510,310,140307,5,0,0:0:0:0:
488,345,140537,5,0,0:0:0:0:
421,296,140768,2,0,L|356:316,1,52.5000020027161
331,296,140999,1,0,0:0:0:0:
310,332,141230,5,0,0:0:0:0:
278,351,141345,1,0,0:0:0:0:
237,343,141460,1,0,0:0:0:0:
205,314,141691,6,0,L|190:254,1,52.5000020027161
276,217,141922,1,0,0:0:0:0:
277,194,142153,5,0,0:0:0:0:
0,245,142384,5,0,0:0:0:0:
65,269,142614,5,0,0:0:0:0:
50,301,142730,1,0,0:0:0:0:
10,316,142845,1,0,0:0:0:0:
23,356,143076,5,0,0:0:0:0:
56,374,143191,1,0,0:0:0:0:
98,364,143307,2,0,L|104:302,1,52.5000020027161
183,268,143537,2,0,L|189:206,1,52.5000020027161
121,132,143768,1,0,0:0:0:0:
87,141,143999,5,0,0:0:0:0:
0,66,144230,5,0,0:0:0:0:
101,8,144460,2,0,L|103:68,1,52.5000020027161
106,90,144691,1,0,0:0:0:0:
146,114,144922,5,0,0:0:0:0:
251,0,145153,2,0,L|246:63,1,52.5000020027161
245,85,145384,1,0,0:0:0:0:
266,116,145499,1,0,0:0:0:0:
307,119,145614,1,0,0:0:0:0:
347,85,145845,5,0,0:0:0:0:
349,45,145960,1,0,0:0:0:0:
349,5,146076,2,0,L|282:5,1,52.5000020027161
461,52,146307,2,0,L|394:52,1,52.5000020027161
512,101,146537,1,0,0:0:0:0:
436,143,146768,6,0,L|434:82,2,52.5000020027161
494,203,147230,5,0,0:0:0:0:
434,206,147345,1,0,0:0:0:0:
377,165,147460,1,0,0:0:0:0:
313,173,147576,1,0,0:0:0:0:
252,178,147691,1,0,0:0:0:0:
185,187,147807,1,0,0:0:0:0:
124,141,147922,5,0,0:0:0:0:
124,141,148153,1,0,0:0:0:0:
0,190,148384,1,0,0:0:0:0:
125,234,148614,1,0,0:0:0:0:
171,95,148845,1,0,0:0:0:0:
181,105,148960,1,0,0:0:0:0:
186,123,149076,1,0,0:0:0:0:
5,192,149307,1,0,0:0:0:0:
185,277,149537,1,0,0:0:0:0:
217,51,149768,2,0,L|252:101,1,52.5000020027161
244,134,149999,1,0,0:0:0:0:
0,196,150230,1,0,0:0:0:0:
232,323,150460,1,0,0:0:0:0:
235,348,150691,1,0,0:0:0:0:
0,196,150922,2,0,L|1:261,1,52.5000020027161
258,144,151153,1,0,0:0:0:0:
217,51,151384,2,0,L|252:101,1,52.5000020027161
106,131,151614,5,0,0:0:0:0:
104,142,151845,1,0,0:0:0:0:
0,213,152076,1,0,0:0:0:0:
88,259,152307,1,0,0:0:0:0:
148,113,152537,5,0,0:0:0:0:
136,137,152653,1,0,0:0:0:0:
150,159,152768,2,0,L|150:94,1,52.5000020027161
0,209,152999,1,0,0:0:0:0:
130,293,153230,1,0,0:0:0:0:
197,85,153460,6,0,L|204:147,1,52.5000020027161
206,176,153691,2,0,L|203:237,1,52.5000020027161
0,209,153922,1,0,0:0:0:0:
191,333,154153,1,0,0:0:0:0:
230,353,154384,1,0,0:0:0:0:
6,201,154614,2,0,L|0:259,1,52.5000020027161
206,176,154845,1,0,0:0:0:0:
198,95,155076,1,0,0:0:0:0:
79,123,155307,5,0,0:0:0:0:
77,139,155537,1,0,0:0:0:0:
0,198,155768,1,0,0:0:0:0:
152,310,155999,1,0,0:0:0:0:
129,308,156114,1,0,0:0:0:0:
115,308,156230,1,0,0:0:0:0:
87,308,156460,5,0,0:0:0:0:
0,183,156691,1,0,0:0:0:0:
92,111,156922,1,0,0:0:0:0:
119,107,157037,1,0,0:0:0:0:
163,101,157153,1,0,0:0:0:0:
187,107,157384,6,0,L|176:160,1,52.5000020027161
0,182,157614,1,0,0:0:0:0:
243,318,157845,2,0,L|187:323,1,52.5000020027161
158,338,158076,1,0,0:0:0:0:
161,301,158307,5,0,0:0:0:0:
126,301,158422,1,0,0:0:0:0:
69,327,158537,1,0,0:0:0:0:
24,283,158653,1,0,0:0:0:0:
42,224,158768,1,0,0:0:0:0:
55,162,158884,1,0,0:0:0:0:
35,75,158999,6,0,L|27:186,1,105.000004005432
101,78,159460,2,0,L|95:200,1,105.000004005432
170,77,159922,2,0,L|163:190,1,105.000004005432
237,83,160384,2,0,L|231:211,1,105.000004005432
0,72,160845,2,0,L|301:188,1,315.000012016297
391,85,161307,2,0,L|386:219,1,105.000004005432
184,123,161768,1,0,0:0:0:0:
190,147,161999,1,0,0:0:0:0:
0,197,162230,1,0,0:0:0:0:
190,303,162460,1,0,0:0:0:0:
506,74,162691,5,0,0:0:0:0:
470,73,163153,1,0,0:0:0:0:
439,281,163384,1,0,0:0:0:0:
422,72,163614,1,0,0:0:0:0:
386,70,164076,1,0,0:0:0:0:
342,265,164307,1,0,0:0:0:0:
346,62,164537,2,0,P|334:88|339:147,1,78.7500030040742
319,311,164768,2,0,P|331:285|326:226,1,78.7500030040742
297,227,164999,2,0,P|285:253|290:312,1,78.7500030040742
355,137,165230,2,0,P|367:111|362:52,1,78.7500030040742
203,86,165460,5,0,0:0:0:0:
222,135,165691,1,0,0:0:0:0:
0,192,165922,1,0,0:0:0:0:
205,314,166153,1,0,0:0:0:0:
0,68,166384,5,0,0:0:0:0:
46,69,166845,1,0,0:0:0:0:
38,296,167076,1,0,0:0:0:0:
82,297,167307,1,0,0:0:0:0:
127,298,167768,1,0,0:0:0:0:
147,71,167999,1,0,0:0:0:0:
197,66,168230,2,0,P|209:92|190:155,1,78.7500030040742
186,71,168460,2,0,P|174:97|188:162,1,78.7500030040742
204,363,168691,2,0,P|212:312|209:277,1,78.7500030040742
186,71,168922,2,0,P|178:122|181:157,1,78.7500030040742
203,86,169153,53,0,0:0:0:0:
222,135,169384,1,0,0:0:0:0:
0,192,169615,1,0,0:0:0:0:
205,314,169846,1,0,0:0:0:0:
512,74,170076,5,0,0:0:0:0:
465,80,170537,1,0,0:0:0:0:
439,317,170768,1,0,0:0:0:0:
413,80,170999,1,0,0:0:0:0:
353,78,171460,1,0,0:0:0:0:
323,315,171691,1,0,0:0:0:0:
290,78,171922,2,0,P|258:69|208:89,1,78.7500030040742
297,353,172153,2,0,P|265:344|212:356,1,78.7500030040742
290,78,172384,2,0,P|258:69|208:89,1,78.7500030040742
290,78,172614,2,0,P|258:69|208:89,1,78.7500030040742
203,86,172845,53,0,0:0:0:0:
222,135,173076,1,0,0:0:0:0:
0,192,173307,1,0,0:0:0:0:
205,314,173538,1,0,0:0:0:0:
0,93,173768,5,0,0:0:0:0:
40,92,174230,1,0,0:0:0:0:
53,310,174460,1,0,0:0:0:0:
0,93,174691,1,0,0:0:0:0:
40,92,175153,1,0,0:0:0:0:
53,310,175383,1,0,0:0:0:0:
0,93,175614,1,0,0:0:0:0:
40,92,176076,1,0,0:0:0:0:
53,310,176306,1,0,0:0:0:0:
0,93,176537,2,0,L|0:17,1,52.5000020027161
46,90,176768,2,0,L|42:158,1,52.5000020027161
53,304,176999,1,0,0:0:0:0:
50,283,177114,1,0,0:0:0:0:
58,263,177230,1,0,0:0:0:0:
71,243,177345,1,0,0:0:0:0:
74,214,177460,5,0,0:0:0:0:
160,48,177922,1,0,0:0:0:0:
196,65,178153,1,0,0:0:0:0:
72,209,178384,1,0,0:0:0:0:
221,85,178845,1,0,0:0:0:0:
244,125,179076,1,0,0:0:0:0:
72,209,179307,1,0,0:0:0:0:
78,179,179537,1,0,0:0:0:0:
229,297,179768,6,0,L|168:230,1,78.7500030040742
158,220,179999,2,0,B|142:174|142:174|167:136,1,78.7500030040742
179,139,180230,2,0,B|214:152|214:152|231:181,1,52.5000020027161
235,301,180460,2,0,L|301:238,1,78.7500030040742
303,228,180691,2,0,B|321:180|321:180|304:139,1,78.7500030040742
304,152,180922,2,0,B|269:165|269:165|252:194,1,52.5000020027161
77,201,181153,5,0,0:0:0:0:
31,377,181614,1,0,0:0:0:0:
78,384,181845,1,0,0:0:0:0:
71,201,182076,1,0,0:0:0:0:
131,377,182537,1,0,0:0:0:0:
168,352,182768,1,0,0:0:0:0:
71,201,182999,1,0,0:0:0:0:
117,238,183230,1,0,0:0:0:0:
241,159,183460,6,0,B|249:146|249:146|317:138,1,78.7500030040742
310,148,183691,2,0,B|325:185|325:185|310:227,1,78.7500030040742
291,246,183922,2,0,L|244:293,1,52.5000020027161
241,159,184153,2,0,B|234:146|234:146|165:128,1,78.7500030040742
167,140,184384,2,0,B|143:172|143:172|158:218,1,78.7500030040742
158,233,184614,2,0,L|184:289,1,52.5000020027161
74,214,184845,5,0,0:0:0:0:
6,40,185307,1,0,0:0:0:0:
44,31,185538,1,0,0:0:0:0:
72,209,185769,1,0,0:0:0:0:
76,31,186230,1,0,0:0:0:0:
119,48,186461,1,0,0:0:0:0:
72,209,186692,1,0,0:0:0:0:
229,297,187153,6,0,L|168:230,1,78.7500030040742
158,220,187384,2,0,B|142:174|142:174|167:136,1,78.7500030040742
179,139,187615,2,0,B|214:152|214:152|231:181,1,52.5000020027161
235,301,187845,2,0,L|301:238,1,78.7500030040742
303,228,188076,2,0,B|321:180|321:180|304:139,1,78.7500030040742
304,152,188307,2,0,B|269:165|269:165|252:194,1,52.5000020027161
77,201,188537,5,0,0:0:0:0:
178,344,188998,1,0,0:0:0:0:
217,317,189229,1,0,0:0:0:0:
71,201,189460,1,0,0:0:0:0:
251,275,189921,1,0,0:0:0:0:
261,232,190152,1,0,0:0:0:0:
71,201,190383,1,0,0:0:0:0:
65,245,190614,1,0,0:0:0:0:
231,159,190844,6,0,B|238:145|238:145|306:137,1,78.7500030040742
310,148,191075,2,0,B|325:185|325:185|310:227,1,78.7500030040742
291,246,191306,2,0,L|244:293,1,52.5000020027161
241,159,191537,2,0,B|234:146|234:146|165:128,1,78.7500030040742
167,140,191768,2,0,B|143:172|143:172|158:218,1,78.7500030040742
158,233,191998,2,0,L|184:289,1,52.5000020027161
231,308,192230,1,0,0:0:0:0:
305,325,192460,1,0,0:0:0:0:
348,320,192576,1,0,0:0:0:0:
383,317,192691,1,0,0:0:0:0:
444,269,192922,1,0,0:0:0:0:
392,301,193153,2,0,L|281:314,1,105.000004005432
223,305,193614,1,0,0:0:0:0:
187,345,193845,1,0,0:0:0:0:
449,259,194076,5,0,0:0:0:0:
305,325,194307,1,0,0:0:0:0:
348,320,194423,1,0,0:0:0:0:
383,317,194538,1,0,0:0:0:0:
392,301,194768,2,0,L|281:314,1,105.000004005432
221,307,195114,1,0,0:0:0:0:
187,345,195230,1,0,0:0:0:0:
453,256,195460,1,0,0:0:0:0:
427,291,195691,1,0,0:0:0:0:
305,325,195922,5,0,0:0:0:0:
348,320,196153,1,0,0:0:0:0:
383,317,196268,1,0,0:0:0:0:
427,291,196384,1,0,0:0:0:0:
448,252,196614,1,0,0:0:0:0:
411,284,196730,1,0,0:0:0:0:
392,301,196845,2,0,L|281:314,1,105.000004005432
218,303,197307,1,0,0:0:0:0:
194,332,197537,1,0,0:0:0:0:
287,313,197768,6,0,L|392:301,1,105.000004005432
434,284,198114,1,0,0:0:0:0:
454,250,198230,1,0,0:0:0:0:
198,334,198460,1,0,0:0:0:0:
222,299,198576,1,0,0:0:0:0:
281,314,198691,2,0,L|348:306,1,52.5000020027161
387,303,198922,1,0,0:0:0:0:
392,301,199153,2,0,L|287:313,1,105.000004005432
459,241,199614,5,0,0:0:0:0:
285,317,199845,1,0,0:0:0:0:
339,312,199960,1,0,0:0:0:0:
392,308,200076,1,0,0:0:0:0:
391,284,200307,1,0,0:0:0:0:
334,287,200422,1,0,0:0:0:0:
282,294,200537,1,0,0:0:0:0:
206,313,200768,2,0,L|201:340,1,26.2500010013581
286,322,200999,1,0,0:0:0:0:
454,276,201230,1,0,0:0:0:0:
374,316,201460,5,0,0:0:0:0:
201,338,201691,2,0,L|209:307,1,26.2500010013581
280,287,201922,1,0,0:0:0:0:
289,329,202153,1,0,0:0:0:0:
336,326,202268,1,0,0:0:0:0:
374,316,202384,1,0,0:0:0:0:
439,289,202499,1,0,0:0:0:0:
455,245,202614,1,0,0:0:0:0:
376,292,202845,1,0,0:0:0:0:
281,299,203076,1,0,0:0:0:0:
206,345,203307,5,0,0:0:0:0:
206,345,203537,2,0,L|215:315,1,26.2500010013581
219,319,203768,1,0,0:0:0:0:
284,327,203999,2,0,L|389:309,1,105.000004005432
369,276,204345,2,0,L|265:293,1,105.000004005432
286,297,204691,1,0,0:0:0:0:
455,263,204922,1,0,0:0:0:0:
458,231,205153,1,0,0:0:0:0:
369,276,205384,2,0,L|267:298,1,105.000004005432
155,84,206076,1,0,0:0:0:0:
157,128,206307,1,0,0:0:0:0:
0,180,206537,1,0,0:0:0:0:
142,262,206768,1,0,0:0:0:0:
