osu file format v14

[General]
AudioFilename: audio.mp3
AudioLeadIn: 0
PreviewTime: -1
Countdown: 1
SampleSet: None
StackLeniency: 0.7
Mode: 3
LetterboxInBreaks: 0
SpecialStyle: 0
WidescreenStoryboard: 0

[Editor]
DistanceSpacing: 0.6
BeatDivisor: 4
GridSize: 4
TimelineZoom: 1.4

[Metadata]
Title:Yubikiri-Genman (Special Edit)
TitleUnicode:Yubikiri-Genman (Special Edit)
Artist:Mili
ArtistUnicode:Mili
Creator:PnX
Version:
Source:
Tags:
BeatmapID:1288962
BeatmapSetID:610461

[Difficulty]
HPDrainRate:8
CircleSize:4
OverallDifficulty:8
ApproachRate:5
SliderMultiplier:1.4
SliderTickRate:1

[Events]
//Background and Video events
0,0,"maxresdefault.jpg",0,0
//Break Periods
//Storyboard Layer 0 (Background)
//Storyboard Layer 1 (Fail)
//Storyboard Layer 2 (Pass)
//Storyboard Layer 3 (Foreground)
//Storyboard Sound Samples

[TimingPoints]
75.6773362083736,410.958904109589,4,1,0,100,1,0

[HitObjects]
64,192,75,5,0,0:0:0:0:
448,192,75,1,0,0:0:0:0:
192,192,281,1,0,0:0:0:0:
320,192,486,1,0,0:0:0:0:
448,192,692,1,0,0:0:0:0:
192,192,692,1,0,0:0:0:0:
64,192,897,1,0,0:0:0:0:
320,192,1103,1,0,0:0:0:0:
64,192,1103,1,0,0:0:0:0:
192,192,1308,1,0,0:0:0:0:
64,192,1514,1,0,0:0:0:0:
64,192,1719,1,0,0:0:0:0:
448,192,1719,1,0,0:0:0:0:
192,192,1924,1,0,0:0:0:0:
320,192,2130,1,0,0:0:0:0:
192,192,2335,1,0,0:0:0:0:
448,192,2335,1,0,0:0:0:0:
64,192,2541,1,0,0:0:0:0:
64,192,2746,1,0,0:0:0:0:
320,192,2746,1,0,0:0:0:0:
192,192,2952,1,0,0:0:0:0:
64,192,3157,1,0,0:0:0:0:
64,192,3363,5,0,0:0:0:0:
448,192,3363,1,0,0:0:0:0:
192,192,3568,1,0,0:0:0:0:
320,192,3774,1,0,0:0:0:0:
192,192,3979,1,0,0:0:0:0:
448,192,3979,1,0,0:0:0:0:
64,192,4185,1,0,0:0:0:0:
64,192,4390,1,0,0:0:0:0:
320,192,4390,1,0,0:0:0:0:
192,192,4596,1,0,0:0:0:0:
64,192,4801,1,0,0:0:0:0:
448,192,5007,1,0,0:0:0:0:
64,192,5007,1,0,0:0:0:0:
192,192,5212,1,0,0:0:0:0:
320,192,5418,1,0,0:0:0:0:
448,192,5623,1,0,0:0:0:0:
192,192,5623,1,0,0:0:0:0:
64,192,5829,1,0,0:0:0:0:
448,192,5829,128,0,6651:0:0:0:0:
192,192,6034,1,0,0:0:0:0:
64,192,6240,1,0,0:0:0:0:
320,192,6445,1,0,0:0:0:0:
64,192,6651,128,0,8294:0:0:0:0:
192,192,6651,1,0,0:0:0:0:
320,192,6856,1,0,0:0:0:0:
448,192,7061,1,0,0:0:0:0:
192,192,7267,1,0,0:0:0:0:
448,192,7678,1,0,0:0:0:0:
192,192,8089,1,0,0:0:0:0:
320,192,8294,1,0,0:0:0:0:
448,192,8294,128,0,9938:0:0:0:0:
64,192,8705,1,0,0:0:0:0:
192,192,8911,1,0,0:0:0:0:
64,192,9116,1,0,0:0:0:0:
320,192,9322,1,0,0:0:0:0:
192,192,9938,128,0,11377:0:0:0:0:
64,192,9938,1,0,0:0:0:0:
448,192,10349,1,0,0:0:0:0:
64,192,10555,1,0,0:0:0:0:
320,192,10966,1,0,0:0:0:0:
448,192,11377,1,0,0:0:0:0:
320,192,11479,1,0,0:0:0:0:
64,192,11582,128,0,12609:0:0:0:0:
192,192,11582,1,0,0:0:0:0:
