osu file format v14

[General]
AudioFilename: Mili - YUBIKIRI-GENMAN.mp3
AudioLeadIn: 0
PreviewTime: 66242
Countdown: 0
SampleSet: Soft
StackLeniency: 0.7
Mode: 0
LetterboxInBreaks: 0
WidescreenStoryboard: 1

[Editor]
Bookmarks: 900,27201,56790,86379,99530,125831,138982,165283,198160,225715
DistanceSpacing: 1.1
BeatDivisor: 4
GridSize: 4
TimelineZoom: 1.7

[Metadata]
Title:YUBIKIRI-GENMAN
TitleUnicode:YUBIKIRI-GENMAN
Artist:Mili
ArtistUnicode:Mili
Creator:Pappy
Version:Normal Collab
Source:Deemo
Tags:rayark yamato kasai hamoloid hamo
BeatmapID:891424
BeatmapSetID:410821

[Difficulty]
HPDrainRate:3
CircleSize:2.5
OverallDifficulty:3
ApproachRate:4
SliderMultiplier:1.4
SliderTickRate:1

[Events]
//Background and Video events
0,0,"bg.jpeg",0,0
//Break Periods
2,86578,98004
2,142058,163758
//Storyboard Layer 0 (Background)
//Storyboard Layer 1 (Fail)
//Storyboard Layer 2 (Pass)
//Storyboard Layer 3 (Foreground)
Sprite,Foreground,Centre,"notitle.png",320,240 S,0,900,,0.3890909 M,0,900,1002,44,376,47,376 F,0,900,2543,0,0.9040001 M,0,1002,2543,47,376,51,376 M,0,2543,25557,51,376 F,0,2543,25557,0.9040001,0.8341818 M,0,25557,27201,51,376,62,375 F,0,25557,27201,0.8341818,0 M,0,27201,56687,62,375,44,375 F,0,27201,56790,0 M,0,56687,56790,44,375,549,384 F,0,56790,58434,0,0.8487273 M,0,56790,125728,549,384 F,0,58434,84735,0.8487273,0.8254545 F,0,84735,86379,0.8254545,0 F,0,86379,125831,0 M,0,125728,125831,90,368,103,390 F,0,125831,127475,0,0.6167274 F,0,127475,138982,0.6167274,0.6159771 F,0,138982,140626,0.6159771,0 F,0,140626,198160,0,0.001498728 F,0,198160,199804,0.001498728,0.8283635 F,0,199804,221173,0.8283635,0.8253457 F,0,221173,225715,0.8253457,0
Sprite,Foreground,Centre,"notitle2.png",320,240 S,0,27201,,0.4240001 M,0,27201,27304,38,372,42,373 F,0,27201,28845,0,0.8487273 M,0,27304,28845,42,373,55,373 M,0,28845,55146,55,373 F,0,28845,55146,0.8487273,0.8456298 M,0,55146,56790,55,373,59,373 F,0,55146,56790,0.8456298,0 M,0,56790,99427,59,373,583,388 F,0,56790,99530,0 M,0,99427,99530,583,388 F,0,99530,101173,0,0.4578803 M,0,99530,125831,583,388 F,0,101173,124187,0.4578803,0.4770909 F,0,124187,125831,0.4770909,0 M,0,125831,165180,583,388 F,0,125831,165283,0 M,0,165180,165283,583,388,71,400 F,0,165283,166927,0,0.6254545 F,0,166927,196516,0.6254545,0.6246936 F,0,196516,198160,0.6246936,0
//Storyboard Sound Samples

[TimingPoints]
900,410.958904109589,4,2,1,40,1,0
900,-200,4,2,1,40,0,0
14050,-166.666666666667,4,2,1,40,0,0
66653,-133.333333333333,4,2,1,40,0,0
79804,-133.333333333333,4,2,1,20,0,0
86379,-166.666666666667,4,2,1,40,0,0
164461,-200,4,2,1,40,0,0
165283,-133.333333333333,4,2,1,40,0,0
178434,-100,4,2,1,40,0,0
188297,-133.333333333333,4,2,1,40,0,0
191584,-200,4,2,1,20,0,0
198160,-166.666666666667,4,2,1,20,0,0
221173,422.535211267606,4,2,1,20,1,0
221173,-166.666666666667,4,2,1,20,0,0
222018,535.714285714286,4,2,1,20,1,0
222018,-166.666666666667,4,2,1,20,0,0
222821,504.201680672269,4,2,1,20,1,0
223073,526.315789473684,4,2,1,20,1,0
223073,504.201680672269,4,2,1,20,1,0
223073,-166.666666666667,4,2,1,20,0,0
223325,550.45871559633,4,2,1,20,1,0
223600,-166.666666666667,4,2,1,20,0,0
224150,600,4,2,1,20,1,0
224450,705.882352941176,4,2,1,20,1,0
224450,-166.666666666667,4,2,1,20,0,0
224802,810.810810810811,4,2,1,20,1,0
224802,-166.666666666667,4,2,1,20,0,0
225207,1016.94915254237,4,2,1,20,1,0

[Colours]
Combo1 : 255,255,128
Combo2 : 128,255,128

[HitObjects]
48,92,900,6,0,L|152:84,1,105,2|2,0:0|0:0,0:0:0:0:
340,216,2543,6,0,L|236:208,1,105,2|2,0:0|0:0,0:0:0:0:
12,168,4187,6,0,P|8:96|20:64,1,105,2|2,0:0|0:0,0:0:0:0:
208,192,5831,2,0,P|212:264|200:296,2,105,2|2|0,0:0|0:0|0:0,0:0:0:0:
208,100,7475,6,0,L|264:52,1,70,2|0,0:0|0:0,0:0:0:0:
344,88,8297,2,0,P|380:88|412:80,1,70,0|0,0:0|0:0,0:0:0:0:
492,124,9119,6,0,L|484:200,1,70,2|0,0:0|0:0,0:0:0:0:
428,264,9941,2,0,P|428:312|440:340,1,70,0|0,0:0|0:0,0:0:0:0:
348,356,10763,6,0,L|280:340,1,70,2|0,0:0|0:0,0:0:0:0:
224,268,11584,1,0,0:0:0:0:
188,351,11995,1,0,0:0:0:0:
134,278,12406,6,0,P|158:207|214:179,1,140,2|0,0:0|0:0,0:0:0:0:
256,100,13639,1,0,0:0:0:0:
299,179,14050,6,0,B|336:184|358:212|358:212|408:200|460:232,1,167.999994873047,2|0,0:0|0:0,0:0:0:0:
388,316,15283,2,0,L|344:328,1,41.9999987182618,0|2,0:0|0:0,0:0:0:0:
296,340,15694,6,0,L|172:320,2,125.999996154785,0|0|2,0:0|0:0|0:0,0:0:0:0:
304,232,17338,2,0,P|316:140|300:108,1,125.999996154785,0|0,0:0|0:0,0:0:0:0:
140,91,18571,2,0,P|132:111|133:132,1,41.9999987182618,2|0,0:0|0:0,0:0:0:0:
140,188,18982,6,0,P|64:244|24:244,2,125.999996154785,2|2|2,0:0|0:0|0:0,0:0:0:0:
196,96,20626,6,0,P|289:83|324:103,2,125.999996154785,2|2|2,0:0|0:0|0:0,0:0:0:0:
256,188,22269,2,0,P|349:200|384:180,1,125.999996154785,2|2,0:0|2:0,0:0:0:0:
444,336,23502,2,0,L|388:324,1,41.9999987182618,2|0,2:0|2:0,0:0:0:0:
348,320,23913,6,0,B|269:348|269:348|220:340,2,125.999996154785,2|2|2,2:0|0:0|0:0,0:0:0:0:
444,272,25557,2,0,P|468:193|444:112,1,167.999994873047,2|2,0:0|0:0,0:0:0:0:
240,36,27201,6,0,L|112:48,2,125.999996154785,6|2|2,0:0|0:0|0:0,0:0:0:0:
292,56,28639,2,0,B|332:96|308:148|304:152|300:156|272:216|308:264,1,209.999993591309,2|0,0:0|0:0,0:0:0:0:
224,332,30078,1,2,0:0:0:0:
128,280,30489,6,0,L|-8:304,2,125.999996154785,2|2|2,0:0|0:0|0:0,0:0:0:0:
168,244,31927,1,2,0:0:0:0:
212,208,32132,2,0,P|228:152|204:88,2,125.999996154785,2|2|2,0:0|0:0|0:0,0:0:0:0:
280,296,33776,6,0,B|340:284|340:284|404:300,1,125.999996154785,2|2,0:0|0:0,0:0:0:0:
464,148,35009,1,2,0:0:0:0:
360,184,35420,2,0,B|297:199|297:199|237:187,1,125.999996154785,2|2,0:0|0:0,0:0:0:0:
104,92,36653,1,2,0:0:0:0:
96,200,37064,6,0,L|92:328,2,125.999996154785,2|2|2,0:0|0:0|0:0,0:0:0:0:
176,124,38708,6,0,B|216:124|252:108|252:108|296:92|296:40|256:20|212:40|212:88|256:108|256:108|288:124|332:124,1,335.999989746094,2|2,0:0|0:0,0:0:0:0:
480,192,40968,2,0,P|480:220|476:240,1,41.9999987182618,0|2,0:0|0:0,0:0:0:0:
336,316,41790,2,0,P|336:288|340:268,1,41.9999987182618,0|2,0:0|0:0,0:0:0:0:
232,152,42612,2,0,P|232:180|228:200,1,41.9999987182618,0|2,0:0|0:0,0:0:0:0:
136,328,43434,1,0,0:0:0:0:
136,328,43639,6,0,L|48:336,2,83.9999974365235,2|2|2,0:0|0:0|0:0,0:0:0:0:
212,248,44872,1,2,0:0:0:0:
304,308,45283,2,0,P|380:336|464:316,1,167.999994873047,0|0,0:0|0:0,0:0:0:0:
416,160,46721,6,0,L|364:152,1,41.9999987182618,0|2,0:0|0:0,0:0:0:0:
224,92,47543,2,0,L|172:84,1,41.9999987182618,0|2,0:0|0:0,0:0:0:0:
44,172,48365,2,0,P|40:200|44:228,1,41.9999987182618,0|2,0:0|0:0,0:0:0:0:
192,272,49187,2,0,P|196:244|192:216,1,41.9999987182618,0|2,0:0|0:0,0:0:0:0:
328,132,50009,1,0,0:0:0:0:
328,132,50215,6,0,L|332:300,2,167.999994873047,2|2|0,0:0|0:0|0:0,0:0:0:0:
248,56,52269,2,0,P|208:48|164:56,1,83.9999974365235,2|0,0:0|0:0,0:0:0:0:
56,244,53502,6,0,L|184:236,1,125.999996154785,2|0,0:0|0:0,0:0:0:0:
232,260,54324,1,2,0:0:0:0:
348,144,54941,2,0,L|352:96,1,41.9999987182618,0|2,0:0|0:0,0:0:0:0:
504,36,55763,2,0,L|500:77,1,41.9999987182618,0|2,0:0|0:0,0:0:0:0:
452,236,56584,1,0,0:0:0:0:
416,276,56790,6,0,P|372:288|328:284,1,83.9999974365235,2|0,0:0|0:0,0:0:0:0:
296,184,57612,2,0,B|256:172|256:172|216:184,1,83.9999974365235,2|0,0:0|0:0,0:0:0:0:
177,285,58434,2,0,P|112:218|208:77,1,293.999991027832
256,52,60078,5,2,0:0:0:0:
416,92,60694,1,0,0:0:0:0:
456,132,60899,2,0,L|440:264,1,125.999996154785,2|0,0:0|0:0,0:0:0:0:
432,312,61721,5,2,0:0:0:0:
277,256,62338,2,0,L|233:256,1,41.9999987182618,0|2,0:0|0:0,0:0:0:0:
80,312,63160,1,0,0:0:0:0:
71,257,63365,6,0,L|50:89,2,167.999994873047,2|2|2,0:0|0:0|0:0,0:0:0:0:
256,136,65831,1,2,0:0:0:0:
408,72,66447,1,0,0:0:0:0:
408,72,66653,6,0,P|420:128|416:176,1,104.999996795654,6|0,0:0|0:0,0:0:0:0:
384,224,67269,2,0,P|384:256|392:280,1,52.5000020027161,2|2,0:0|0:0,0:0:0:0:
216,256,68091,1,2,0:0:0:0:
216,256,68297,6,0,L|112:268,1,105.000004005432,2|0,2:0|2:0,0:0:0:0:
64,236,68913,2,0,L|12:228,1,52.5000020027161,2|2,0:0|0:0,0:0:0:0:
56,60,69735,5,2,0:0:0:0:
56,60,69941,2,0,P|124:100|196:80,1,157.500006008148,2|2,0:0|0:0,0:0:0:0:
244,48,70763,1,2,0:0:0:0:
292,20,70968,2,0,P|352:20|392:48,1,105.000004005432,2|2,0:0|0:0,0:0:0:0:
444,52,71584,6,0,L|440:180,1,105.000004005432,2|0,0:0|0:0,0:0:0:0:
416,208,72201,2,0,L|424:260,1,52.5000020027161,2|2,0:0|0:0,0:0:0:0:
256,304,73023,1,2,0:0:0:0:
204,280,73228,6,0,P|136:280|68:336,1,157.500006008148,2|2,0:0|0:0,0:0:0:0:
24,368,74050,2,0,L|48:212,1,157.500006008148,2|2,0:0|0:0,0:0:0:0:
56,156,74872,5,2,0:0:0:0:
200,60,75489,1,2,0:0:0:0:
256,76,75694,2,0,P|332:60|408:80,1,157.500006008148,2|0,0:0|0:0,0:0:0:0:
456,112,76516,6,0,L|480:160,1,52.5000020027161,2|2,0:0|0:0,0:0:0:0:
368,180,77132,2,0,B|292:156|292:204|212:180,1,157.500006008148,2|2,0:0|0:0,0:0:0:0:
160,156,77954,6,0,P|60:156|72:288,1,262.500010013581,0|2,0:0|0:0,0:0:0:0:
300,316,79804,6,0,L|456:296,1,157.500006008148,2|2,0:0|0:0,0:0:0:0:
496,256,80626,1,2,0:0:0:0:
312,116,81447,6,0,P|320:68|312:12,1,105.000004005432,2|0,0:0|0:0,0:0:0:0:
208,64,82269,2,0,P|162:81|117:116,1,105.000004005432,2|2,0:0|0:0,0:0:0:0:
214,180,83091,5,2,0:0:0:0:
232,192,84735,5,2,0:0:0:0:
248,204,86173,2,0,L|298:243,1,52.5000020027161,0|2,0:0|0:0,0:0:0:0:
92,44,99324,6,0,P|88:64|92:88,1,41.9999987182618,2|2,0:0|0:0,0:0:0:0:
196,176,100146,2,0,P|200:196|196:220,1,41.9999987182618,2|2,0:0|0:0,0:0:0:0:
104,320,100968,2,0,L|148:316,1,41.9999987182618,2|2,0:0|0:0,0:0:0:0:
284,340,101790,2,0,L|328:336,1,41.9999987182618,2|2,0:0|0:0,0:0:0:0:
448,272,102612,6,0,L|456:224,1,41.9999987182618,2|2,0:0|0:0,0:0:0:0:
336,156,103434,2,0,L|324:112,1,41.9999987182618,2|2,0:0|0:0,0:0:0:0:
188,116,104256,2,0,L|176:156,1,41.9999987182618,2|2,0:0|0:0,0:0:0:0:
60,232,105078,2,0,L|66:273,1,41.9999987182618,2|2,0:0|0:0,0:0:0:0:
184,348,105899,1,2,0:0:0:0:
200,304,106105,6,0,B|256:276|256:276|312:304,1,125.999996154785,2|2,0:0|0:0,0:0:0:0:
328,348,106927,1,2,0:0:0:0:
436,260,107543,2,0,L|440:208,1,41.9999987182618,2|2,0:0|0:0,0:0:0:0:
340,120,108365,1,2,0:0:0:0:
328,76,108571,6,0,P|256:40|180:76,2,167.999994873047,2|0|2,0:0|0:0|0:0,0:0:0:0:
328,260,111036,2,0,P|256:296|180:260,1,167.999994873047,2|2,0:0|0:0,0:0:0:0:
140,80,112680,6,0,B|200:76|232:108|232:108|244:99|256:96|256:96|268:100|280:108|280:108|312:76|376:80,1,251.999992309571,2|0,0:0|0:0,0:0:0:0:
416,92,114119,2,0,B|456:148|416:200|412:204|408:208|372:264|424:336,1,251.999992309571,2|2,0:0|0:0,0:0:0:0:
456,360,115557,1,2,0:0:0:0:
456,360,115763,6,0,L|288:360,1,167.999994873047,2|2,0:0|0:0,0:0:0:0:
176,276,117201,1,2,0:0:0:0:
108,216,117612,2,0,P|92:160|120:96,2,125.999996154785,2|2|2,0:0|0:0|0:0,0:0:0:0:
176,276,119256,6,0,L|304:268,1,125.999996154785,6|2,0:0|0:0,0:0:0:0:
432,312,120489,1,2,0:0:0:0:
432,312,120899,2,0,P|444:256|424:192,1,125.999996154785,2|2,0:0|0:0,0:0:0:0:
316,104,122132,1,2,0:0:0:0:
244,44,122543,6,0,L|112:48,2,125.999996154785,2|2|2,0:0|0:0|0:0,0:0:0:0:
316,104,124187,2,0,L|484:100,1,167.999994873047,2|0,0:0|0:0,0:0:0:0:
452,236,125626,6,0,P|412:232|400:224,1,41.9999987182618,2|2,0:0|0:0,0:0:0:0:
277,193,126447,2,0,P|256:189|236:193,1,41.9999987182618,2|2,0:0|0:0,0:0:0:0:
100,231,127269,2,0,P|80:237|60:236,1,41.9999987182618,2|2,0:0|0:0,0:0:0:0:
44,100,128091,2,0,P|64:93|84:95,1,41.9999987182618,2|2,0:0|0:0,0:0:0:0:
172,132,128708,1,2,0:0:0:0:
256,92,129119,5,2,0:0:0:0:
340,132,129530,1,2,0:0:0:0:
427,95,129941,2,0,P|435:133|422:178,2,83.9999974365235,2|2|2,0:0|0:0|0:0,0:0:0:0:
384,128,132201,6,0,L|380:176,1,41.9999987182618,2|2,0:0|0:0,0:0:0:0:
256,112,133023,2,0,L|256:68,1,41.9999987182618,2|2,0:0|0:0,0:0:0:0:
128,128,133845,2,0,L|131:169,1,41.9999987182618,2|2,0:0|0:0,0:0:0:0:
236,260,134667,2,0,P|256:264|276:260,1,41.9999987182618,2|2,0:0|0:0,0:0:0:0:
392,180,135489,5,2,0:0:0:0:
392,180,135694,6,0,P|416:260|392:340,1,167.999994873047,2|2,0:0|0:0,0:0:0:0:
208,364,137338,2,0,P|139:318|106:241,1,167.999994873047,2|2,0:0|0:0,0:0:0:0:
184,72,138982,6,0,B|120:44|52:76|28:128|40:200|88:236|168:240|220:176|220:176|276:116|344:116|400:160,1,587.999982055665,6|0,0:0|0:0,0:0:0:0:
180,80,165078,5,2,0:0:0:0:
179,79,165283,2,0,P|256:96|332:77,1,157.500006008148,6|2,0:0|0:0,0:0:0:0:
376,32,166105,1,2,0:0:0:0:
356,204,166721,2,0,L|340:264,1,52.5000020027161,2|2,0:0|0:0,0:0:0:0:
168,252,167543,2,0,L|154:201,1,52.5000020027161,2|2,0:0|0:0,0:0:0:0:
256,60,168365,1,2,0:0:0:0:
256,60,168571,6,0,L|256:220,1,157.500006008148,2|2,0:0|0:0,0:0:0:0:
292,264,169393,2,0,P|324:268|352:264,1,52.5000020027161,2|2,0:0|0:0,0:0:0:0:
400,164,170009,2,0,P|368:160|340:164,1,52.5000020027161,0|2,0:0|0:0,0:0:0:0:
184,104,170831,2,0,P|152:108|124:104,1,52.5000020027161,2|2,0:0|0:0,0:0:0:0:
36,248,171653,1,2,0:0:0:0:
80,288,171858,6,0,L|240:288,1,157.500006008148,2|2,0:0|0:0,0:0:0:0:
292,312,172680,1,2,0:0:0:0:
448,232,173297,1,0,0:0:0:0:
412,188,173502,2,0,P|392:112|420:40,1,157.500006008148,2|2,0:0|0:0,0:0:0:0:
472,12,174324,1,2,0:0:0:0:
300,40,174941,6,0,L|236:52,1,52.5000020027161,2|2,0:0|0:0,0:0:0:0:
212,96,175352,2,0,L|108:116,1,105.000004005432,2|2,0:0|0:0,0:0:0:0:
20,264,176379,1,0,0:0:0:0:
20,264,176584,6,0,B|80:296|144:248|144:248|196:300|264:272,1,262.500010013581,2|2,0:0|0:0,0:0:0:0:
428,220,178228,1,2,0:0:0:0:
428,220,178434,6,0,P|448:160|364:48,1,210,6|2,0:0|0:0,0:0:0:0:
296,76,179256,2,0,B|248:96|204:72|200:68|196:64|152:32|88:64,1,210,2|2,0:0|0:0,0:0:0:0:
44,120,180078,6,0,P|8:216|52:312,1,210,2|2,0:0|0:0,0:0:0:0:
120,344,180900,1,2,0:0:0:0:
256,156,181516,1,2,0:0:0:0:
256,156,181721,6,0,L|476:184,1,210,2|2,0:0|0:0,0:0:0:0:
488,256,182543,2,0,P|496:288|488:328,1,70,2|2,0:0|0:0,0:0:0:0:
336,340,183159,5,2,0:0:0:0:
336,340,183365,2,0,L|128:316,1,210,2|2,0:0|0:0,0:0:0:0:
76,256,184187,1,2,0:0:0:0:
172,44,184804,1,2,0:0:0:0:
172,44,185009,6,0,B|256:104|256:104|344:44,1,210,6|2,0:0|0:0,0:0:0:0:
404,92,185831,2,0,L|404:308,1,210,2|2,0:0|0:0,0:0:0:0:
344,352,186653,1,2,0:0:0:0:
256,140,187269,2,0,L|256:210,1,70,2|2,0:0|0:0,0:0:0:0:
168,352,188091,1,2,0:0:0:0:
168,352,188297,6,0,L|112:360,1,52.5000020027161,2|2,0:0|0:0,0:0:0:0:
32,280,188913,2,0,P|8:216|40:132,1,157.500006008148,2|2,0:0|0:0,0:0:0:0:
80,96,189735,6,0,B|140:56|204:92|208:96|212:100|264:140|336:100,1,262.500010013581,0|2,0:0|0:0,0:0:0:0:
436,60,191173,2,0,L|440:124,1,52.5000020027161,2|2,0:0|0:0,0:0:0:0:
428,148,191584,5,6,0:0:0:0:
364,244,192201,1,2,0:0:0:0:
364,244,192406,2,0,L|288:260,1,70,2|0,0:0|0:0,0:0:0:0:
220,244,193228,6,0,L|80:272,1,140,2|2,0:0|0:0,0:0:0:0:
12,236,194461,1,0,0:0:0:0:
12,236,194872,5,2,0:0:0:0:
256,48,196516,5,2,0:0:0:0:
484,192,197954,1,2,0:0:0:0:
484,192,198160,6,0,P|416:260|348:260,1,167.999994873047,2|0,0:0|0:0,0:0:0:0:
256,248,199393,2,0,L|256:204,1,41.9999987182618,0|2,0:0|0:0,0:0:0:0:
256,160,199804,6,0,B|180:172|180:172|136:148|88:160,1,167.999994873047,2|0,0:0|0:0,0:0:0:0:
36,232,201036,1,0,0:0:0:0:
124,260,201447,6,0,P|188:200|188:116,1,167.999994873047,2|0,0:0|0:0,0:0:0:0:
236,44,202680,2,0,B|256:40|256:40|280:44,1,41.9999987182618,0|2,0:0|0:0,0:0:0:0:
324,52,203091,6,0,L|492:32,1,167.999994873047,2|0,0:0|0:0,0:0:0:0:
468,120,204324,1,0,0:0:0:0:
448,164,204530,1,2,0:0:0:0:
428,204,204735,6,0,P|424:280|400:324,2,125.999996154785,2|2|0,0:0|0:0|0:0,0:0:0:0:
356,144,206379,2,0,L|188:132,1,167.999994873047,2|0,0:0|0:0,0:0:0:0:
116,192,207612,1,0,0:0:0:0:
188,251,208023,6,0,P|200:318|189:376,2,125.999996154785,2|2|0,0:0|0:0|0:0,0:0:0:0:
116,192,209667,6,0,P|108:148|116:108,1,83.9999974365235,2|0,0:0|0:0,0:0:0:0:
184,48,210489,2,0,P|226:63|256:90,1,83.9999974365235,0|0,0:0|0:0,0:0:0:0:
312,160,211310,6,0,B|396:168|396:168|436:152,1,125.999996154785,2|2,0:0|0:0,0:0:0:0:
472,284,212543,1,0,0:0:0:0:
380,264,212954,2,0,B|296:256|296:256|256:272,1,125.999996154785,2|2,0:0|0:0,0:0:0:0:
128,324,214187,1,0,0:0:0:0:
52,272,214598,6,0,P|36:216|52:152,1,125.999996154785,2|2,0:0|0:0,0:0:0:0:
152,56,215831,1,0,0:0:0:0:
196,136,216242,2,0,B|256:152|256:152|320:136,1,125.999996154785,2|2,0:0|0:0,0:0:0:0:
459,151,217475,1,0,0:0:0:0:
459,151,217886,6,0,P|476:211|460:272,2,125.999996154785,2|2|0,0:0|0:0|0:0,0:0:0:0:
372,124,219530,2,0,P|355:63|371:3,2,125.999996154785,2|2|0,0:0|0:0|0:0,0:0:0:0:
376,212,221173,5,2,0:0:0:0:
256,192,221278,12,0,225715,0:0:0:0:
