osu file format v14

[General]
AudioFilename: Mili - YUBIKIRI-GENMAN.mp3
AudioLeadIn: 0
PreviewTime: 66242
Countdown: 0
SampleSet: Soft
StackLeniency: 0.7
Mode: 0
LetterboxInBreaks: 0
WidescreenStoryboard: 1

[Editor]
DistanceSpacing: 1
BeatDivisor: 4
GridSize: 4
TimelineZoom: 1

[Metadata]
Title:YUBIKIRI-GENMAN
TitleUnicode:YUBIKIRI-GENMAN
Artist:Mili
ArtistUnicode:Mili
Creator:Pappy
Version:Hard
Source:Deemo
Tags:rayark yamato kasai hamoloid hamo
BeatmapID:891418
BeatmapSetID:410821

[Difficulty]
HPDrainRate:5
CircleSize:3
OverallDifficulty:6
ApproachRate:7
SliderMultiplier:1.6
SliderTickRate:1

[Events]
//Background and Video events
0,0,"bg.jpeg",0,0
//Break Periods
2,86579,98424
2,142469,162328
//Storyboard Layer 0 (Background)
//Storyboard Layer 1 (Fail)
//Storyboard Layer 2 (Pass)
//Storyboard Layer 3 (Foreground)
//Storyboard Sound Samples

[TimingPoints]
900,410.958904109589,4,2,1,40,1,0
900,-200,4,2,1,40,0,0
14050,-166.666666666667,4,2,1,40,0,0
66653,-133.333333333333,4,2,1,40,0,0
79804,-200,4,2,1,20,0,0
86379,-166.666666666667,4,2,1,40,0,0
164461,-200,4,2,1,40,0,0
165283,-133.333333333333,4,2,1,40,0,0
178434,-100,4,2,1,40,0,0
188297,-133.333333333333,4,2,1,40,0,0
191584,-200,4,2,1,20,0,0
198160,-166.666666666667,4,2,1,20,0,0
221173,422.535211267606,4,2,1,20,1,0
221173,-166.666666666667,4,2,1,20,0,0
222018,535.714285714286,4,2,1,20,1,0
222018,-166.666666666667,4,2,1,20,0,0
222821,504.201680672269,4,2,1,20,1,0
223073,526.315789473684,4,2,1,20,1,0
223073,504.201680672269,4,2,1,20,1,0
223073,-166.666666666667,4,2,1,20,0,0
223325,550.45871559633,4,2,1,20,1,0
223600,-166.666666666667,4,2,1,20,0,0
224150,600,4,2,1,20,1,0
224450,705.882352941176,4,2,1,20,1,0
224450,-166.666666666667,4,2,1,20,0,0
224802,810.810810810811,4,2,1,20,1,0
224802,-166.666666666667,4,2,1,20,0,0
225207,1016.94915254237,4,2,1,20,1,0

[Colours]
Combo1 : 255,255,128
Combo2 : 128,255,128

[HitObjects]
233,85,900,6,0,P|229:125|241:169,1,80,2|0,0:0|0:0,0:0:0:0:
291,190,1516,2,0,P|327:173|359:141,2,80,2|2|2,0:0|0:0|0:0,0:0:0:0:
240,223,2543,6,0,P|236:263|248:307,1,80,2|0,0:0|0:0,0:0:0:0:
304,320,3160,2,0,L|392:304,2,80,2|2|2,0:0|0:0|0:0,0:0:0:0:
245,301,4187,6,0,P|201:293|165:297,1,80,2|0,0:0|0:0,0:0:0:0:
108,304,4804,2,0,P|68:297|32:279,1,80,2|2,0:0|0:0,0:0:0:0:
56,160,5626,1,2,0:0:0:0:
56,160,5831,6,0,L|40:80,1,80,2|0,0:0|0:0,0:0:0:0:
60,24,6447,2,0,P|108:16|148:28,1,80,2|2,0:0|0:0,0:0:0:0:
188,60,7064,1,0,0:0:0:0:
248,68,7269,1,2,0:0:0:0:
304,48,7475,6,0,B|344:92|344:92|348:116,1,80,2|0,0:0|0:0,0:0:0:0:
352,172,8091,2,0,P|376:216|404:232,2,80,2|2|2,0:0|0:0|0:0,0:0:0:0:
300,144,9119,6,0,L|208:160,1,80,2|0,0:0|0:0,0:0:0:0:
160,164,9735,1,2,0:0:0:0:
40,180,10146,1,2,0:0:0:0:
114,276,10557,1,2,0:0:0:0:
114,276,10763,6,0,P|124:328|116:364,1,80,2|0,0:0|0:0,0:0:0:0:
180,348,11379,2,0,P|224:336|272:336,1,80,2|2,0:0|0:0,0:0:0:0:
376,352,12201,1,2,0:0:0:0:
376,352,12406,6,0,P|380:284|376:264,1,80,2|0,0:0|0:0,0:0:0:0:
348,220,13023,2,0,P|336:160|340:132,1,80,2|2,0:0|0:0,0:0:0:0:
372,92,13639,2,0,L|392:56,1,40,0|2,0:0|0:0,0:0:0:0:
304,12,14050,6,0,L|280:56,1,47.9999985351563,2|0,0:0|0:0,0:0:0:0:
216,128,14461,1,0,0:0:0:0:
136,76,14667,2,0,P|120:120|164:208,1,143.999995605469,0|0,0:0|0:0,0:0:0:0:
253,216,15489,1,2,0:0:0:0:
320,284,15694,6,0,P|348:288|372:284,2,47.9999985351563,0|0|0,0:0|0:0|0:0,0:0:0:0:
344,192,16310,2,0,L|356:92,1,95.9999970703126,0|0,0:0|0:0,0:0:0:0:
273,12,16927,2,0,L|268:60,1,47.9999985351563,2|0,0:0|0:0,0:0:0:0:
252,156,17338,5,0,0:0:0:0:
167,202,17543,1,0,0:0:0:0:
79,165,17749,1,0,0:0:0:0:
52,73,17954,1,0,0:0:0:0:
72,48,18571,2,0,L|136:35,1,47.9999985351563,2|0,0:0|0:0,0:0:0:0:
204,80,18982,5,2,0:0:0:0:
288,36,19187,1,0,0:0:0:0:
284,130,19393,1,0,0:0:0:0:
368,86,19598,2,0,P|392:76|416:72,2,47.9999985351563,2|0|2,0:0|0:0|0:0,0:0:0:0:
368,184,20215,2,0,P|364:209|356:232,1,47.9999985351563,2|0,0:0|0:0,0:0:0:0:
253,352,20626,6,0,P|206:359|160:348,1,95.9999970703126,2|0,0:0|0:0,0:0:0:0:
164,254,21242,2,0,P|211:247|257:258,1,95.9999970703126,2|0,0:0|0:0,0:0:0:0:
342,314,21858,1,2,0:0:0:0:
342,314,22269,6,0,B|364:288|364:288|380:228,1,95.9999970703126,2|0,0:0|0:0,0:0:0:0:
312,160,22886,2,0,P|312:100|332:68,1,95.9999970703126,2|0,2:0|2:0,0:0:0:0:
404,132,23502,1,2,2:0:0:0:
404,132,23913,6,0,L|304:164,1,95.9999970703126,2|0,2:0|2:0,0:0:0:0:
224,124,24530,2,0,L|124:156,1,95.9999970703126,2|0,0:0|0:0,0:0:0:0:
44,116,25146,1,2,0:0:0:0:
44,116,25557,5,2,0:0:0:0:
60,212,25763,1,0,0:0:0:0:
76,308,25968,1,0,0:0:0:0:
104,324,26379,1,2,0:0:0:0:
88,228,26584,1,2,0:0:0:0:
179,262,26790,1,2,0:0:0:0:
163,167,26995,1,2,0:0:0:0:
254,200,27201,6,0,P|312:192|356:200,1,95.9999970703126,6|0,0:0|0:0,0:0:0:0:
444,204,27817,2,0,P|484:168|496:128,1,95.9999970703126,2|0,0:0|0:0,0:0:0:0:
400,120,28434,1,2,0:0:0:0:
400,120,28639,1,2,0:0:0:0:
320,64,28845,6,0,L|224:56,1,95.9999970703126,2|0,0:0|0:0,0:0:0:0:
140,100,29461,2,0,B|120:144|120:144|132:192,1,95.9999970703126,2|0,0:0|0:0,0:0:0:0:
220,152,30078,2,0,L|232:199,1,47.9999985351563,2|2,0:0|0:0,0:0:0:0:
176,276,30489,5,2,0:0:0:0:
256,328,30694,1,0,0:0:0:0:
336,276,30900,1,0,0:0:0:0:
424,308,31105,2,0,P|480:304|492:300,2,47.9999985351563,2|0|0,0:0|0:0|0:0,0:0:0:0:
408,212,31721,2,0,P|376:165|367:157,1,47.9999985351563,2|2,0:0|0:0,0:0:0:0:
332,92,32132,6,0,P|316:40|328:0,1,95.9999970703126,2|0,0:0|0:0,0:0:0:0:
412,44,32749,2,0,P|428:96|416:136,1,95.9999970703126,2|0,0:0|0:0,0:0:0:0:
336,188,33365,1,2,0:0:0:0:
296,200,33776,6,0,L|184:180,1,95.9999970703126,2|0,0:0|0:0,0:0:0:0:
112,148,34393,2,0,P|105:200|125:241,1,95.9999970703126,2|0,0:0|0:0,0:0:0:0:
168,324,35009,2,0,P|168:356|160:376,1,47.9999985351563,2|0,0:0|0:0,0:0:0:0:
72,336,35420,6,0,L|168:324,1,95.9999970703126,2|0,0:0|0:0,0:0:0:0:
260,308,36036,2,0,L|356:296,1,95.9999970703126,2|0,0:0|0:0,0:0:0:0:
452,284,36653,2,0,L|500:278,1,47.9999985351563,2|0,0:0|0:0,0:0:0:0:
464,188,37064,6,0,P|480:128|468:88,1,95.9999970703126,2|0,0:0|0:0,0:0:0:0:
392,40,37680,2,0,P|332:56|303:86,1,95.9999970703126,2|0,0:0|0:0,0:0:0:0:
299,176,38297,2,0,P|342:219|383:229,2,95.9999970703126,2|2|2,0:0|0:0|0:0,0:0:0:0:
220,120,39324,5,0,0:0:0:0:
136,72,39530,2,0,P|123:110|124:136,1,47.9999985351563,0|0,0:0|0:0,0:0:0:0:
32,144,39941,2,0,P|49:180|68:197,1,47.9999985351563,0|2,0:0|0:0,0:0:0:0:
140,228,40352,6,0,P|172:300|152:360,1,143.999995605469,2|0,0:0|0:0,0:0:0:0:
76,300,41173,2,0,L|88:144,1,143.999995605469,2|0,0:0|0:0,0:0:0:0:
180,140,41995,6,0,P|128:144|148:72,1,143.999995605469,2|0,0:0|0:0,0:0:0:0:
236,60,42817,2,0,B|308:48|308:88|380:68,1,143.999995605469,2|0,0:0|0:0,0:0:0:0:
472,44,43639,5,2,0:0:0:0:
476,84,44050,1,2,0:0:0:0:
476,124,44461,1,2,0:0:0:0:
476,164,44872,1,2,0:0:0:0:
480,204,45283,6,0,B|468:276|384:264|384:264|384:264|312:184|276:252|200:160,1,335.999989746094,0|0,0:0|0:0,0:0:0:0:
128,108,46927,6,0,B|100:156|116:196|116:196|96:260,1,143.999995605469,2|0,0:0|0:0,0:0:0:0:
176,308,47749,2,0,B|191:262|191:262|236:284|284:268,1,143.999995605469,2|0,0:0|0:0,0:0:0:0:
376,244,48571,6,0,P|440:244|496:296,1,143.999995605469,2|0,0:0|0:0,0:0:0:0:
408,336,49393,1,2,0:0:0:0:
344,152,49804,2,0,L|324:104,1,47.9999985351563,0|0,0:0|0:0,0:0:0:0:
284,20,50215,6,0,P|232:16|192:32,1,95.9999970703126,2|0,0:0|0:0,0:0:0:0:
152,120,51036,2,0,P|174:167|208:193,1,95.9999970703126,2|0,0:0|0:0,0:0:0:0:
304,184,51858,6,0,P|333:140|339:98,1,95.9999970703126,0|2,0:0|0:0,0:0:0:0:
384,12,52680,2,0,P|408:4|436:4,2,47.9999985351563,0|0|2,0:0|0:0|0:0,0:0:0:0:
424,99,53502,6,0,B|432:152|454:188|454:188|448:216|448:244,1,143.999995605469,2|0,0:0|0:0,0:0:0:0:
392,316,54324,2,0,P|336:336|232:324,1,143.999995605469,2|0,0:0|0:0,0:0:0:0:
176,272,55146,5,2,0:0:0:0:
184,240,55763,1,0,0:0:0:0:
116,172,55968,2,0,P|165:147|248:170,1,143.999995605469,2|0,0:0|0:0,0:0:0:0:
276,260,56790,5,2,0:0:0:0:
364,220,57201,1,0,0:0:0:0:
404,308,57612,1,2,0:0:0:0:
316,348,58023,1,0,0:0:0:0:
364,220,58434,6,0,P|388:144|376:80,1,143.999995605469,0|0,0:0|0:0,0:0:0:0:
288,40,59256,2,0,P|256:48|232:64,1,47.9999985351563,0|0,0:0|0:0,0:0:0:0:
164,112,59667,2,0,P|186:135|212:148,1,47.9999985351563,2|0,0:0|0:0,0:0:0:0:
296,136,60078,6,0,P|278:201|213:239,1,143.999995605469,2|0,0:0|0:0,0:0:0:0:
160,160,60899,2,0,P|225:143|290:180,1,143.999995605469,2|0,0:0|0:0,0:0:0:0:
248,264,61721,6,0,P|200:215|200:140,1,143.999995605469,2|0,0:0|0:0,0:0:0:0:
288,104,62543,2,0,P|335:152|335:227,1,143.999995605469,2|0,0:0|0:0,0:0:0:0:
324,320,63365,6,0,P|328:360|328:372,1,47.9999985351563,2|0,0:0|0:0,0:0:0:0:
228,312,63776,2,0,P|220:351|217:362,1,47.9999985351563,0|0,0:0|0:0,0:0:0:0:
136,278,64187,2,0,P|119:313|113:324,1,47.9999985351563,2|0,0:0|0:0,0:0:0:0:
55,221,64598,2,0,P|29:251|20:259,1,47.9999985351563,0|0,0:0|0:0,0:0:0:0:
36,124,65009,5,2,0:0:0:0:
56,80,65215,1,0,0:0:0:0:
96,52,65420,1,2,0:0:0:0:
144,48,65626,1,0,0:0:0:0:
188,68,65831,1,2,0:0:0:0:
356,88,66447,1,0,0:0:0:0:
288,148,66653,6,0,P|271:211|289:261,1,120.000004577637,6|0,0:0|0:0,0:0:0:0:
372,204,67269,1,2,0:0:0:0:
288,260,67475,2,0,P|248:303|190:317,1,120.000004577637,2|0,0:0|0:0,0:0:0:0:
100,268,68091,1,2,0:0:0:0:
108,168,68297,6,0,P|147:124|205:110,1,120.000004577637,2|0,2:0|2:0,0:0:0:0:
296,160,68913,2,0,P|309:169|328:176,2,30.0000011444092,2|2|2,0:0|0:0|0:0,0:0:0:0:
276,120,69735,1,2,0:0:0:0:
184,72,69941,6,0,B|120:84|120:84|64:80,1,120.000004577637,2|0,0:0|0:0,0:0:0:0:
8,164,70557,1,2,0:0:0:0:
52,256,70763,2,0,P|98:260|121:254,1,60.0000022888184,2|2,0:0|0:0,0:0:0:0:
148,232,71379,1,2,0:0:0:0:
240,192,71584,6,0,B|328:208|328:208|352:228,1,120.000004577637,2|0,0:0|0:0,0:0:0:0:
436,288,72201,1,2,0:0:0:0:
452,188,72406,2,0,L|404:148,1,60.0000022888184,2|0,0:0|0:0,0:0:0:0:
368,120,73023,1,2,0:0:0:0:
292,52,73228,6,0,B|244:36|224:68|172:52,1,120.000004577637,2|0,0:0|0:0,0:0:0:0:
100,124,73845,1,2,0:0:0:0:
84,180,74050,1,2,0:0:0:0:
104,236,74256,1,0,0:0:0:0:
160,260,74461,2,0,L|228:244,1,60.0000022888184,2|0,0:0|0:0,0:0:0:0:
396,268,74872,6,0,L|376:148,1,120.000004577637,2|0,0:0|0:0,0:0:0:0:
436,64,75489,1,2,0:0:0:0:
332,55,75694,2,0,P|296:60|264:52,1,60.0000022888184,2|0,0:0|0:0,0:0:0:0:
172,36,76105,2,0,P|143:44|118:61,1,60.0000022888184,2|0,0:0|0:0,0:0:0:0:
192,136,76516,5,2,0:0:0:0:
192,136,76721,2,0,L|168:264,2,120.000004577637,2|2|0,0:0|0:0|0:0,0:0:0:0:
272,72,77749,2,0,L|283:13,1,60.0000022888184,2|0,0:0|0:0,0:0:0:0:
376,56,78160,5,2,0:0:0:0:
376,56,78365,1,0,0:0:0:0:
376,56,78571,2,0,P|376:88|384:116,1,60.0000022888184,2|0,0:0|0:0,0:0:0:0:
424,208,78982,1,2,0:0:0:0:
424,208,79187,1,0,0:0:0:0:
424,208,79393,2,0,P|418:237|405:264,1,60.0000022888184,2|0,0:0|0:0,0:0:0:0:
320,300,79804,6,0,P|252:288|208:312,1,120,2|2,0:0|0:0,0:0:0:0:
128,348,80626,2,0,P|76:328|52:304,1,80,2|0,0:0|0:0,0:0:0:0:
72,152,81447,2,0,P|49:101|49:67,2,80,2|0|2,0:0|0:0|0:0,0:0:0:0:
208,68,82680,1,2,0:0:0:0:
212,227,83091,5,2,0:0:0:0:
264,148,83913,1,0,0:0:0:0:
306,232,84735,2,0,B|400:208|360:180|436:136|436:136|384:96|400:36,1,280,2|0,0:0|0:0,0:0:0:0:
492,60,86379,5,2,0:0:0:0:
212,140,99324,5,2,0:0:0:0:
212,140,99530,6,0,L|204:80,1,47.9999985351563,2|0,0:0|0:0,0:0:0:0:
323,179,100146,1,2,0:0:0:0:
323,179,100352,2,0,L|378:202,1,47.9999985351563,2|0,0:0|0:0,0:0:0:0:
232,256,100968,1,2,0:0:0:0:
232,256,101174,2,0,L|185:293,1,47.9999985351563,2|0,0:0|0:0,0:0:0:0:
40,188,101790,1,2,0:0:0:0:
40,188,101996,2,0,L|87:224,1,47.9999985351563,2|0,0:0|0:0,0:0:0:0:
180,160,102612,1,2,0:0:0:0:
164,128,102817,6,0,P|160:75|161:59,1,47.9999985351563,2|0,0:0|0:0,0:0:0:0:
321,142,103434,1,2,0:0:0:0:
357,144,103639,2,0,P|404:167|417:176,1,47.9999985351563,2|0,0:0|0:0,0:0:0:0:
266,273,104256,1,2,0:0:0:0:
246,303,104461,2,0,P|202:332|188:339,1,47.9999985351563,2|0,0:0|0:0,0:0:0:0:
96,232,105078,1,2,0:0:0:0:
115,202,105283,2,0,P|158:172|173:166,1,47.9999985351563,2|0,0:0|0:0,0:0:0:0:
294,126,105899,1,2,0:0:0:0:
352,116,106105,6,0,L|412:112,1,47.9999985351563,2|0,0:0|0:0,0:0:0:0:
448,236,106721,1,2,0:0:0:0:
390,225,106927,2,0,L|330:221,1,47.9999985351563,2|0,0:0|0:0,0:0:0:0:
296,360,107543,1,2,0:0:0:0:
354,349,107749,2,0,L|414:345,1,47.9999985351563,2|0,0:0|0:0,0:0:0:0:
212,272,108365,1,2,0:0:0:0:
156,256,108571,6,0,P|112:248|120:372,2,191.999994140625,2|0|2,0:0|0:0|0:0,0:0:0:0:
256,196,110626,1,0,0:0:0:0:
348,124,111036,1,2,0:0:0:0:
364,239,111447,1,0,0:0:0:0:
256,196,111858,2,0,P|243:178|236:152,2,47.9999985351563,2|0|0,0:0|0:0|0:0,0:0:0:0:
268,312,112680,6,0,B|212:296|172:332|172:332|120:344|60:312|56:248|80:212,1,287.999991210938,2|0,0:0|0:0,0:0:0:0:
128,136,114119,1,0,0:0:0:0:
48,84,114324,6,0,L|84:48,1,47.9999985351563,2|0,0:0|0:0,0:0:0:0:
180,52,114735,2,0,L|230:52,1,47.9999985351563,0|2,0:0|0:0,0:0:0:0:
408,116,115352,2,0,L|357:116,2,47.9999985351563,0|2|0,0:0|0:0|0:0,0:0:0:0:
472,188,115968,6,0,B|444:240|456:296|456:296|488:284,2,143.999995605469,2|2|2,0:0|0:0|0:0,0:0:0:0:
324,64,117612,2,0,P|328:112|324:140,1,47.9999985351563,2|0,0:0|0:0,0:0:0:0:
272,192,118023,1,0,0:0:0:0:
272,192,118228,2,0,P|240:228|218:245,1,47.9999985351563,2|0,0:0|0:0,0:0:0:0:
144,245,118639,1,0,0:0:0:0:
144,245,118845,2,0,P|95:249|68:245,1,47.9999985351563,2|0,0:0|0:0,0:0:0:0:
16,191,119256,6,0,L|24:92,1,95.9999970703126,6|0,0:0|0:0,0:0:0:0:
100,36,119872,2,0,P|160:80|200:92,1,95.9999970703126,2|0,0:0|0:0,0:0:0:0:
276,72,120489,2,0,P|328:80|344:88,1,47.9999985351563,2|0,0:0|0:0,0:0:0:0:
288,168,120899,6,0,B|276:228|276:228|280:264,1,95.9999970703126,2|0,0:0|0:0,0:0:0:0:
372,236,121516,2,0,P|460:208|480:212,1,95.9999970703126,2|0,0:0|0:0,0:0:0:0:
444,304,122132,1,2,0:0:0:0:
420,328,122543,6,0,B|352:332|352:332|328:348,1,95.9999970703126,2|0,0:0|0:0,0:0:0:0:
232,364,123160,2,0,P|184:328|172:292,1,95.9999970703126,2|0,0:0|0:0,0:0:0:0:
260,256,123776,1,2,0:0:0:0:
296,240,124187,5,2,0:0:0:0:
280,144,124393,1,0,0:0:0:0:
264,48,124598,1,2,0:0:0:0:
236,32,125009,1,0,0:0:0:0:
252,128,125214,1,0,0:0:0:0:
161,94,125420,1,2,0:0:0:0:
177,189,125625,1,2,0:0:0:0:
86,156,125831,6,0,P|87:225|139:278,1,143.999995605469,2|2,0:0|0:0,0:0:0:0:
152,372,126653,2,0,P|211:336|231:265,1,143.999995605469,2|2,0:0|0:0,0:0:0:0:
177,189,127475,6,0,L|320:236,1,143.999995605469,2|2,0:0|0:0,0:0:0:0:
408,260,128297,1,2,0:0:0:0:
440,272,128708,2,0,L|472:208,1,47.9999985351563,2|2,0:0|0:0,0:0:0:0:
508,144,129119,5,2,0:0:0:0:
432,88,129530,1,2,0:0:0:0:
344,128,129941,1,2,0:0:0:0:
296,44,130352,1,2,0:0:0:0:
208,80,130763,6,0,P|168:96|112:92,1,95.9999970703126,2|0,0:0|0:0,0:0:0:0:
24,72,131379,1,0,0:0:0:0:
48,164,131584,2,0,P|48:200|44:224,1,47.9999985351563,2|0,0:0|0:0,0:0:0:0:
24,304,131995,2,0,P|31:326|42:348,1,47.9999985351563,0|2,0:0|0:0,0:0:0:0:
116,288,132406,6,0,L|260:272,1,143.999995605469,2|2,0:0|0:0,0:0:0:0:
352,248,133228,2,0,P|282:238|239:182,1,143.999995605469,2|2,0:0|0:0,0:0:0:0:
292,100,134050,6,0,P|361:109|404:165,1,143.999995605469,2|2,0:0|0:0,0:0:0:0:
449,252,134872,2,0,L|296:244,1,143.999995605469,2|2,0:0|0:0,0:0:0:0:
224,196,135694,6,0,P|212:228|212:260,3,47.9999985351563,2|0|0|0,0:0|0:0|0:0|0:0,0:0:0:0:
116,268,136516,2,0,P|130:299|152:321,3,47.9999985351563,2|0|0|0,0:0|0:0|0:0|0:0,0:0:0:0:
232,336,137338,5,2,0:0:0:0:
248,292,137543,1,0,0:0:0:0:
284,260,137748,1,0,0:0:0:0:
332,256,137954,1,0,0:0:0:0:
376,272,138160,1,2,0:0:0:0:
284,260,138571,1,0,0:0:0:0:
232,336,138982,5,6,0:0:0:0:
256,192,139084,12,0,142269,0:0:0:0:
189,143,163228,5,0,0:0:0:0:
189,143,163639,5,2,2:0:0:0:
281,114,163845,1,0,2:0:0:0:
337,192,164050,1,0,2:0:0:0:
281,269,164255,1,2,2:0:0:0:
189,239,164461,1,2,0:0:0:0:
189,239,165078,1,2,0:0:0:0:
100,288,165283,6,0,P|88:228|116:172,1,120.000004577637,6|0,0:0|0:0,0:0:0:0:
208,136,165900,1,2,0:0:0:0:
208,136,166105,2,0,B|240:124|255:101|255:101|288:96|308:72,1,120.000004577637,2|0,0:0|0:0,0:0:0:0:
392,16,166721,1,2,0:0:0:0:
484,60,166927,5,2,0:0:0:0:
400,116,167132,2,0,B|391:155|391:155|368:187|368:187|360:226,1,120.000004577637,0|2,0:0|0:0,0:0:0:0:
348,276,167646,1,2,0:0:0:0:
348,276,167749,1,2,0:0:0:0:
372,296,168365,1,2,0:0:0:0:
288,356,168571,6,0,P|232:328|176:340,1,120.000004577637,2|0,0:0|0:0,0:0:0:0:
76,332,169187,1,2,0:0:0:0:
136,248,169393,1,2,0:0:0:0:
136,248,169598,2,0,L|120:128,1,120.000004577637,2|0,0:0|0:0,0:0:0:0:
104,28,170215,5,2,0:0:0:0:
132,40,170831,2,0,L|176:64,2,30.0000011444092,2|2|2,0:0|0:0|0:0,0:0:0:0:
300,156,171447,2,0,P|298:188|308:220,1,60.0000022888184,0|2,0:0|0:0,0:0:0:0:
400,176,171858,6,0,L|408:52,1,120.000004577637,2|0,0:0|0:0,0:0:0:0:
316,12,172475,1,2,0:0:0:0:
316,12,172680,2,0,P|280:20|248:20,1,60.0000022888184,2|0,0:0|0:0,0:0:0:0:
156,20,173091,2,0,P|126:21|96:28,1,60.0000022888184,0|0,0:0|0:0,0:0:0:0:
140,120,173502,6,0,P|124:168|144:232,1,120.000004577637,2|0,0:0|0:0,0:0:0:0:
228,172,174119,1,2,0:0:0:0:
228,172,174324,2,0,L|288:164,1,60.0000022888184,2|0,0:0|0:0,0:0:0:0:
380,204,174735,2,0,L|440:196,1,60.0000022888184,0|2,0:0|0:0,0:0:0:0:
508,120,175146,5,2,0:0:0:0:
508,120,175352,1,2,0:0:0:0:
396,48,175763,2,0,P|344:40|264:32,1,120.000004577637,2|0,0:0|0:0,0:0:0:0:
192,88,176379,2,0,P|140:84|104:80,1,60.0000022888184,0|2,0:0|0:0,0:0:0:0:
52,20,176790,5,2,0:0:0:0:
38,121,176995,1,0,0:0:0:0:
132,83,177201,1,2,0:0:0:0:
52,20,177406,1,0,0:0:0:0:
38,121,177612,2,0,P|16:168|16:184,1,60.0000022888184,2|2,0:0|0:0,0:0:0:0:
132,83,178023,2,0,P|160:90|184:108,1,60.0000022888184,2|10,0:0|0:0,0:0:0:0:
118,184,178434,6,0,P|136:228|132:264,1,80,6|0,0:0|0:0,0:0:0:0:
40,240,178845,1,0,0:0:0:0:
69,330,179050,1,2,0:0:0:0:
69,330,179256,2,0,P|103:351|143:355,1,80,2|0,0:0|0:0,0:0:0:0:
224,300,179667,1,0,0:0:0:0:
212,204,179872,1,2,0:0:0:0:
118,184,180078,6,0,L|110:100,1,80,2|0,0:0|0:0,0:0:0:0:
176,36,180489,1,0,0:0:0:0:
252,96,180694,2,0,L|296:84,1,40,2|2,0:0|0:0,0:0:0:0:
252,96,180900,2,0,P|324:112|396:56,1,160,2|0,0:0|0:0,0:0:0:0:
308,16,181516,1,2,0:0:0:0:
480,24,181721,6,0,L|472:104,1,80,2|0,0:0|0:0,0:0:0:0:
412,180,182132,1,0,0:0:0:0:
332,232,182338,1,2,0:0:0:0:
412,180,182543,2,0,L|420:260,1,80,2|2,0:0|0:0,0:0:0:0:
352,328,182954,1,0,0:0:0:0:
258,297,183160,1,2,0:0:0:0:
176,244,183365,6,0,P|160:287|163:320,2,80,2|0|0,0:0|0:0|0:0,0:0:0:0:
262,199,183982,1,2,0:0:0:0:
262,199,184187,2,0,P|278:156|275:123,1,80,2|0,0:0|0:0,0:0:0:0:
248,96,184804,1,2,0:0:0:0:
160,64,185009,6,0,B|96:80|96:80|56:68|56:68|0:80,1,160,6|0,0:0|0:0,0:0:0:0:
48,164,185626,1,2,0:0:0:0:
73,256,185831,1,2,0:0:0:0:
152,268,186036,1,0,0:0:0:0:
232,268,186242,1,0,0:0:0:0:
304,236,186447,1,2,0:0:0:0:
357,179,186653,6,0,P|344:120|400:44,1,160,2|0,0:0|0:0,0:0:0:0:
440,132,187269,1,2,0:0:0:0:
440,228,187475,2,0,L|448:312,2,80,2|0|0,0:0|0:0|0:0,0:0:0:0:
440,132,188091,1,2,0:0:0:0:
399,44,188297,6,0,P|364:45|323:36,1,60.0000022888184,2|2,0:0|0:0,0:0:0:0:
304,28,188913,2,0,P|228:24|180:36,1,120.000004577637,2|0,0:0|0:0,0:0:0:0:
112,96,189530,2,0,P|76:108|44:108,1,60.0000022888184,2|0,0:0|0:0,0:0:0:0:
64,12,189941,5,2,0:0:0:0:
160,12,190146,1,0,0:0:0:0:
256,20,190352,2,0,L|320:24,1,60.0000022888184,2|0,0:0|0:0,0:0:0:0:
384,92,190763,5,2,0:0:0:0:
291,116,190968,1,2,0:0:0:0:
200,149,191174,2,0,L|139:169,1,60.0000022888184,2|2,0:0|0:0,0:0:0:0:
56,200,191584,5,6,0:0:0:0:
116,304,192201,1,2,0:0:0:0:
152,292,192406,2,0,P|204:296|252:308,1,80,2|0,0:0|0:0,0:0:0:0:
320,340,193228,2,0,P|359:344|399:344,1,80,2|0,0:0|0:0,0:0:0:0:
460,268,194050,1,2,0:0:0:0:
424,180,194461,1,0,0:0:0:0:
328,168,194872,5,2,0:0:0:0:
196,80,195694,1,0,0:0:0:0:
186,239,196516,5,2,0:0:0:0:
204,248,197954,2,0,L|252:244,1,40,2|2,0:0|0:0,0:0:0:0:
280,252,198776,6,0,P|320:248|376:252,1,95.9999970703126,2|2,0:0|0:0,0:0:0:0:
464,216,199598,1,2,0:0:0:0:
464,216,199804,1,2,0:0:0:0:
360,116,200420,2,0,P|312:108|268:88,1,95.9999970703126,2|2,0:0|0:0,0:0:0:0:
180,48,201242,1,2,0:0:0:0:
180,48,201447,5,2,0:0:0:0:
96,164,202064,2,0,P|100:228|124:260,1,95.9999970703126,2|2,0:0|0:0,0:0:0:0:
192,192,202886,1,2,0:0:0:0:
192,192,203091,1,2,0:0:0:0:
316,268,203708,2,0,L|416:264,1,95.9999970703126,2|2,0:0|0:0,0:0:0:0:
456,248,204324,1,0,0:0:0:0:
460,200,204530,1,2,0:0:0:0:
420,172,204735,6,0,B|396:132|408:84|408:84|368:48,1,143.999995605469,2|2,0:0|0:0,0:0:0:0:
280,88,205763,2,0,L|316:120,1,47.9999985351563,2|0,0:0|0:0,0:0:0:0:
228,160,206379,6,0,B|189:126|194:81|194:81|196:48|168:24,1,143.999995605469,2|2,0:0|0:0,0:0:0:0:
96,84,207406,2,0,P|64:80|48:76,1,47.9999985351563,2|0,0:0|0:0,0:0:0:0:
60,172,208023,6,0,P|68:216|40:316,1,143.999995605469,2|2,0:0|0:0,0:0:0:0:
136,340,209050,2,0,L|192:328,1,47.9999985351563,2|0,0:0|0:0,0:0:0:0:
272,292,209667,6,0,B|312:300|340:320|340:320|364:320,1,95.9999970703126,2|0,0:0|0:0,0:0:0:0:
404,300,210283,2,0,P|424:268|420:196,1,95.9999970703126,2|2,0:0|0:0,0:0:0:0:
412,164,210900,2,0,P|408:120|412:108,1,47.9999985351563,0|2,0:0|0:0,0:0:0:0:
444,84,211310,6,0,P|380:96|152:44,1,287.999991210938,2|0,0:0|0:0,0:0:0:0:
100,120,212954,2,0,B|84:172|108:220|108:220|64:220|40:264|68:316|120:304|120:304|104:332,1,287.999991210938,2|0,0:0|0:0,0:0:0:0:
200,348,214598,6,0,B|264:348|292:304|292:304|328:308|348:280|348:280|380:280|396:256|396:256|380:288|388:324,1,287.999991210938,2|0,0:0|0:0,0:0:0:0:
480,300,216242,2,0,P|488:225|439:172,1,143.999995605469,2|2,0:0|0:0,0:0:0:0:
376,112,217269,2,0,P|368:80|368:60,2,47.9999985351563,2|0|2,0:0|0:0|0:0,0:0:0:0:
344,148,217886,6,0,L|244:164,1,95.9999970703126,2|0,0:0|0:0,0:0:0:0:
208,140,218502,2,0,L|113:124,1,95.9999970703126,2|2,0:0|0:0,0:0:0:0:
76,156,219119,2,0,L|28:163,1,47.9999985351563,0|2,0:0|0:0,0:0:0:0:
56,276,219530,6,0,P|108:260|156:260,1,95.9999970703126,2|0,0:0|0:0,0:0:0:0:
196,268,220146,2,0,P|256:272|308:256,1,95.9999970703126,2|2,0:0|0:0,0:0:0:0:
336,248,220763,2,0,P|384:253|398:261,1,47.9999985351563,0|2,0:0|0:0,0:0:0:0:
348,344,221173,5,2,0:0:0:0:
256,192,221278,12,0,225715,0:0:0:0:
