osu file format v14

[General]
AudioFilename: Mili - YUBIKIRI-GENMAN.mp3
AudioLeadIn: 0
PreviewTime: 66242
Countdown: 0
SampleSet: Soft
StackLeniency: 0.7
Mode: 0
LetterboxInBreaks: 0
WidescreenStoryboard: 1

[Editor]
DistanceSpacing: 1
BeatDivisor: 4
GridSize: 4
TimelineZoom: 1

[Metadata]
Title:YUBIKIRI-GENMAN
TitleUnicode:YUBIKIRI-GENMAN
Artist:Mili
ArtistUnicode:Mili
Creator:Pappy
Version:Easy
Source:Deemo
Tags:rayark yamato kasai hamoloid hamo
BeatmapID:891417
BeatmapSetID:410821

[Difficulty]
HPDrainRate:2
CircleSize:2
OverallDifficulty:2
ApproachRate:3
SliderMultiplier:1.2
SliderTickRate:1

[Events]
//Background and Video events
0,0,"bg.jpeg",0,0
//Break Periods
2,86579,98090
2,142469,163843
//Storyboard Layer 0 (Background)
//Storyboard Layer 1 (Fail)
//Storyboard Layer 2 (Pass)
//Storyboard Layer 3 (Foreground)
//Storyboard Sound Samples

[TimingPoints]
900,410.958904109589,4,2,1,40,1,0
900,-200,4,2,1,40,0,0
14050,-166.666666666667,4,2,1,40,0,0
66653,-133.333333333333,4,2,1,40,0,0
79804,-133.333333333333,4,2,1,20,0,0
86379,-166.666666666667,4,2,1,40,0,0
164461,-200,4,2,1,40,0,0
165283,-133.333333333333,4,2,1,40,0,0
178434,-100,4,2,1,40,0,0
191584,-133.333333333333,4,2,1,20,0,0
198160,-166.666666666667,4,2,1,20,0,0
221173,422.535211267606,4,2,1,20,1,0
221173,-166.666666666667,4,2,1,20,0,0
222018,535.714285714286,4,2,1,20,1,0
222018,-166.666666666667,4,2,1,20,0,0
222821,504.201680672269,4,2,1,20,1,0
223073,526.315789473684,4,2,1,20,1,0
223073,504.201680672269,4,2,1,20,1,0
223073,-166.666666666667,4,2,1,20,0,0
223325,550.45871559633,4,2,1,20,1,0
223600,-166.666666666667,4,2,1,20,0,0
224150,600,4,2,1,20,1,0
224450,705.882352941176,4,2,1,20,1,0
224450,-166.666666666667,4,2,1,20,0,0
224802,810.810810810811,4,2,1,20,1,0
224802,-166.666666666667,4,2,1,20,0,0
225207,1016.94915254237,4,2,1,20,1,0

[Colours]
Combo1 : 255,255,128
Combo2 : 128,255,128

[HitObjects]
170,85,14050,6,0,P|256:28|342:89,1,215.999993408203,2|0,0:0|0:0,0:0:0:0:
256,124,15694,2,0,B|224:180|256:231|256:231|288:280|260:332,1,215.999993408203,0|2,0:0|0:0,0:0:0:0:
180,284,17338,6,0,P|149:208|178:78,1,215.999993408203,0|2,0:0|0:0,0:0:0:0:
256,28,18982,2,0,P|272:80|252:136,2,107.999996704102,2|2|2,0:0|0:0|0:0,0:0:0:0:
176,80,20626,6,0,B|128:84|88:52|88:52|52:28|-12:48|-4:108,1,215.999993408203,2|2,0:0|0:0,0:0:0:0:
68,152,22269,2,0,P|120:240|60:324,1,215.999993408203,2|2,0:0|2:0,0:0:0:0:
24,236,23913,6,0,L|252:244,1,215.999993408203,2|2,2:0|0:0,0:0:0:0:
316,188,25557,2,0,P|332:216|332:264,1,71.9999978027344,2|0,0:0|0:0,0:0:0:0:
258,310,26379,2,0,P|242:282|242:234,1,71.9999978027344,2|2,0:0|0:0,0:0:0:0:
229,147,27201,6,0,P|212:64|96:40,1,215.999993408203,6|2,0:0|0:0,0:0:0:0:
36,112,28845,2,0,P|53:195|169:219,1,215.999993408203,2|2,0:0|0:0,0:0:0:0:
229,147,30489,6,0,B|300:144|300:144|368:172|368:172|444:168,1,215.999993408203,2|2,0:0|0:0,0:0:0:0:
472,256,32132,2,0,P|468:312|432:352,2,107.999996704102,2|2|2,0:0|0:0|0:0,0:0:0:0:
380,272,33776,6,0,L|164:296,1,215.999993408203,2|2,0:0|0:0,0:0:0:0:
88,352,35420,2,0,P|72:288|180:203,1,215.999993408203,2|2,0:0|0:0,0:0:0:0:
268,192,37064,6,0,P|358:144|355:42,1,215.999993408203,2|2,0:0|0:0,0:0:0:0:
276,96,38708,2,0,L|120:68,1,143.999995605469,2|0,0:0|0:0,0:0:0:0:
12,216,40352,6,0,B|8:304|8:304|44:364,1,143.999995605469,2|2,0:0|0:0,0:0:0:0:
159,206,41995,2,0,B|163:118|163:118|127:58,1,143.999995605469,2|2,0:0|0:0,0:0:0:0:
316,120,43639,6,0,P|352:128|400:124,1,71.9999978027344,2|2,0:0|0:0,0:0:0:0:
428,212,44461,2,0,P|403:239|382:282,1,71.9999978027344,2|2,0:0|0:0,0:0:0:0:
320,336,45283,2,0,P|264:348|136:264,1,215.999993408203,0|2,0:0|0:0,0:0:0:0:
216,216,46927,6,0,P|224:236|308:204,1,143.999995605469,2|2,0:0|0:0,0:0:0:0:
152,100,48571,2,0,P|144:80|60:112,1,143.999995605469,2|2,0:0|0:0,0:0:0:0:
116,292,50215,6,0,P|60:352|-12:368,1,143.999995605469,2|2,0:0|0:0,0:0:0:0:
56,188,51858,2,0,P|112:128|184:112,1,143.999995605469,0|0,0:0|0:0,0:0:0:0:
292,252,53502,6,0,B|340:268|340:268|440:252,1,143.999995605469,2|2,0:0|0:0,0:0:0:0:
289,130,55146,2,0,B|279:81|279:81|215:2,1,143.999995605469,2|2,0:0|0:0,0:0:0:0:
186,193,56790,6,0,L|120:232,1,71.9999978027344,2|0,0:0|0:0,0:0:0:0:
84,312,57612,2,0,L|17:350,2,71.9999978027344,2|0|0,0:0|0:0|0:0,0:0:0:0:
416,140,60078,6,0,P|412:204|424:296,1,143.999995605469,2|2,0:0|0:0,0:0:0:0:
264,180,61721,2,0,P|268:116|256:24,1,143.999995605469,2|2,0:0|0:0,0:0:0:0:
72,68,63365,6,0,B|68:116|44:144|44:144|40:180|72:208,1,143.999995605469,2|2,0:0|0:0,0:0:0:0:
224,296,65009,2,0,B|228:248|252:220|252:220|256:184|224:156,1,143.999995605469,2|2,0:0|0:0,0:0:0:0:
232,163,66653,6,0,P|312:152|400:104,1,180.000006866455,6|2,0:0|0:0,0:0:0:0:
460,276,68297,2,0,L|440:380,2,90.0000034332276,2|0|2,2:0|2:0|0:0,0:0:0:0:
280,221,69941,6,0,P|200:232|112:280,1,180.000006866455,2|2,0:0|0:0,0:0:0:0:
52,108,71585,2,0,L|72:4,2,90.0000034332276,2|0|2,0:0|0:0|0:0,0:0:0:0:
232,163,73228,6,0,B|311:120|311:120|396:152,1,180.000006866455,2|2,0:0|0:0,0:0:0:0:
412,332,74872,2,0,B|333:375|333:375|248:343,1,180.000006866455,2|2,0:0|0:0,0:0:0:0:
88,264,76516,2,0,P|64:312|76:396,2,135.000005149841,2|2|2,0:0|0:0|0:0,0:0:0:0:
164,216,78160,6,0,L|152:116,1,90.0000034332276,2|2,0:0|0:0,0:0:0:0:
244,112,78982,2,0,L|275:16,1,90.0000034332276,2|2,0:0|0:0,0:0:0:0:
356,60,79804,2,0,B|480:20|480:20|536:40,1,180.000006866455,2|2,0:0|0:0,0:0:0:0:
480,116,81036,1,0,0:0:0:0:
433,195,81447,6,0,P|432:240|460:284,2,90.0000034332277,2|0|2,0:0|0:0|0:0,0:0:0:0:
480,116,82680,2,0,P|481:71|453:27,1,90.0000034332277,2|2,0:0|0:0,0:0:0:0:
284,72,83913,2,0,L|96:44,1,180.000006866455,0|2,0:0|0:0,0:0:0:0:
256,292,86379,5,2,0:0:0:0:
0,112,99530,6,0,P|68:92|136:112,1,143.999995605469,2|2,0:0|0:0,0:0:0:0:
188,248,101173,2,0,B|256:268|256:268|328:248,1,143.999995605469,2|2,0:0|0:0,0:0:0:0:
375,112,102817,6,0,P|443:91|511:111,2,143.999995605469,2|2|2,0:0|0:0|0:0,0:0:0:0:
256,192,105283,1,2,0:0:0:0:
360,292,106105,6,0,B|429:313|429:313|480:364,2,143.999995605469,2|2|2,0:0|0:0|0:0,0:0:0:0:
256,192,108571,1,2,0:0:0:0:
152,292,109393,6,0,B|83:313|83:313|32:364,2,143.999995605469,0|2|2,0:0|0:0|0:0,0:0:0:0:
256,192,111858,2,0,L|256:152,2,35.9999989013672,2|0|0,0:0|0:0|0:0,0:0:0:0:
256,264,112680,6,0,P|356:296|456:260,1,215.999993408203,2|0,0:0|0:0,0:0:0:0:
488,192,114324,2,0,B|430:143|449:62|449:62|418:78|376:70,1,215.999993408203,2|2,0:0|0:0,0:0:0:0:
308,48,115968,6,0,P|256:36|200:48,1,107.999996704102,2|2,0:0|0:0,0:0:0:0:
148,220,117612,2,0,B|132:288|132:288|148:324,2,107.999996704102,2|2|2,0:0|0:0|0:0,0:0:0:0:
180,156,119256,6,0,P|256:94|336:156,1,215.999993408203,6|2,0:0|0:0,0:0:0:0:
360,224,120899,2,0,B|288:240|256:212|256:212|224:240|152:224,1,215.999993408203,2|2,0:0|0:0,0:0:0:0:
92,188,122543,6,0,P|84:104|92:84,2,107.999996704102,2|2|2,0:0|0:0|0:0,0:0:0:0:
152,224,124187,1,2,0:0:0:0:
256,124,125009,1,0,0:0:0:0:
360,224,125831,5,2,0:0:0:0:
256,324,126653,1,2,0:0:0:0:
112,332,127475,1,2,0:0:0:0:
76,192,128297,2,0,L|108:120,1,71.9999978027344,2|2,0:0|0:0,0:0:0:0:
120,56,129119,6,0,P|188:36|256:56,1,143.999995605469,2|2,0:0|0:0,0:0:0:0:
316,96,130352,1,2,0:0:0:0:
375,135,130763,2,0,P|443:155|511:135,1,143.999995605469,2|2,0:0|0:0,0:0:0:0:
460,268,132406,6,0,L|316:240,1,143.999995605469,2|2,0:0|0:0,0:0:0:0:
256,208,133639,1,0,0:0:0:0:
193,240,134050,2,0,L|52:268,1,143.999995605469,2|2,0:0|0:0,0:0:0:0:
120,140,135694,6,0,P|256:99|392:144,2,287.999991210938,2|2|6,0:0|0:0|0:0,0:0:0:0:
256,192,139393,12,0,142269,0:0:0:0:
32,168,165283,6,0,L|168:144,1,135.000005149841,6|2,0:0|0:0,0:0:0:0:
188,104,166105,2,0,P|256:92|320:104,1,135.000005149841,2|2,0:0|0:0,0:0:0:0:
347,144,166927,2,0,L|480:168,1,135.000005149841,2|2,0:0|0:0,0:0:0:0:
508,204,167749,1,2,0:0:0:0:
392,344,168571,6,0,B|300:324|300:324|289:284,1,135.000005149841,2|2,0:0|0:0,0:0:0:0:
256,248,169393,1,2,0:0:0:0:
256,248,169598,2,0,P|211:239|167:248,1,90.0000034332277,2|0,0:0|0:0,0:0:0:0:
128,272,170215,2,0,L|163:95,1,180.000006866455,2|2,0:0|0:0,0:0:0:0:
348,95,171858,6,0,L|384:272,1,180.000006866455,2|2,0:0|0:0,0:0:0:0:
320,336,173091,1,0,0:0:0:0:
256,272,173502,2,0,P|211:264|167:272,1,90.0000034332277,2|0,0:0|0:0,0:0:0:0:
128,292,174119,1,2,0:0:0:0:
88,315,174324,2,0,P|26:293|7:230,1,135.000005149841,2|2,0:0|0:0,0:0:0:0:
32,192,175146,6,0,L|97:130,1,90.0000034332277,2|0,0:0|0:0,0:0:0:0:
164,68,175968,1,0,0:0:0:0:
348,68,176790,2,0,L|413:129,1,90.0000034332277,2|0,0:0|0:0,0:0:0:0:
480,192,177612,1,0,0:0:0:0:
316,368,178434,6,0,P|328:308|316:252,1,120,6|0,0:0|0:0,0:0:0:0:
196,251,179256,2,0,P|183:309|196:368,2,120,2|0|2,0:0|0:0|0:0,0:0:0:0:
256,148,180489,2,0,L|256:88,2,60,0|2|2,0:0|0:0|0:0,0:0:0:0:
20,192,181721,6,0,L|40:312,2,120,2|0|2,0:0|0:0|0:0,0:0:0:0:
39,73,182954,1,0,0:0:0:0:
152,112,183365,2,0,B|176:128|208:128|240:120|256:88|256:88|272:120|304:128|336:128|364:112,1,240,2|2,0:0|0:0,0:0:0:0:
416,348,185009,6,0,B|332:344|332:344|304:320,1,120,6|0,0:0|0:0,0:0:0:0:
256,284,185626,1,2,0:0:0:0:
208,320,185831,2,0,B|180:344|180:344|96:348,1,120,2|0,0:0|0:0,0:0:0:0:
144,236,186653,6,0,L|116:116,2,120,2|0|2,0:0|0:0|0:0,0:0:0:0:
256,96,188297,1,2,0:0:0:0:
368,236,189119,1,0,0:0:0:0:
156,128,189941,6,0,P|96:108|119:286,1,360,2|2,0:0|0:0,0:0:0:0:
100,197,191584,5,6,0:0:0:0:
256,284,192406,1,2,0:0:0:0:
412,197,193228,2,0,P|420:150|412:108,2,90.0000034332277,2|0|2,0:0|0:0|0:0,0:0:0:0:
344,256,194461,2,0,P|336:303|344:345,1,90.0000034332277,0|2,0:0|0:0,0:0:0:0:
168,344,195694,1,0,0:0:0:0:
256,188,196516,5,2,0:0:0:0:
256,188,198160,6,0,P|156:224|56:188,1,215.999993408203,2|0,0:0|0:0,0:0:0:0:
56,116,199804,2,0,P|156:80|256:116,1,215.999993408203,2|0,0:0|0:0,0:0:0:0:
256,188,201447,6,0,B|300:296|360:228|408:332,1,215.999993408203,2|0,0:0|0:0,0:0:0:0:
340,360,203091,2,0,B|294:252|385:258|345:150,1,215.999993408203,2|0,0:0|0:0,0:0:0:0:
304,92,204735,6,0,B|256:68|256:2|256:2|256:68|208:92,1,215.999993408203,2|0,0:0|0:0,0:0:0:0:
148,132,206379,2,0,P|136:204|224:308,1,215.999993408203,2|0,0:0|0:0,0:0:0:0:
289,307,208023,6,0,P|367:236|364:132,1,215.999993408203,2|0,0:0|0:0,0:0:0:0:
308,88,209667,6,0,B|256:72|256:72|204:88,2,107.999996704102,2|2|0,0:0|0:0|0:0,0:0:0:0:
364,132,211310,6,0,P|440:144|472:136,1,107.999996704102,2|2,0:0|0:0,0:0:0:0:
508,196,212338,2,0,L|496:240,1,35.9999989013672,2|0,0:0|0:0,0:0:0:0:
456,288,212954,6,0,P|380:276|348:284,1,107.999996704102,2|2,0:0|0:0,0:0:0:0:
312,224,213982,2,0,L|324:180,1,35.9999989013672,2|0,0:0|0:0,0:0:0:0:
312,120,214598,6,0,L|204:120,1,107.999996704102,2|2,0:0|0:0,0:0:0:0:
190,189,215626,2,0,L|200:224,1,35.9999989013672,2|0,0:0|0:0,0:0:0:0:
256,268,216242,6,0,P|120:256|92:184,1,215.999993408203,2|0,0:0|0:0,0:0:0:0:
36,148,217886,2,0,B|89:85|89:85|144:120|220:91,1,215.999993408203,2|0,0:0|0:0,0:0:0:0:
293,92,219530,6,0,B|367:120|422:85|422:85|476:148,1,215.999993408203,2|0,0:0|0:0,0:0:0:0:
419,196,221173,5,2,0:0:0:0:
256,192,221384,12,0,225715,0:0:0:0:
