osu file format v14

[General]
AudioFilename: audio.mp3
AudioLeadIn: 0
PreviewTime: 236807
Countdown: 1
SampleSet: Soft
StackLeniency: 0.3
Mode: 0
LetterboxInBreaks: 0
WidescreenStoryboard: 1

[Editor]
DistanceSpacing: 0.4
BeatDivisor: 3
GridSize: 32
TimelineZoom: 1.4

[Metadata]
Title:Witch's Invitation
TitleUnicode:Witch's Invitation
Artist:Mili
ArtistUnicode:Mili
Creator:SMOKELIND
Version:Litalitaluta
Source:DEEMO
Tags:momocashew cassie wei project projectmili yamato kasai hamo mag mell H△G×Mili HAG english japanese classical song collection vol. 2
BeatmapID:2665452
BeatmapSetID:1283474

[Difficulty]
HPDrainRate:4.7
CircleSize:4.7
OverallDifficulty:7
ApproachRate:9
SliderMultiplier:2.27
SliderTickRate:1

[Events]
//Background and Video events
0,0,"Witch's Invitation.jpg",0,0
//Break Periods
//Storyboard Layer 0 (Background)
//Storyboard Layer 1 (Fail)
//Storyboard Layer 2 (Pass)
//Storyboard Layer 3 (Foreground)
//Storyboard Layer 4 (Overlay)
//Storyboard Sound Samples

[TimingPoints]
900,454.545454545455,4,2,77,47,1,0
900,-212.765957446811,4,2,77,47,0,0
13627,-129.870129870131,4,2,77,57,0,0
13797,-129.870129870131,4,2,77,7,0,0
13854,-129.870129870131,4,2,77,57,0,0
14252,-129.870129870131,4,2,77,7,0,0
14309,-129.870129870131,4,2,77,57,0,0
15615,-129.870129870131,4,2,77,7,0,0
15672,-129.870129870131,4,2,77,57,0,0
16070,-129.870129870131,4,2,77,7,0,0
16127,-129.870129870131,4,2,77,57,0,0
17434,-129.870129870131,4,2,77,7,0,0
17491,-129.870129870131,4,2,77,57,0,0
17888,-129.870129870131,4,2,77,7,0,0
17945,-129.870129870131,4,2,77,57,0,0
18343,-129.870129870131,4,2,77,7,0,0
18400,-129.870129870131,4,2,77,57,0,0
19252,-129.870129870131,4,2,77,7,0,0
19309,-129.870129870131,4,2,77,57,0,0
19706,-129.870129870131,4,2,77,7,0,0
19763,-129.870129870131,4,2,77,57,0,0
20161,-129.870129870131,4,2,77,7,0,0
20218,-129.870129870131,4,2,77,57,0,0
21297,-129.870129870131,4,2,77,7,0,0
21354,-129.870129870131,4,2,77,57,0,0
22718,-103.092783505155,4,2,77,67,0,0
22888,-103.092783505155,4,2,77,7,0,0
22945,-103.092783505155,4,2,77,67,0,0
23343,-103.092783505155,4,2,77,7,0,0
23400,-103.092783505155,4,2,77,67,0,0
23797,-103.092783505155,4,2,77,7,0,0
23854,-103.092783505155,4,2,77,67,0,0
24536,-175.438596491229,4,2,77,57,0,0
26354,-103.092783505155,4,2,77,67,0,0
26525,-103.092783505155,4,2,77,7,0,0
26582,-103.092783505155,4,2,77,67,0,0
26979,-103.092783505155,4,2,77,7,0,0
27036,-103.092783505155,4,2,77,67,0,0
27434,-103.092783505155,4,2,77,7,0,0
27491,-103.092783505155,4,2,77,67,0,0
28570,-103.092783505155,4,2,77,7,0,0
28627,-114.942528735633,4,2,77,67,0,0
29025,-103.092783505155,4,2,77,7,0,0
29081,-129.870129870131,4,2,77,67,0,0
29479,-103.092783505155,4,2,77,7,0,0
29536,-149.253731343285,4,2,77,67,0,0
29990,-175.43859649123,4,2,77,57,0,0
30843,-175.43859649123,4,2,77,7,0,0
30900,-175.43859649123,4,2,77,57,0,0
33115,-175.43859649123,4,2,77,7,0,0
33172,-175.43859649123,4,2,77,57,0,0
37263,-93.4579439252342,4,2,77,57,0,0
37320,-175.43859649123,4,2,77,7,0,0
37945,-212.765957446813,4,2,77,47,0,0
48172,-129.870129870132,4,2,77,47,0,0
49252,-129.870129870132,4,2,77,7,0,0
49309,-129.870129870132,4,2,77,47,0,0
49706,-129.870129870132,4,2,77,7,0,0
49763,-129.870129870132,4,2,77,47,0,0
51070,-129.870129870132,4,2,77,7,0,0
51127,-129.870129870132,4,2,77,47,0,0
51525,-129.870129870132,4,2,77,7,0,0
51582,-129.870129870132,4,2,77,47,0,0
52888,-129.870129870132,4,2,77,7,0,0
52945,-129.870129870132,4,2,77,47,0,0
53343,-129.870129870132,4,2,77,7,0,0
53400,-129.870129870132,4,2,77,47,0,0
54706,-129.870129870132,4,2,77,7,0,0
54763,-129.870129870132,4,2,77,47,0,0
55445,-114.942528735634,4,2,77,57,0,0
56525,-114.942528735634,4,2,77,7,0,0
56581,-114.942528735634,4,2,77,57,0,0
56979,-114.942528735634,4,2,77,7,0,0
57035,-114.942528735634,4,2,77,57,0,0
58343,-114.942528735634,4,2,77,7,0,0
58399,-114.942528735634,4,2,77,57,0,0
60161,-114.942528735634,4,2,77,7,0,0
60217,-114.942528735634,4,2,77,57,0,0
60615,-114.942528735634,4,2,77,7,0,0
60671,-114.942528735634,4,2,77,57,0,0
62718,-103.092783505156,4,2,77,67,0,0
63740,-103.092783505156,4,2,77,7,0,0
63854,-103.092783505156,4,2,77,67,0,0
64195,-103.092783505156,4,2,77,7,0,0
64309,-103.092783505156,4,2,77,67,0,0
65559,-103.092783505156,4,2,77,7,0,0
65673,-103.092783505156,4,2,77,67,0,0
66013,-103.092783505156,4,2,77,7,0,0
66127,-103.092783505156,4,2,77,67,0,0
67377,-103.092783505156,4,2,77,7,0,0
67491,-103.092783505156,4,2,77,67,0,0
67831,-103.092783505156,4,2,77,7,0,0
67945,-103.092783505156,4,2,77,67,0,0
69536,-212.765957446811,4,2,77,77,0,0
69934,-212.765957446811,4,2,77,7,0,0
69990,-78.7401574803149,4,2,7,77,0,0
73797,-78.7401574803149,4,2,7,7,0,0
73854,-78.7401574803149,4,2,7,77,0,0
81070,-78.7401574803149,4,2,7,7,0,0
81127,-78.7401574803149,4,2,7,77,0,0
84081,-103.092783505155,4,2,7,77,0,0
84536,-175.438596491228,4,2,77,47,0,0
92206,-175.438596491228,4,2,77,7,0,0
92263,-175.438596491228,4,2,77,47,0,0
93115,-175.438596491228,4,2,77,7,0,0
93172,-175.438596491228,4,2,77,47,0,0
94025,-175.438596491228,4,2,77,7,0,0
94081,-175.438596491228,4,2,77,47,0,0
94934,-175.438596491228,4,2,77,7,0,0
94990,-175.438596491228,4,2,77,47,0,0
99081,-149.253731343284,4,2,77,57,0,0
127718,-212.765957446809,4,2,77,67,0,0
128115,-212.765957446809,4,2,77,7,0,0
128172,-93.4579439252338,4,2,7,77,0,0
135445,-114.942528735632,4,2,77,67,0,0
135502,-114.942528735632,4,2,77,7,0,0
135900,-114.942528735632,4,2,77,67,0,0
135956,-114.942528735632,4,2,77,7,0,0
136354,-114.942528735632,4,2,77,67,0,0
136411,-114.942528735632,4,2,77,7,0,0
136809,-114.942528735632,4,2,77,67,0,0
136865,-114.942528735632,4,2,77,7,0,0
137263,-114.942528735632,4,2,77,67,0,0
139081,-114.942528735632,4,2,77,67,0,0
139138,-114.942528735632,4,2,77,7,0,0
139536,-114.942528735632,4,2,77,67,0,0
139592,-114.942528735632,4,2,77,7,0,0
139990,-114.942528735632,4,2,77,67,0,0
140047,-114.942528735632,4,2,77,7,0,0
140445,-114.942528735632,4,2,77,67,0,0
140501,-114.942528735632,4,2,77,7,0,0
140899,-114.942528735632,4,2,77,67,0,0
142718,-93.4579439252338,4,2,7,77,0,0
149990,-114.942528735632,4,2,77,67,0,0
150047,-114.942528735632,4,2,77,7,0,0
150445,-114.942528735632,4,2,77,67,0,0
150501,-114.942528735632,4,2,77,7,0,0
150899,-114.942528735632,4,2,77,67,0,0
150956,-114.942528735632,4,2,77,7,0,0
151354,-114.942528735632,4,2,77,67,0,0
151410,-114.942528735632,4,2,77,7,0,0
151808,-114.942528735632,4,2,77,67,0,0
153684,-114.942528735632,4,2,77,7,0,0
154082,-114.942528735632,4,2,77,67,0,0
154138,-114.942528735632,4,2,77,7,0,0
154536,-114.942528735632,4,2,77,67,0,0
154593,-114.942528735632,4,2,77,7,0,0
154991,-114.942528735632,4,2,77,67,0,0
155047,-114.942528735632,4,2,77,7,0,0
155445,-114.942528735632,4,2,77,67,0,0
156809,-114.942528735632,4,2,7,67,0,0
157263,-175.438596491232,4,2,77,57,0,0
159706,-175.438596491232,4,2,77,7,0,0
159763,-175.438596491232,4,2,77,57,0,0
163343,-175.438596491232,4,2,77,7,0,0
163400,-175.438596491232,4,2,77,57,0,0
167206,-175.438596491232,4,2,77,7,0,0
167263,-175.438596491232,4,2,77,57,0,0
167888,-175.438596491232,4,2,77,7,0,0
167945,-175.438596491232,4,2,77,57,0,0
171809,-149.253731343286,4,2,77,57,0,0
174536,454.545454545455,5,2,77,57,1,0
174536,-212.765957446813,4,2,77,57,0,0
192717,454.545454545455,4,2,77,57,1,0
192717,-212.765957446813,4,2,77,57,0,0
207717,-212.765957446809,4,2,77,67,0,0
208114,-212.765957446809,4,2,77,7,0,0
208171,454.545454545455,4,2,7,77,1,0
208171,-93.4579439252338,4,2,7,77,0,0
215443,-114.942528735632,4,2,77,67,0,0
215500,-114.942528735632,4,2,77,7,0,0
215898,-114.942528735632,4,2,77,67,0,0
215954,-114.942528735632,4,2,77,7,0,0
216352,-114.942528735632,4,2,77,67,0,0
216409,-114.942528735632,4,2,77,7,0,0
216807,-114.942528735632,4,2,77,67,0,0
216863,-114.942528735632,4,2,77,7,0,0
217261,-114.942528735632,4,2,77,67,0,0
219136,-114.942528735632,4,2,77,7,0,0
219534,-114.942528735632,4,2,77,67,0,0
219590,-114.942528735632,4,2,77,7,0,0
219988,-114.942528735632,4,2,77,67,0,0
220045,-114.942528735632,4,2,77,7,0,0
220443,-114.942528735632,4,2,77,67,0,0
220499,-114.942528735632,4,2,77,7,0,0
220897,-114.942528735632,4,2,77,67,0,0
222261,-114.942528735632,4,2,7,67,0,0
222716,-93.4579439252338,4,2,7,77,0,0
229989,-114.942528735632,4,2,77,67,0,0
236352,-212.765957446808,4,2,77,67,0,0
236750,-212.765957446808,4,2,77,7,0,0
236807,-212.765957446808,4,2,77,67,0,0
237261,-175.43859649123,4,2,77,57,0,0
246750,-175.43859649123,4,2,77,7,0,0
246807,-175.43859649123,4,2,77,57,0,0
248114,-175.43859649123,4,2,77,7,0,0
248171,-175.43859649123,4,2,77,57,0,0
257261,-175.43859649123,4,2,7,57,0,0
257716,-175.43859649123,4,2,77,57,0,0
262716,-85.4700854700855,4,2,7,77,0,0
277261,-85.4700854700855,4,2,7,57,0,0

[Colours]
Combo1 : 255,121,188
Combo2 : 121,121,255
Combo3 : 121,255,255
Combo4 : 188,121,255

[HitObjects]
92,56,900,5,2,0:0:0:0:
53,209,1127,1,2,0:0:0:0:
62,203,1354,1,0,0:0:0:0:
72,202,1581,1,0,0:0:0:0:
165,276,1809,1,2,0:0:0:0:
156,269,2036,1,0,0:0:0:0:
222,140,2263,1,2,0:0:0:0:
236,218,2490,1,0,0:0:0:0:
155,98,2718,5,2,0:0:0:0:
293,167,2945,2,0,L|311:164,2,13.336249796505
320,165,3172,1,2,0:0:0:0:
319,173,3400,1,0,0:0:0:0:
422,227,3627,1,2,0:0:0:0:
421,219,3855,1,0,0:0:0:0:
336,337,4081,1,2,0:0:0:0:
200,226,4309,2,0,L|197:208,2,13.336249796505
198,199,4536,5,2,0:0:0:0:
187,197,4763,1,0,0:0:0:0:
79,260,4990,1,2,0:0:0:0:
90,258,5217,1,0,0:0:0:0:
181,346,5445,1,2,0:0:0:0:
170,348,5672,1,0,0:0:0:0:
265,250,5900,1,2,0:0:0:0:
374,384,6127,5,2,0:0:0:0:
406,228,6354,1,2,0:0:0:0:
260,208,6581,2,0,L|263:226,2,13.336249796505
262,235,6808,1,2,0:0:0:0:
272,238,7036,1,0,0:0:0:0:
349,148,7263,1,2,0:0:0:0:
359,145,7491,1,0,0:0:0:0:
464,63,7718,1,2,0:0:0:0:
474,66,7946,1,0,0:0:0:0:
293,32,8172,5,2,0:0:0:0:
232,160,8400,2,0,L|250:157,2,13.336249796505
259,158,8627,1,2,0:0:0:0:
260,147,8854,1,0,0:0:0:0:
114,110,9081,1,2,0:0:0:0:
113,99,9308,1,0,0:0:0:0:
166,212,9536,1,2,0:0:0:0:
10,189,9763,1,2,0:0:0:0:
35,259,9990,5,0,0:0:0:0:
156,343,10218,2,0,L|173:338,2,13.336249796505
182,339,10445,1,2,0:0:0:0:
185,328,10672,1,0,0:0:0:0:
298,370,10900,1,2,0:0:0:0:
295,359,11127,1,0,0:0:0:0:
400,331,11354,1,2,0:0:0:0:
277,216,11581,2,0,L|280:236,2,13.336249796505
283,245,11809,5,2,0:0:0:0:
382,274,12036,1,2,0:0:0:0:
455,169,12263,1,2,0:0:0:0:
356,198,12490,1,2,0:0:0:0:
283,88,12718,1,2,0:0:0:0:
382,117,12945,1,2,0:0:0:0:
227,190,13172,1,2,0:0:0:0:
185,30,13400,1,2,0:0:0:0:
227,190,13627,6,0,P|219:217|213:256,1,65.5462486997967,2|0,0:0|0:0,0:0:0:0:
217,265,13854,1,0,0:0:0:0:
67,209,14081,2,0,P|94:188|133:188,1,65.5462486997967,2|0,0:0|0:0,0:0:0:0:
131,197,14308,1,0,0:0:0:0:
86,344,14536,2,0,P|114:303|114:245,1,87.3949982663956,2|0,0:0|0:0,0:0:0:0:
234,364,14990,1,10,0:0:0:0:
336,255,15218,5,0,0:0:0:0:
327,257,15331,1,0,0:0:0:0:
318,261,15445,2,0,P|364:266|401:275,1,65.5462486997967,2|0,1:0|0:0,0:0:0:0:
388,277,15672,1,0,0:0:0:0:
493,149,15900,2,0,P|460:155|428:157,1,65.5462486997967,2|0,0:0|0:0,0:0:0:0:
421,152,16127,1,0,0:0:0:0:
336,28,16354,2,0,P|373:57|373:117,1,87.3949982663956
180,109,16809,1,0,1:0:0:0:
276,59,17036,1,10,0:0:0:0:
138,178,17263,6,0,P|107:161|67:159,1,65.5462486997967,2|0,1:0|0:0,0:0:0:0:
71,165,17490,1,0,0:0:0:0:
221,170,17718,2,0,P|210:136|182:107,1,65.5462486997967,2|0,0:0|0:0,0:0:0:0:
181,114,17945,1,0,0:0:0:0:
289,225,18172,2,0,P|304:193|304:153,1,65.5462486997967
299,156,18399,1,0,0:0:0:0:
418,26,18627,1,0,0:0:0:0:
494,159,18854,5,10,0:0:0:0:
485,157,18967,1,8,0:0:0:0:
476,156,19081,2,0,P|443:158|396:165,1,65.5462486997967,2|0,1:0|0:0,0:0:0:0:
399,164,19309,1,0,0:0:0:0:
505,284,19536,2,0,P|472:279|439:277,1,65.5462486997967,2|0,0:0|0:0,0:0:0:0:
431,281,19764,1,0,0:0:0:0:
305,367,19990,2,0,P|318:337|330:298,1,65.5462486997967
321,297,20218,1,0,0:0:0:0:
202,180,20445,1,0,1:0:0:0:
217,296,20672,1,10,0:0:0:0:
248,114,20900,6,0,B|227:105|211:90|211:90|158:121|95:132,1,152.941246966192,2|0,1:0|0:0,0:0:0:0:
99,122,21354,1,2,1:0:0:0:
0,233,21581,1,0,0:0:0:0:
1,241,21695,1,0,0:0:0:0:
2,249,21809,1,10,0:0:0:0:
48,307,22036,1,0,0:0:0:0:
202,180,22263,1,2,1:0:0:0:
26,110,22490,1,4,0:0:0:0:
209,256,22718,6,0,L|303:243,1,82.5712519529028,2|0,1:0|0:0,0:0:0:0:
304,243,22945,1,0,0:0:0:0:
413,356,23172,2,0,L|319:343,1,82.5712519529028,2|0,1:0|0:0,0:0:0:0:
318,343,23399,1,0,0:0:0:0:
472,220,23627,2,0,L|390:231,1,82.5712519529028,0|0,1:0|0:0,0:0:0:0:
376,234,23854,1,0,0:0:0:0:
188,247,24081,1,0,1:0:0:0:
255,97,24309,5,14,0:0:0:0:
316,130,24536,2,0,B|174:164|241:15|84:41,1,258.779996841064,2|2,0:0|0:0,0:0:0:0:
98,183,25672,5,2,0:0:0:0:
106,179,25747,1,0,0:0:0:0:
110,171,25823,1,0,0:0:0:0:
112,164,25900,1,6,0:0:0:0:
289,41,26127,1,10,0:0:0:0:
420,235,26354,6,0,P|427:191|443:150,1,82.5712519529028,2|0,1:0|0:0,0:0:0:0:
449,149,26581,1,2,0:0:0:0:
324,286,26809,2,0,P|298:249|281:208,1,82.5712519529028,10|0,0:0|0:0,0:0:0:0:
285,203,27036,1,0,0:0:0:0:
253,369,27263,2,0,P|209:360|168:343,1,82.5712519529028,0|0,1:0|0:0,0:0:0:0:
167,336,27490,1,8,0:0:0:0:
62,187,27718,1,0,1:0:0:0:
14,368,27945,1,14,0:0:0:0:
130,152,28172,6,0,P|171:131|171:229,1,192.666254556773,2|0,1:0|0:0,0:0:0:0:
169,222,28627,2,0,P|135:296|214:297,1,172.803751450227,10|0,0:0|0:0,0:0:0:0:
207,301,29081,2,0,P|267:254|319:308,1,152.941246966192,2|0,1:0|0:0,0:0:0:0:
315,303,29536,1,10,0:0:0:0:
335,205,29763,1,0,0:0:0:0:
354,109,29990,6,0,B|405:49|468:94|468:94|410:139|434:204,1,242.606247038498,2|0,1:0|0:0,0:0:0:0:
440,202,30900,1,2,1:0:0:0:
173,49,31354,6,0,P|216:35|249:73,1,97.0424988153992,4|0,0:0|0:0,0:0:0:0:
233,135,31809,1,2,1:0:0:0:
156,181,32036,1,0,1:0:0:0:
81,221,32263,2,0,L|66:316,1,97.0424988153992,4|0,0:0|0:0,0:0:0:0:
118,364,32718,1,2,1:0:0:0:
188,269,32945,2,0,L|240:257,1,48.5212494076996,4|0,0:0|0:0,0:0:0:0:
246,264,33172,2,0,L|181:278,1,64.6949992102661,4|0,0:0|1:0,0:0:0:0:
301,356,33627,6,0,B|373:363|344:303|420:308,1,129.389998420532,2|4,1:0|0:0,0:0:0:0:
506,150,34536,2,0,B|434:157|463:97|386:102,1,129.389998420532,2|4,1:0|0:0,0:0:0:0:
392,102,35218,1,2,1:0:0:0:
297,181,35445,5,2,1:0:0:0:
266,106,35672,1,2,1:0:0:0:
153,22,35900,1,6,0:0:0:0:
122,97,36127,1,2,0:0:0:0:
302,26,36354,5,6,0:0:0:0:
190,134,36581,1,0,0:0:0:0:
339,238,36809,1,8,0:0:0:0:
320,153,37036,1,8,0:0:0:0:
235,354,37263,6,0,L|181:365,1,30.3612490734482,12|0,0:0|0:0,0:0:0:0:
23,61,37945,5,0,0:0:0:0:
24,67,38059,1,0,0:0:0:0:
25,72,38172,1,0,0:0:0:0:
25,72,38854,5,0,0:0:0:0:
96,145,39081,2,0,P|120:129|149:129,1,53.3449991860199,2|0,0:0|0:0,0:0:0:0:
138,277,39763,5,2,0:0:0:0:
139,272,39876,1,2,0:0:0:0:
140,266,39990,1,2,0:0:0:0:
207,232,40218,1,2,0:0:0:0:
251,172,40445,1,2,0:0:0:0:
324,183,40672,1,2,0:0:0:0:
386,143,40900,6,0,P|395:101|409:53,1,80.0174987790299,2|0,0:0|0:0,0:0:0:0:
485,269,41581,5,2,0:0:0:0:
420,306,41809,1,2,0:0:0:0:
345,300,42036,1,2,0:0:0:0:
275,327,42263,1,2,0:0:0:0:
204,303,42490,1,2,0:0:0:0:
139,340,42718,6,0,P|129:298|116:250,1,80.0174987790299,2|0,0:0|0:0,0:0:0:0:
309,99,43400,5,2,0:0:0:0:
265,159,43627,1,2,0:0:0:0:
191,173,43854,1,2,0:0:0:0:
134,124,44081,1,2,0:0:0:0:
63,148,44309,1,2,0:0:0:0:
134,124,44536,5,2,0:0:0:0:
413,58,45218,5,2,0:0:0:0:
394,130,45445,1,2,0:0:0:0:
377,186,45672,1,2,0:0:0:0:
366,221,45900,1,2,0:0:0:0:
359,241,46127,1,2,0:0:0:0:
357,246,46354,1,2,0:0:0:0:
357,246,47036,5,2,0:0:0:0:
429,216,47263,1,2,0:0:0:0:
418,300,47490,5,0,0:0:0:0:
417,294,47604,1,0,0:0:0:0:
416,289,47717,1,0,0:0:0:0:
357,246,47945,1,0,0:0:0:0:
265,355,48172,6,0,P|227:339|179:335,1,87.3949982663956,0|0,1:0|0:0,0:0:0:0:
54,264,48627,2,0,P|97:260|137:244,1,87.3949982663956,0|0,1:0|3:0,0:0:0:0:
253,116,49081,2,0,L|242:188,1,65.5462486997967,2|0,1:0|0:0,0:0:0:0:
242,194,49309,1,2,0:0:0:0:
349,238,49536,2,0,L|360:310,1,65.5462486997967,2|0,1:0|0:0,0:0:0:0:
360,316,49764,1,2,3:0:0:0:
484,225,49990,6,0,P|453:192|395:192,1,87.3949982663956,2|0,1:0|0:0,0:0:0:0:
253,116,50445,2,0,P|295:108|324:77,1,87.3949982663956,0|0,1:0|3:0,0:0:0:0:
127,32,50900,2,0,P|140:64|148:106,1,65.5462486997967,2|0,1:0|0:0,0:0:0:0:
142,106,51127,1,2,0:0:0:0:
23,164,51354,2,0,P|10:196|2:238,1,65.5462486997967,2|0,1:0|0:0,0:0:0:0:
8,238,51581,1,2,3:0:0:0:
140,176,51809,6,0,P|183:180|223:196,1,87.3949982663956,2|0,1:0|0:0,0:0:0:0:
332,99,52263,2,0,P|291:114|248:119,1,87.3949982663956,0|0,1:0|3:0,0:0:0:0:
402,209,52718,2,0,P|389:173|389:128,1,65.5462486997967,2|0,1:0|0:0,0:0:0:0:
394,135,52945,1,2,0:0:0:0:
294,264,53172,2,0,P|307:228|307:183,1,65.5462486997967,2|0,1:0|0:0,0:0:0:0:
302,190,53399,1,2,3:0:0:0:
418,300,53627,5,2,1:0:0:0:
512,56,54081,2,0,L|414:75,1,87.3949982663956,0|0,1:0|3:0,0:0:0:0:
263,20,54536,2,0,P|297:29|324:61,1,65.5462486997967,2|0,1:0|0:0,0:0:0:0:
317,62,54763,1,2,0:0:0:0:
201,127,54990,1,2,1:0:0:0:
97,27,55217,5,10,3:0:0:0:
96,48,55331,1,8,3:0:0:0:
94,72,55445,2,0,P|138:49|191:67,1,98.745000828701,2|0,1:0|0:0,0:0:0:0:
232,216,55900,2,0,P|278:227|321:204,1,98.745000828701,0|0,1:0|3:0,0:0:0:0:
293,57,56354,2,0,P|286:97|273:144,1,74.0587506215258,2|0,1:0|0:0,0:0:0:0:
270,139,56581,1,2,0:0:0:0:
153,191,56809,2,0,P|159:231|173:278,1,74.0587506215258,2|0,1:0|0:0,0:0:0:0:
176,273,57036,1,2,3:0:0:0:
317,331,57263,6,0,P|356:296|422:290,1,98.745000828701,2|0,1:0|0:0,0:0:0:0:
241,384,57718,2,0,P|193:372|157:339,1,98.745000828701,0|0,1:0|3:0,0:0:0:0:
60,197,58172,2,0,P|53:237|40:284,1,74.0587506215258,2|0,1:0|0:0,0:0:0:0:
34,276,58400,1,2,0:0:0:0:
177,201,58627,1,2,1:0:0:0:
81,371,58854,5,10,3:0:0:0:
96,352,58968,1,8,3:0:0:0:
96,328,59081,2,0,P|59:358|-8:358,1,98.745000828701,2|0,1:0|0:0,0:0:0:0:
160,231,59536,2,0,P|208:235|246:266,1,98.745000828701,0|0,1:0|3:0,0:0:0:0:
358,167,59990,2,0,P|334:190|320:233,1,74.0587506215258,2|0,1:0|0:0,0:0:0:0:
321,240,60218,1,2,0:0:0:0:
219,113,60445,2,0,P|243:136|257:179,1,74.0587506215258,2|0,1:0|0:0,0:0:0:0:
256,186,60673,1,2,3:0:0:0:
87,58,60900,5,2,1:0:0:0:
46,111,61127,2,0,P|91:101|143:97,1,98.745000828701,2|0,0:0|1:0,0:0:0:0:
245,234,61581,1,2,3:0:0:0:
204,181,61808,2,0,P|249:190|301:194,1,98.745000828701,2|0,1:0|0:0,0:0:0:0:
413,71,62263,1,2,1:0:0:0:
505,260,62490,5,10,3:0:0:0:
480,255,62604,1,8,3:0:0:0:
452,250,62718,1,2,1:0:0:0:
432,181,62945,1,0,0:0:0:0:
352,341,63172,2,0,P|307:370|256:348,1,110.09500260387,8|0,0:0|3:0,0:0:0:0:
205,166,63627,2,0,P|220:189|225:220,1,55.0475013019352,2|0,1:0|0:0,0:0:0:0:
184,274,63854,1,2,0:0:0:0:
229,97,64081,2,0,P|256:101|282:119,1,55.0475013019352,10|0,0:0|0:0,0:0:0:0:
293,186,64308,1,2,3:0:0:0:
255,21,64536,6,0,B|131:-4|188:111|62:85,1,220.190005207741,2|8,1:0|0:0,0:0:0:0:
229,97,65218,1,2,3:0:0:0:
58,188,65445,2,0,P|80:168|113:168,1,55.0475013019352,2|0,1:0|0:0,0:0:0:0:
152,216,65672,1,2,0:0:0:0:
137,350,65900,2,0,P|107:347|84:323,1,55.0475013019352,2|0,1:0|0:0,0:0:0:0:
94,263,66127,1,10,0:0:0:0:
259,369,66354,6,0,B|385:378|314:271|442:281,1,220.190005207741,2|8,1:0|0:0,0:0:0:0:
275,284,67036,1,2,3:0:0:0:
421,147,67263,2,0,P|411:175|404:210,1,55.0475013019352,2|0,1:0|0:0,0:0:0:0:
435,266,67490,1,2,0:0:0:0:
308,149,67718,2,0,P|318:177|325:212,1,55.0475013019352,10|0,0:0|0:0,0:0:0:0:
294,268,67945,1,2,3:0:0:0:
494,182,68172,6,0,P|484:82|383:77,1,220.190005207741,2|0,1:0|1:0,0:0:0:0:
294,268,68854,1,14,0:0:0:0:
204,141,69081,1,10,0:0:0:0:
174,217,69309,1,0,3:0:0:0:
79,92,69536,6,0,P|108:61|156:72,1,93.3537485755349,10|0,0:0|0:0,0:0:0:0:
156,82,69990,6,0,P|175:109|222:120,1,72.0724994501305,10|0,0:0|0:0,0:0:0:0:
334,33,70218,2,0,P|322:66|316:109,1,72.0724994501305,2|0,0:0|1:0,0:0:0:0:
391,249,70445,2,0,P|369:220|336:209,1,72.0724994501305,10|0,0:0|0:0,0:0:0:0:
173,299,70672,1,2,1:0:0:0:
192,309,70786,1,0,3:0:0:0:
213,310,70900,2,0,P|207:274|207:235,1,72.0724994501305,2|0,1:0|0:0,0:0:0:0:
311,136,71127,1,10,0:0:0:0:
368,353,71354,5,10,0:0:0:0:
438,353,71467,1,8,0:0:0:0:
486,302,71581,1,8,0:0:0:0:
486,302,71809,6,0,P|450:294|400:287,1,72.0724994501305,2|0,1:0|0:0,0:0:0:0:
232,330,72036,1,2,1:0:0:0:
248,316,72150,1,2,3:0:0:0:
250,294,72263,2,0,P|256:259|264:224,1,72.0724994501305,10|0,0:0|0:0,0:0:0:0:
125,118,72490,1,2,1:0:0:0:
128,139,72604,1,0,3:0:0:0:
132,159,72718,1,2,1:0:0:0:
75,276,72945,1,10,0:0:0:0:
180,62,73172,5,14,0:0:0:0:
249,62,73285,1,8,0:0:0:0:
297,112,73399,1,8,0:0:0:0:
298,113,73627,6,0,P|346:83|409:83,1,108.108749175196,2|0,1:0|0:0,0:0:0:0:
398,93,73854,2,0,P|352:95|322:111,1,72.0724994501305,8|0,0:0|1:0,0:0:0:0:
212,285,74081,2,0,P|203:229|183:135,1,144.144998900261,2|0,1:0|3:0,0:0:0:0:
56,260,74422,1,0,3:0:0:0:
71,274,74536,2,0,P|114:272|145:236,1,72.0724994501305,2|0,1:0|0:0,0:0:0:0:
247,107,74763,1,8,0:0:0:0:
343,317,74990,5,10,0:0:0:0:
348,246,75103,1,8,0:0:0:0:
353,174,75217,1,8,0:0:0:0:
357,147,75331,1,0,1:0:0:0:
357,133,75445,6,0,P|322:126|332:162,1,72.0724994501305,2|0,1:0|0:0,0:0:0:0:
441,236,75672,2,0,P|476:243|466:207,1,72.0724994501305,2|0,1:0|0:0,0:0:0:0:
265,202,75900,2,0,P|270:240|275:294,1,72.0724994501305,10|0,0:0|0:0,0:0:0:0:
424,168,76127,2,0,P|427:132|432:96,1,72.0724994501305,2|0,3:0|3:0,0:0:0:0:
345,5,76354,2,0,L|308:11,6,36.0362497250652,2|0|0|0|0|0|0,1:0|0:0|0:0|0:0|0:0|0:0|0:0,0:0:0:0:
271,107,76809,2,0,L|233:101,4,36.0362497250652,14|0|0|0|0,0:0|1:0|1:0|1:0|1:0,0:0:0:0:
324,228,77150,2,0,L|365:221,1,36.0362497250652,0|0,3:0|3:0,0:0:0:0:
373,228,77263,6,0,P|359:262|349:319,1,72.0724994501305,6|0,1:2|0:0,0:0:0:0:
508,223,77490,2,0,P|499:187|486:154,1,72.0724994501305,2|0,0:0|1:0,0:0:0:0:
342,46,77718,2,0,P|372:68|417:74,1,72.0724994501305,10|0,0:0|0:0,0:0:0:0:
225,31,77945,2,0,P|190:38|161:59,1,72.0724994501305,2|0,1:0|3:0,0:0:0:0:
88,196,78172,1,2,3:0:0:0:
104,210,78286,1,0,3:0:0:0:
124,217,78400,1,10,0:0:0:0:
344,202,78627,5,10,0:0:0:0:
276,177,78740,1,8,0:0:0:0:
208,153,78854,1,8,0:0:0:0:
208,153,79081,6,0,P|223:117|263:99,1,72.0724994501305,2|0,1:0|0:0,0:0:0:0:
413,197,79309,1,2,1:0:0:0:
398,213,79422,1,2,3:0:0:0:
386,231,79536,2,0,L|375:302,1,72.0724994501305,10|0,0:0|0:0,0:0:0:0:
220,370,79763,1,2,1:0:0:0:
237,357,79877,1,0,3:0:0:0:
244,336,79990,1,2,1:0:0:0:
162,171,80218,1,10,0:0:0:0:
388,77,80445,5,14,0:0:0:0:
337,125,80559,1,8,0:0:0:0:
265,126,80672,1,8,0:0:0:0:
265,126,80900,6,0,P|235:76|165:68,1,108.108749175196,2|0,1:0|0:0,0:0:0:0:
169,79,81127,2,0,P|193:44|209:83,1,72.0724994501305,8|0,0:0|1:0,0:0:0:0:
113,237,81354,2,0,P|80:243|102:166,1,144.144998900261,10|0,0:0|3:0,0:0:0:0:
246,139,81695,1,8,0:0:0:0:
231,154,81809,2,0,P|234:191|238:244,1,72.0724994501305,2|0,1:0|0:0,0:0:0:0:
407,339,82036,5,8,0:0:0:0:
411,317,82150,1,0,1:0:0:0:
376,245,82263,1,10,0:0:0:0:
303,240,82377,1,8,0:0:0:0:
254,293,82490,1,8,0:0:0:0:
249,321,82604,1,0,3:0:0:0:
253,334,82718,6,0,P|228:363|171:363,1,72.0724994501305,2|0,1:0|3:0,0:0:0:0:
128,202,82945,2,0,P|162:211|184:238,1,72.0724994501305,2|0,0:0|0:0,0:0:0:0:
38,146,83172,2,0,P|60:118|94:109,1,72.0724994501305,10|0,0:0|1:0,0:0:0:0:
200,38,83400,2,0,P|177:10|143:1,1,72.0724994501305,2|0,1:0|3:0,0:0:0:0:
259,139,83627,2,0,P|287:106|334:90,1,72.0724994501305,2|0,1:0|3:0,0:0:0:0:
396,232,83854,2,0,P|372:195|334:169,1,72.0724994501305,10|0,0:0|3:0,0:0:0:0:
492,144,84081,6,0,L|486:191,3,36.6983342012902,10|0|0|2,0:0|3:0|3:0|3:0,0:0:0:0:
412,330,84536,6,0,B|295:405|147:352|169:224|169:224|285:182|330:282,1,517.559993682129,6|0,1:0|0:0,0:0:0:0:
322,266,87036,5,0,0:0:0:0:
323,259,87150,1,0,0:0:0:0:
324,252,87263,1,0,0:0:0:0:
51,136,87718,5,0,0:0:0:0:
51,136,88172,6,0,P|34:164|46:207,1,64.6949992102661,2|0,0:0|0:0,0:0:0:0:
169,220,88627,2,0,P|185:192|182:161,2,64.6949992102661
81,303,89309,1,0,0:0:0:0:
178,369,89536,1,0,0:0:0:0:
178,369,89763,1,0,0:0:0:0:
219,252,89990,6,0,P|276:209|337:255,1,129.389998420532,2|0,0:0|0:0,0:0:0:0:
340,363,90672,2,0,P|379:357|401:322,1,64.6949992102661
323,229,91127,1,2,0:0:0:0:
453,126,91354,1,2,0:0:0:0:
453,126,91809,6,0,P|404:112|329:104,1,113.216248617966,2|0,0:0|0:0,0:0:0:0:
333,111,92263,1,2,0:0:0:0:
93,186,92718,2,0,P|149:192|203:207,1,113.216248617966,2|0,0:0|0:0,0:0:0:0:
209,217,93172,1,2,0:0:0:0:
75,27,93627,6,0,P|25:55|10:120,1,113.216248617966,2|0,0:0|0:0,0:0:0:0:
15,114,94081,1,2,0:0:0:0:
116,248,94309,1,0,0:0:0:0:
113,254,94422,1,0,0:0:0:0:
110,260,94536,2,0,P|122:202|169:197,1,113.216248617966,2|0,0:0|0:0,0:0:0:0:
176,203,94990,1,2,0:0:0:0:
355,348,95445,6,0,P|324:334|280:327,1,64.6949992102661,2|0,0:0|0:0,0:0:0:0:
435,236,95900,1,0,0:0:0:0:
418,309,96127,1,0,0:0:0:0:
300,220,96354,2,0,P|331:206|375:199,1,64.6949992102661,2|0,0:0|0:0,0:0:0:0:
204,149,96809,1,0,0:0:0:0:
221,222,97036,1,0,0:0:0:0:
309,101,97263,6,0,P|278:87|234:80,1,64.6949992102661,2|0,0:0|0:0,0:0:0:0:
123,164,97718,5,2,0:0:0:0:
147,91,97945,1,0,0:0:0:0:
161,240,98172,5,2,0:0:0:0:
137,167,98399,1,0,0:0:0:0:
208,181,98627,1,0,0:0:0:0:
249,258,98854,5,2,0:0:0:0:
366,137,99081,5,2,1:0:0:0:
298,116,99309,2,0,L|303:198,1,76.0449964029009
402,299,99763,2,0,P|434:270|467:253,2,76.0449964029009,4|0|0,0:0|0:0|0:0,0:0:0:0:
308,376,100445,2,0,P|275:347|242:330,1,76.0449964029009
91,327,100900,5,2,1:0:0:0:
153,353,101127,2,0,L|166:276,1,76.0449964029009
102,170,101581,1,4,0:0:0:0:
50,223,101809,2,0,P|78:195|119:182,1,76.0449964029009
221,140,102263,2,0,P|185:126|159:99,1,76.0449964029009,0|0,0:0|1:0,0:0:0:0:
302,30,102718,5,2,1:0:0:0:
331,93,102945,2,0,P|305:121|287:177,1,76.0449964029009
395,259,103400,1,6,0:0:0:0:
447,135,103627,1,2,0:0:0:0:
379,156,103854,1,2,0:0:0:0:
456,204,104081,1,2,0:0:0:0:
388,183,104308,1,2,0:0:0:0:
512,272,104536,6,0,P|496:237|471:209,1,76.0449964029009,2|0,1:0|0:0,0:0:0:0:
393,257,104990,1,0,0:0:0:0:
243,342,105218,1,4,0:0:0:0:
283,268,105445,2,0,P|264:301|258:338,1,76.0449964029009
147,384,105900,2,0,P|140:346|122:313,1,76.0449964029009
177,187,106354,5,2,1:0:0:0:
218,242,106581,2,0,P|185:217|145:196,1,76.0449964029009
0,182,107036,2,0,P|32:157|73:136,2,76.0449964029009,4|0|0,0:0|0:0|0:0,0:0:0:0:
74,42,107718,2,0,P|104:65|137:83,1,76.0449964029009
255,24,108172,5,2,1:0:0:0:
292,86,108400,2,0,P|272:120|257:172,1,76.0449964029009
367,240,108854,1,4,0:0:0:0:
412,170,109081,2,0,P|382:197|336:213,1,76.0449964029009
249,264,109536,2,0,P|214:249|186:223,1,76.0449964029009,0|0,0:0|1:0,0:0:0:0:
343,234,109990,5,2,1:0:0:0:
375,298,110218,2,0,P|355:330|342:374,1,76.0449964029009
249,264,110672,1,4,0:0:0:0:
344,234,110900,1,2,0:0:0:0:
253,150,111127,1,2,0:0:0:0:
372,110,111354,1,2,0:0:0:0:
323,166,111581,5,2,0:0:0:0:
330,166,111695,1,0,0:0:0:0:
337,166,111809,1,2,1:0:0:0:
454,218,112036,2,0,P|482:186|488:145,1,76.0449964029009
362,37,112490,1,4,0:0:0:0:
299,87,112718,1,2,3:0:0:0:
184,45,112945,1,2,0:0:0:0:
274,106,113173,1,2,0:0:0:0:
254,125,113400,1,0,0:0:0:0:
168,185,113627,6,0,P|154:220|142:256,1,76.0449964029009,2|0,1:0|0:0,0:0:0:0:
243,334,114081,2,0,P|228:298|216:262,1,76.0449964029009,0|4,0:0|0:0,0:0:0:0:
347,116,114536,1,8,0:0:0:0:
347,116,114990,2,0,P|320:145|263:145,1,76.0449964029009,0|0,3:0|0:0,0:0:0:0:
193,43,115445,6,0,P|211:79|228:137,1,76.0449964029009,2|0,1:0|0:0,0:0:0:0:
339,212,115900,2,0,P|321:245|309:281,1,76.0449964029009,0|4,3:0|0:0,0:0:0:0:
245,130,116354,1,8,0:0:0:0:
321,147,116581,1,0,0:0:0:0:
426,70,116809,1,0,3:0:0:0:
365,33,117036,1,0,0:0:0:0:
425,158,117263,6,0,P|461:166|496:181,2,76.0449964029009,2|0|0,1:0|0:0|3:0,0:0:0:0:
337,266,117945,1,6,0:0:0:0:
329,267,118059,1,2,0:0:0:0:
322,264,118172,1,10,0:0:0:0:
294,195,118400,1,2,0:0:0:0:
169,138,118627,1,2,3:0:0:0:
191,73,118855,1,2,0:0:0:0:
103,191,119081,6,0,P|66:199|31:214,2,76.0449964029009,2|0|0,1:0|0:0|3:0,0:0:0:0:
169,235,119763,1,4,0:0:0:0:
20,353,119990,1,8,0:0:0:0:
46,278,120218,1,0,0:0:0:0:
139,358,120445,1,0,3:0:0:0:
113,283,120673,1,0,0:0:0:0:
243,367,120900,6,0,P|251:330|266:295,2,76.0449964029009,2|0|0,1:0|0:0|3:0,0:0:0:0:
191,268,121581,1,4,0:0:0:0:
380,211,121809,1,8,0:0:0:0:
380,211,122263,2,0,P|355:174|326:139,1,76.0449964029009,0|0,3:0|0:0,0:0:0:0:
216,82,122718,6,0,P|243:56|279:45,1,76.0449964029009,2|0,1:0|0:0,0:0:0:0:
219,163,123172,2,0,P|246:188|282:199,1,76.0449964029009,0|4,3:0|0:0,0:0:0:0:
443,136,123627,1,8,0:0:0:0:
415,212,123854,1,0,0:0:0:0:
375,333,124081,1,0,3:0:0:0:
347,257,124308,1,0,1:0:0:0:
218,236,124536,6,0,P|249:210|291:198,2,76.0449964029009,2|0|0,1:0|0:0|3:0,0:0:0:0:
99,193,125218,1,4,0:0:0:0:
208,53,125445,1,10,0:0:0:0:
188,146,125672,1,2,0:0:0:0:
74,82,125900,1,2,0:0:0:0:
94,175,126127,1,2,0:0:0:0:
180,63,126354,6,0,L|259:42,1,76.0449964029009,2|0,1:0|0:0,0:0:0:0:
377,118,126809,1,0,3:0:0:0:
325,164,127036,1,4,0:0:0:0:
466,253,127263,2,0,L|479:178,1,76.0449964029009,8|0,0:0|1:0,0:0:0:0:
362,349,127718,2,0,P|327:375|278:365,1,93.3537485755349,12|0,0:0|0:0,0:0:0:0:
276,355,128172,6,0,P|234:316|155:316,1,121.444996293793,6|0,1:0|0:0,0:0:0:0:
68,357,128513,1,0,0:0:0:0:
76,365,128627,2,0,P|93:335|89:300,1,60.7224981468964,2|0,0:0|0:0,0:0:0:0:
23,227,128854,1,2,0:0:0:0:
137,90,129081,2,0,B|211:100|168:138|250:149,1,121.444996293793,2|0,0:0|0:0,0:0:0:0:
310,64,129422,1,0,1:0:0:0:
306,52,129536,2,0,P|275:52|250:68,1,60.7224981468964,2|0,0:0|3:0,0:0:0:0:
348,183,129763,6,0,P|376:127|451:122,1,121.444996293793,2|0,0:0|1:0,0:0:0:0:
475,256,130218,1,2,0:0:0:0:
465,249,130331,1,0,0:0:0:0:
454,242,130445,2,0,P|446:208|435:179,1,60.7224981468964
367,311,130672,1,2,0:0:0:0:
226,224,130900,1,0,0:0:0:0:
216,217,131013,1,0,3:0:0:0:
204,214,131127,1,8,0:0:0:0:
238,344,131354,2,0,P|259:315|259:271,1,60.7224981468964,10|0,0:0|3:0,0:0:0:0:
126,216,131581,2,0,P|132:245|150:269,1,60.7224981468964,10|8,0:0|0:0,0:0:0:0:
205,73,131809,6,0,L|132:61,1,60.7224981468964,6|0,1:0|0:0,0:0:0:0:
31,168,132036,1,2,0:0:0:0:
40,158,132150,1,0,0:0:0:0:
49,149,132263,2,0,P|44:118|28:85,1,60.7224981468964,2|0,0:0|0:0,0:0:0:0:
123,192,132490,2,0,P|142:167|155:132,1,60.7224981468964,2|0,0:0|0:0,0:0:0:0:
111,279,132718,2,0,P|142:276|230:228,1,121.444996293793,2|0,0:0|0:0,0:0:0:0:
291,125,133059,1,0,1:0:0:0:
283,116,133172,2,0,P|262:139|262:193,1,60.7224981468964,2|0,0:0|3:0,0:0:0:0:
333,313,133400,6,0,P|384:344|443:355,1,121.444996293793,2|0,0:0|1:0,0:0:0:0:
499,179,133854,1,2,0:0:0:0:
490,188,133968,1,0,0:0:0:0:
480,196,134081,2,0,P|459:175|412:157,1,60.7224981468964
314,242,134309,2,0,P|364:205|334:146,1,121.444996293793,2|0,0:0|0:0,0:0:0:0:
250,103,134650,1,0,0:0:0:0:
239,109,134763,2,0,P|272:119|266:50,1,121.444996293793
153,101,135218,5,10,0:0:0:0:
154,112,135331,1,8,0:0:0:0:
156,123,135445,2,0,L|149:158,1,24.6862502071753,2|0,1:0|0:0,0:0:0:0:
75,266,135900,6,0,P|85:256|105:250,1,24.6862502071753,10|0,0:0|0:0,0:0:0:0:
320,340,136354,6,0,P|307:334|297:325,1,24.6862502071753,2|0,1:0|0:0,0:0:0:0:
236,85,136809,6,0,P|242:97|244:110,1,24.6862502071753,10|0,0:0|0:0,0:0:0:0:
87,280,137263,6,0,P|124:246|193:227,1,98.745000828701,2|0,1:0|0:0,0:0:0:0:
332,325,137717,6,0,P|286:306|250:272,1,98.745000828701,10|0,0:0|0:0,0:0:0:0:
214,93,138172,6,0,P|239:139|246:192,1,98.745000828701,2|0,1:0|0:0,0:0:0:0:
305,41,138627,5,0,1:0:0:0:
312,34,138740,1,0,3:0:0:0:
321,31,138854,1,8,0:0:0:0:
431,138,139081,6,0,L|438:173,1,24.6862502071753,2|0,1:0|0:0,0:0:0:0:
512,281,139536,6,0,P|501:271|481:265,1,24.6862502071753,10|0,0:0|0:0,0:0:0:0:
267,355,139990,6,0,P|279:349|289:340,1,24.6862502071753,2|0,1:0|0:0,0:0:0:0:
351,100,140445,6,0,P|344:112|342:125,1,24.6862502071753,10|0,0:0|0:0,0:0:0:0:
499,295,140899,6,0,P|461:260|392:241,1,98.745000828701,2|0,1:0|0:0,0:0:0:0:
254,340,141353,6,0,P|300:321|336:286,1,98.745000828701,10|0,0:0|0:0,0:0:0:0:
373,108,141808,6,0,P|347:154|340:207,1,98.745000828701,2|0,1:0|0:0,0:0:0:0:
273,98,142263,5,10,0:0:0:0:
263,98,142376,1,2,0:0:0:0:
253,100,142490,1,2,0:0:0:0:
243,102,142604,1,2,0:0:0:0:
227,119,142718,6,0,L|359:135,1,121.444996293793,6|0,1:0|0:0,0:0:0:0:
240,246,143059,1,0,0:0:0:0:
232,255,143172,2,0,P|217:226|218:190,1,60.7224981468964,2|0,0:0|0:0,0:0:0:0:
357,233,143400,1,2,0:0:0:0:
217,365,143627,2,0,P|165:345|91:329,1,121.444996293793,2|0,0:0|0:0,0:0:0:0:
26,207,143968,1,0,1:0:0:0:
32,217,144081,2,0,P|63:203|98:194,1,60.7224981468964,2|0,0:0|3:0,0:0:0:0:
162,67,144309,6,0,P|136:114|197:144,1,121.444996293793,2|0,0:0|1:0,0:0:0:0:
316,170,144763,1,2,0:0:0:0:
306,177,144877,1,0,0:0:0:0:
294,179,144990,2,0,P|300:143|310:103,1,60.7224981468964
226,26,145218,1,2,0:0:0:0:
394,144,145445,1,0,0:0:0:0:
405,141,145559,1,0,3:0:0:0:
411,131,145672,1,8,0:0:0:0:
301,283,145900,2,0,P|331:302|370:302,1,60.7224981468964,10|8,0:0|0:0,0:0:0:0:
294,179,146127,2,0,P|264:183|239:200,1,60.7224981468964,10|8,0:0|0:0,0:0:0:0:
187,346,146354,6,0,P|204:321|208:291,1,60.7224981468964,4|0,1:0|0:0,0:0:0:0:
114,168,146581,1,2,0:0:0:0:
119,178,146695,1,0,0:0:0:0:
129,183,146809,2,0,P|153:170|195:160,1,60.7224981468964,2|0,0:0|0:0,0:0:0:0:
73,115,147036,2,0,P|81:88|104:52,1,60.7224981468964,2|0,0:0|0:0,0:0:0:0:
269,31,147263,2,0,P|209:14|128:7,1,121.444996293793,2|0,0:0|0:0,0:0:0:0:
279,130,147604,1,0,1:0:0:0:
282,118,147718,2,0,P|311:100|349:90,1,60.7224981468964,2|0,0:0|3:0,0:0:0:0:
408,322,147945,6,0,P|348:311|296:280,1,121.444996293793,2|0,0:0|1:0,0:0:0:0:
428,160,148399,1,2,0:0:0:0:
419,169,148513,1,0,0:0:0:0:
409,177,148626,2,0,P|388:156|341:138,1,60.7224981468964
243,223,148854,2,0,P|293:186|263:127,1,121.444996293793,2|0,0:0|0:0,0:0:0:0:
171,214,149195,1,0,0:0:0:0:
174,202,149309,2,0,P|145:180|96:168,1,60.7224981468964,0|0,0:0|1:0,0:0:0:0:
54,293,149536,2,0,P|83:271|132:259,1,60.7224981468964,2|0,0:0|3:0,0:0:0:0:
213,319,149763,5,2,0:0:0:0:
212,330,149877,1,0,0:0:0:0:
211,342,149990,2,0,L|252:335,1,24.6862502071753,0|0,1:0|0:0,0:0:0:0:
466,227,150445,6,0,L|435:202,1,24.6862502071753,8|0,0:0|0:0,0:0:0:0:
216,239,150900,6,0,L|201:258,1,24.6862502071753,0|0,1:0|0:0,0:0:0:0:
315,36,151354,6,0,L|306:13,1,24.6862502071753,8|0,0:0|0:0,0:0:0:0:
446,211,151809,5,0,1:0:0:0:
216,238,152263,5,8,0:0:0:0:
315,35,152718,5,0,1:0:0:0:
144,178,153172,5,0,1:0:0:0:
134,189,153286,1,0,3:0:0:0:
119,193,153400,1,8,0:0:0:0:
85,79,153627,6,0,L|80:123,1,24.6862502071753,0|0,1:0|0:0,0:0:0:0:
22,326,154081,6,0,L|53:301,1,24.6862502071753,8|0,0:0|0:0,0:0:0:0:
271,338,154536,6,0,L|286:357,1,24.6862502071753,0|0,1:0|0:0,0:0:0:0:
173,134,154990,6,0,L|182:111,1,24.6862502071753,8|0,0:0|0:0,0:0:0:0:
42,310,155445,5,0,1:0:0:0:
272,337,155899,5,8,0:0:0:0:
173,134,156354,5,0,1:0:0:0:
403,161,156809,1,12,0:2:0:0:
403,161,157263,6,0,P|433:149|450:123,2,43.1299994735107,2|0|0,1:0|0:0|0:0,0:0:0:0:
336,202,157718,2,0,P|354:228|383:239,2,43.1299994735107,2|0|0,0:0|0:0|0:0,0:0:0:0:
286,141,158172,2,0,P|264:164|260:195,2,43.1299994735107,2|0|0,0:0|0:0|0:0,0:0:0:0:
331,82,158627,2,0,P|302:66|271:69,2,43.1299994735107,2|0|0,0:0|0:0|0:0,0:0:0:0:
286,147,159081,5,2,3:0:0:0:
268,144,159233,1,2,0:0:0:0:
250,141,159384,1,2,0:0:0:0:
183,165,159536,6,0,L|189:225,1,48.5212494076996,0|0,3:0|0:0,0:0:0:0:
181,223,159763,2,0,L|174:165,1,48.5212494076996,0|0,3:0|0:0,0:0:0:0:
173,163,159990,1,0,3:0:0:0:
104,131,160218,1,0,0:0:0:0:
37,112,160445,2,0,L|32:57,1,43.1299994735107,0|0,3:0|0:0,0:0:0:0:
31,53,160672,1,2,0:0:0:0:
138,21,160900,6,0,L|187:27,2,43.1299994735107,2|0|0,0:0|0:0|0:0,0:0:0:0:
175,96,161354,2,0,L|217:90,2,43.1299994735107,2|0|0,0:0|0:0|0:0,0:0:0:0:
214,165,161809,2,0,L|256:170,2,43.1299994735107,2|0|0,0:0|0:0|0:0,0:0:0:0:
253,246,162263,2,0,L|295:240,2,43.1299994735107,2|0|0,0:0|0:0|0:0,0:0:0:0:
332,306,162718,5,2,3:0:0:0:
349,308,162869,1,2,0:0:0:0:
366,310,163021,1,2,0:0:0:0:
432,320,163172,6,0,L|424:262,1,48.5212494076996,0|0,3:0|0:0,0:0:0:0:
434,262,163400,1,0,3:0:0:0:
497,135,163626,5,2,0:0:0:0:
481,127,163778,1,2,0:0:0:0:
463,129,163930,1,2,0:0:0:0:
402,166,164081,5,2,3:0:0:0:
384,168,164233,1,2,0:0:0:0:
368,160,164385,1,2,0:0:0:0:
325,107,164536,6,0,P|308:94|268:94,1,32.3474996051331,2|0,3:0|0:0,0:0:0:0:
227,153,164763,5,2,0:0:0:0:
227,153,164877,1,2,0:0:0:0:
227,153,164990,1,2,3:0:0:0:
93,274,165218,1,0,3:0:0:0:
258,344,165445,5,2,3:0:0:0:
241,254,165672,1,0,0:0:0:0:
359,182,165900,5,0,3:0:0:0:
342,272,166127,1,0,0:0:0:0:
227,153,166354,6,0,L|152:165,1,64.6949992102661,2|0,0:0|0:0,0:0:0:0:
63,286,166809,1,2,0:0:0:0:
58,218,167036,2,0,L|110:226,1,48.5212494076996,2|0,0:0|0:0,0:0:0:0:
118,229,167263,1,2,0:0:0:0:
227,340,167490,1,2,0:0:0:0:
232,272,167717,2,0,L|180:280,1,48.5212494076996,2|0,0:0|0:0,0:0:0:0:
172,283,167944,1,2,0:0:0:0:
300,331,168172,6,0,P|321:307|322:265,1,64.6949992102661,2|2,0:0|0:0,0:0:0:0:
218,160,168627,1,2,0:0:0:0:
289,199,168854,1,2,0:0:0:0:
210,85,169081,6,0,L|178:91,3,32.3474996051331,2|0|0|0,0:0|0:0|0:0|0:0,0:0:0:0:
113,104,169536,1,2,0:0:0:0:
40,246,169763,6,0,L|71:252,3,32.3474996051331,2|0|0|0,0:0|0:0|0:0|0:0,0:0:0:0:
137,265,170218,1,2,0:0:0:0:
253,207,170445,6,0,P|241:222|238:248,3,32.3474996051331,2|0|0|0,0:0|0:0|0:0|0:0,0:0:0:0:
271,302,170900,1,2,0:0:0:0:
416,227,171127,6,0,L|407:162,1,64.6949992102661,2|0,0:0|0:0,0:0:0:0:
396,98,171468,1,2,0:0:0:0:
396,98,171581,1,2,0:0:0:0:
198,20,171809,6,0,L|151:31,3,38.0224982014504,2|0|0|0,0:0|0:0|0:0|0:0,0:0:0:0:
126,92,172263,2,0,L|167:98,1,38.0224982014504,2|2,0:0|0:0,0:0:0:0:
301,120,172490,6,0,L|290:73,3,38.0224982014504,2|0|0|0,0:0|0:0|0:0|0:0,0:0:0:0:
367,40,172945,2,0,L|361:77,1,38.0224982014504,2|2,0:0|0:0,0:0:0:0:
479,167,173172,6,0,P|436:132|380:159,1,114.067494604351,2|0,0:0|0:0,0:0:0:0:
372,215,173627,2,0,L|379:266,1,38.0224982014504,2|2,0:0|0:0,0:0:0:0:
390,342,173854,6,0,P|410:345|431:352,3,38.0224982014504,2|0|0|0,0:0|0:0|0:0|0:0,0:0:0:0:
322,306,174309,2,0,P|303:311|285:314,1,38.0224982014504,2|2,0:0|0:0,0:0:0:0:
216,238,174536,6,0,L|226:109,1,106.68999837204,2|2,1:0|0:0,0:0:0:0:
224,131,175445,1,2,0:0:0:0:
224,131,175899,1,2,0:0:0:0:
343,176,176354,1,0,3:0:0:0:
462,222,176695,5,0,1:0:0:0:
462,222,176808,2,0,P|453:165|396:165,1,106.68999837204,2|2,1:0|0:0,0:0:0:0:
411,156,177717,1,2,0:0:0:0:
328,253,178172,1,0,3:0:0:0:
200,245,178626,1,0,3:0:0:0:
190,255,178778,2,0,L|184:304,1,44.4541659883499,2|0,0:0|0:0,0:0:0:0:
129,350,179081,6,0,P|98:310|29:299,3,106.68999837204,0|0|0|0,1:0|0:0|0:0|0:0,0:0:0:0:
3,111,180899,1,0,3:0:0:0:
113,191,181240,5,0,1:0:0:0:
113,191,181354,2,0,P|144:151|213:140,1,106.68999837204,2|2,1:0|0:0,0:0:0:0:
196,137,182263,1,2,0:0:0:0:
309,79,182717,1,0,3:0:0:0:
433,109,183172,1,0,3:0:0:0:
422,122,183323,2,0,L|427:174,1,44.4541659883499,2|0,0:0|0:0,0:0:0:0:
436,249,183626,6,0,P|476:259|511:200,3,106.68999837204,2|0|0|0,1:0|0:0|0:0|0:0,0:0:0:0:
497,89,185445,1,0,3:0:0:0:
349,43,185786,5,0,1:0:0:0:
349,43,185899,2,0,P|311:82|258:49,1,106.68999837204,2|2,1:0|0:0,0:0:0:0:
267,66,186808,1,2,0:0:0:0:
192,170,187263,1,0,3:0:0:0:
222,294,187717,1,0,3:0:0:0:
228,281,187869,2,0,L|274:274,1,44.4541659883499,2|0,0:0|0:0,0:0:0:0:
347,265,188172,6,0,P|360:213|382:165,3,106.68999837204,2|0|0|0,1:0|0:0|0:0|0:0,0:0:0:0:
305,62,189990,1,0,3:0:0:0:
213,151,190331,5,0,1:0:0:0:
213,151,190445,2,0,P|165:129|114:116,2,106.68999837204,2|0|0,1:0|0:0|0:0,0:0:0:0:
242,275,191808,1,0,3:0:0:0:
133,343,192263,1,0,3:0:0:0:
141,331,192414,2,0,L|192:322,1,44.4541659883499,2|0,0:0|0:0,0:0:0:0:
260,314,192717,6,0,P|252:332|246:360,2,35.5633327906799,2|0|0,1:0|0:0|0:0,0:0:0:0:
249,235,193171,2,0,P|230:241|205:256,2,35.5633327906799,2|0|0,0:0|0:0|0:0,0:0:0:0:
299,177,193626,2,0,P|281:167|254:159,2,35.5633327906799,2|0|0,0:0|0:0|0:0,0:0:0:0:
370,166,194080,2,0,P|364:146|351:121,2,35.5633327906799,2|0|0,0:0|0:0|0:0,0:0:0:0:
364,239,194535,5,2,0:0:0:0:
377,241,194686,1,2,0:0:0:0:
390,236,194838,1,2,0:0:0:0:
434,181,194989,2,0,P|459:181|487:198,2,35.5633327906799,2|0|0,0:0|0:0|0:0,0:0:0:0:
370,166,195444,5,2,0:0:0:0:
360,156,195596,1,2,0:0:0:0:
356,143,195747,1,2,0:0:0:0:
389,83,195898,2,0,P|414:83|442:100,2,35.5633327906799,2|0|0,0:0|0:0|0:0,0:0:0:0:
307,66,196353,5,2,0:0:0:0:
292,68,196505,1,2,0:0:0:0:
278,71,196656,1,2,0:0:0:0:
213,89,196807,2,0,L|203:145,2,35.5633327906799,2|0|0,0:0|0:0|0:0,0:0:0:0:
151,44,197262,2,0,L|144:8,2,35.5633327906799,2|0|0,0:0|0:0|0:0,0:0:0:0:
104,101,197717,5,2,0:0:0:0:
102,116,197869,1,2,0:0:0:0:
99,130,198020,1,2,0:0:0:0:
91,197,198171,6,0,P|68:224|14:223,1,71.1266655813599,2|0,0:0|0:0,0:0:0:0:
89,292,198626,5,2,0:0:0:0:
99,301,198777,1,2,0:0:0:0:
112,304,198929,1,2,0:0:0:0:
173,268,199080,5,2,0:0:0:0:
186,271,199232,1,2,0:0:0:0:
196,280,199383,1,2,0:0:0:0:
240,333,199535,6,0,P|274:326|296:299,1,71.1266655813599,2|0,0:0|0:0,0:0:0:0:
313,228,199989,6,0,P|316:191|323:146,1,71.1266655813599,2|0,0:0|0:0,0:0:0:0:
262,101,200444,1,2,0:0:0:0:
273,109,200595,2,0,P|290:95|319:87,1,35.5633327906799,2|0,0:0|0:0,0:0:0:0:
370,37,200898,1,2,0:0:0:0:
359,45,201049,2,0,P|342:31|313:23,1,35.5633327906799,2|0,0:0|0:0,0:0:0:0:
394,111,201353,2,0,P|398:146|402:181,1,71.1266655813599,2|0,0:0|0:0,0:0:0:0:
435,273,201807,5,2,0:0:0:0:
421,272,201958,1,2,0:0:0:0:
409,263,202110,2,0,P|389:248|362:243,1,35.5633327906799,2|0,0:0|0:0,0:0:0:0:
295,350,202413,2,0,L|304:294,1,35.5633327906799,2|0,0:0|0:0,0:0:0:0:
197,255,202717,2,0,L|207:297,1,35.5633327906799,2|0,0:0|0:0,0:0:0:0:
189,180,203020,1,2,0:0:0:0:
175,177,203171,2,0,P|159:185|147:198,2,35.5633327906799,2|0|0,0:0|0:0|0:0,0:0:0:0:
274,107,203626,6,0,P|243:89|199:86,1,71.1266655813599,2|0,0:0|0:0,0:0:0:0:
123,132,204080,1,2,0:0:0:0:
133,122,204232,2,0,L|142:79,1,35.5633327906799,2|0,0:0|0:0,0:0:0:0:
57,77,204535,1,2,0:0:0:0:
47,67,204687,2,0,L|38:24,1,35.5633327906799,2|0,0:0|0:0,0:0:0:0:
136,0,204989,5,2,0:0:0:0:
149,3,205141,1,2,0:0:0:0:
162,6,205292,1,2,0:0:0:0:
235,21,205444,6,0,P|239:57|299:111,1,106.68999837204,2|0,0:0|0:0,0:0:0:0:
362,56,206050,2,0,P|343:50|316:64,1,35.5633327906799,2|0,0:0|0:0,0:0:0:0:
370,144,206353,5,2,0:0:0:0:
383,148,206504,1,2,0:0:0:0:
397,145,206656,1,2,0:0:0:0:
439,87,206807,5,2,0:0:0:0:
459,82,206958,1,2,0:0:0:0:
478,91,207110,1,2,0:0:0:0:
500,170,207262,5,2,0:0:0:0:
496,205,207413,1,2,0:0:0:0:
491,240,207565,1,2,0:0:0:0:
445,301,207717,6,0,P|409:331|359:312,1,93.3537485755349,12|0,0:0|0:0,0:0:0:0:
359,310,208171,6,0,P|341:246|329:164,1,121.444996293793,4|0,1:0|0:0,0:0:0:0:
254,55,208512,1,0,0:0:0:0:
252,66,208625,2,0,P|276:48|311:49,1,60.7224981468964,2|0,0:0|0:0,0:0:0:0:
255,163,208853,1,2,0:0:0:0:
137,16,209080,2,0,B|63:26|106:64|24:75,1,121.444996293793,2|0,0:0|0:0,0:0:0:0:
135,165,209421,1,0,1:0:0:0:
135,152,209534,2,0,L|141:86,1,60.7224981468964,2|0,0:0|3:0,0:0:0:0:
16,206,209761,6,0,P|38:261|100:262,1,121.444996293793,2|0,0:0|1:0,0:0:0:0:
263,176,210216,1,2,0:0:0:0:
253,183,210330,1,0,0:0:0:0:
243,190,210443,2,0,L|253:268,1,60.7224981468964
323,140,210671,1,2,0:0:0:0:
402,294,210898,1,0,0:0:0:0:
390,289,211012,1,0,3:0:0:0:
379,285,211125,1,8,0:0:0:0:
497,155,211352,2,0,P|495:186|486:222,1,60.7224981468964,10|8,0:0|0:0,0:0:0:0:
347,156,211580,2,0,P|340:126|338:96,1,60.7224981468964,10|8,0:0|0:0,0:0:0:0:
265,219,211808,6,0,P|240:201|195:199,1,60.7224981468964,6|0,1:0|0:0,0:0:0:0:
209,337,212034,1,2,0:0:0:0:
221,333,212148,1,0,0:0:0:0:
230,325,212261,2,0,P|226:294|196:260,1,60.7224981468964,2|0,0:0|0:0,0:0:0:0:
116,370,212489,2,0,P|135:346|140:301,1,60.7224981468964,2|0,0:0|0:0,0:0:0:0:
17,205,212716,2,0,P|56:254|70:322,1,121.444996293793,2|0,0:0|0:0,0:0:0:0:
132,178,213057,1,0,1:0:0:0:
136,166,213171,2,0,P|115:147|64:149,1,60.7224981468964,2|0,0:0|3:0,0:0:0:0:
203,220,213398,6,0,P|235:172|298:150,1,121.444996293793,2|0,0:0|1:0,0:0:0:0:
120,76,213853,1,2,0:0:0:0:
129,85,213967,1,0,0:0:0:0:
139,93,214080,2,0,P|160:72|207:54,1,60.7224981468964
298,168,214307,2,0,P|340:206|407:212,1,121.444996293793,2|0,0:0|0:0,0:0:0:0:
402,79,214648,1,0,0:0:0:0:
396,68,214761,2,0,P|356:86|407:131,1,121.444996293793
297,25,215217,5,0,3:0:0:0:
285,23,215330,1,0,3:0:0:0:
273,21,215443,2,0,L|235:9,1,24.6862502071753,0|0,1:0|0:0,0:0:0:0:
103,210,215898,6,0,L|141:198,1,24.6862502071753,8|0,0:0|0:0,0:0:0:0:
281,333,216352,6,0,L|243:321,1,24.6862502071753,0|0,1:0|0:0,0:0:0:0:
344,133,216807,6,0,L|382:121,1,24.6862502071753,8|0,0:0|0:0,0:0:0:0:
95,198,217261,6,0,L|206:162,1,98.745000828701,0|0,1:0|0:0,0:0:0:0:
289,320,217716,6,0,L|194:290,1,98.745000828701,8|0,0:0|0:0,0:0:0:0:
332,121,218171,6,0,L|443:85,1,98.745000828701,0|0,1:0|0:0,0:0:0:0:
483,251,218625,5,0,1:0:0:0:
463,246,218738,1,0,3:0:0:0:
444,242,218852,1,8,0:0:0:0:
349,346,219080,6,0,L|311:358,1,24.6862502071753,0|0,1:0|0:0,0:0:0:0:
179,157,219534,6,0,L|217:169,1,24.6862502071753,8|0,0:0|0:0,0:0:0:0:
357,34,219989,6,0,L|319:46,1,24.6862502071753,0|0,1:0|0:0,0:0:0:0:
420,234,220444,6,0,L|458:246,1,24.6862502071753,8|0,0:0|0:0,0:0:0:0:
171,169,220898,6,0,L|282:204,1,98.745000828701,0|0,1:0|0:0,0:0:0:0:
365,47,221353,6,0,L|270:76,1,98.745000828701,8|0,0:0|0:0,0:0:0:0:
408,246,221808,6,0,L|519:281,1,98.745000828701,0|0,1:0|0:0,0:0:0:0:
370,127,222261,1,12,0:0:0:0:
370,127,222716,6,0,P|390:187|429:163,1,121.444996293793,6|0,1:0|0:0,0:0:0:0:
395,47,223057,1,0,0:0:0:0:
389,35,223171,2,0,P|356:30|317:55,1,60.7224981468964,2|0,0:0|0:0,0:0:0:0:
221,121,223398,1,2,0:0:0:0:
320,271,223625,2,0,P|331:207|353:133,1,121.444996293793,2|0,0:0|0:0,0:0:0:0:
235,264,223966,1,0,1:0:0:0:
227,273,224080,2,0,P|194:278|155:253,1,60.7224981468964,0|0,0:0|3:0,0:0:0:0:
61,153,224307,6,0,P|77:211|87:271,1,121.444996293793,2|0,0:0|1:0,0:0:0:0:
145,125,224761,1,2,0:0:0:0:
141,136,224875,1,0,0:0:0:0:
138,147,224989,2,0,P|163:126|205:120,1,60.7224981468964
258,216,225216,1,2,0:0:0:0:
329,60,225444,1,0,0:0:0:0:
319,53,225557,1,0,3:0:0:0:
307,50,225671,1,8,0:0:0:0:
431,208,225898,2,0,P|461:185|496:173,1,60.7224981468964,10|8,0:0|0:0,0:0:0:0:
376,308,226125,2,0,P|346:285|311:273,1,60.7224981468964,10|8,0:0|0:0,0:0:0:0:
237,154,226352,6,0,P|258:181|265:226,1,60.7224981468964,6|0,1:0|0:0,0:0:0:0:
112,259,226580,1,2,0:0:0:0:
122,265,226694,1,0,0:0:0:0:
133,269,226807,2,0,P|152:245|161:216,1,60.7224981468964,2|0,0:0|0:0,0:0:0:0:
58,111,227034,2,0,P|95:102|135:77,1,60.7224981468964,2|0,0:0|0:0,0:0:0:0:
291,44,227261,2,0,P|233:21|145:5,1,121.444996293793,2|0,0:0|0:0,0:0:0:0:
361,106,227602,1,0,1:0:0:0:
349,111,227716,2,0,P|368:85|374:34,1,60.7224981468964,2|0,0:0|3:0,0:0:0:0:
218,153,227943,6,0,P|276:130|364:114,1,121.444996293793,2|0,0:0|1:0,0:0:0:0:
418,250,228398,1,2,0:0:0:0:
406,247,228511,1,0,0:0:0:0:
393,244,228625,2,0,P|382:213|379:171,1,60.7224981468964,2|0,0:0|0:0,0:0:0:0:
271,315,228852,2,0,P|295:250|305:180,1,121.444996293793,2|0,0:0|0:0,0:0:0:0:
146,176,229307,1,0,0:0:0:0:
152,186,229421,1,0,1:0:0:0:
163,190,229534,2,0,P|184:166|223:143,1,60.7224981468964,0|0,0:0|3:0,0:0:0:0:
103,263,229761,5,0,0:0:0:0:
93,257,229875,1,0,0:0:0:0:
89,246,229988,1,0,1:0:0:0:
217,41,230443,5,8,0:0:0:0:
321,343,230898,5,0,1:0:0:0:
356,3,231352,5,8,0:0:0:0:
252,305,231807,5,0,1:0:0:0:
504,210,232261,5,8,0:0:0:0:
182,150,232716,6,0,L|191:253,1,98.745000828701,0|0,1:0|0:0,0:0:0:0:
312,220,233171,1,0,1:0:0:0:
314,210,233284,1,0,3:0:0:0:
316,200,233398,1,8,0:0:0:0:
393,46,233625,5,0,1:0:0:0:
289,348,234080,5,8,0:0:0:0:
254,8,234534,5,0,1:0:0:0:
358,310,234989,5,8,0:0:0:0:
106,215,235443,5,0,1:0:0:0:
428,155,235898,6,0,L|419:258,1,98.745000828701,8|0,0:0|0:0,0:0:0:0:
219,152,236352,6,0,P|259:171|292:140,1,93.3537485755349,0|0,1:0|0:0,0:0:0:0:
291,131,236807,1,8,0:0:0:0:
291,131,237261,6,0,B|135:86|188:275|16:204|16:204|73:228|116:191,1,388.169995261597,6|0,1:0|0:0,0:0:0:0:
90,207,239534,5,8,3:0:0:0:
307,235,239875,5,0,0:0:0:0:
307,235,239989,2,0,B|272:245|249:225|249:225|297:279|389:237|375:128,1,258.779996841064,10|0,3:0|0:0,0:0:0:0:
235,76,241352,5,2,0:0:0:0:
205,149,241580,1,2,0:0:0:0:
279,136,241807,1,2,0:0:0:0:
309,342,242034,5,8,3:0:0:0:
179,224,242261,1,8,0:0:0:0:
509,180,242716,6,0,B|439:199|401:141|401:141|358:110|403:51|460:114|401:141|401:141|316:97|261:165,1,388.169995261597,6|0,1:0|0:0,0:0:0:0:
334,226,244307,5,0,0:0:0:0:
336,220,244421,1,0,0:0:0:0:
339,214,244534,1,2,0:0:0:0:
81,351,244989,5,8,0:0:0:0:
150,332,245216,1,8,3:0:0:0:
150,325,245330,1,8,3:0:0:0:
150,318,245443,2,0,P|188:262|259:280,1,129.389998420532,8|0,0:0|1:0,0:0:0:0:
398,345,246239,5,0,1:0:0:0:
396,351,246352,2,0,P|334:352|305:303,1,113.216248617966,2|0,1:0|0:0,0:0:0:0:
306,298,246807,2,0,P|332:279|377:268,1,64.6949992102661,2|0,0:0|0:0,0:0:0:0:
250,145,247261,2,0,P|223:125|193:116,1,64.6949992102661,10|0,0:0|1:0,0:0:0:0:
90,262,247716,2,0,P|115:208|123:153,1,113.216248617966,10|0,0:0|0:0,0:0:0:0:
115,147,248171,6,0,P|144:134|171:164,1,64.6949992102661,6|0,1:0|0:0,0:0:0:0:
238,297,248625,5,8,0:0:0:0:
314,149,248852,1,2,0:0:0:0:
319,148,248966,1,0,0:0:0:0:
325,147,249080,1,2,1:0:0:0:
376,200,249307,1,2,0:0:0:0:
243,69,249534,1,10,0:0:0:0:
100,200,249761,5,10,0:0:0:0:
101,205,249875,1,8,0:0:0:0:
102,211,249989,1,14,0:0:0:0:
129,131,250216,1,2,1:0:0:0:
262,242,250443,1,2,1:0:0:0:
221,167,250670,1,10,0:0:0:0:
134,318,250898,5,2,1:0:0:0:
329,376,251125,1,2,1:0:0:0:
335,376,251239,1,0,1:0:0:0:
341,375,251352,1,14,0:0:0:0:
297,312,251580,1,2,0:0:0:0:
386,162,251807,5,2,1:0:0:0:
386,162,252261,5,2,0:0:0:0:
318,115,252489,1,2,1:0:0:0:
174,215,252716,1,2,1:0:0:0:
174,215,253171,1,2,1:0:0:0:
117,69,253398,5,0,0:0:0:0:
72,125,253625,2,0,P|40:117|0:110,1,64.6949992102661,2|0,0:0|1:0,0:0:0:0:
96,206,254080,1,2,1:0:0:0:
236,62,254307,1,10,0:0:0:0:
281,117,254534,2,0,P|312:109|353:102,1,64.6949992102661,10|0,3:0|0:0,0:0:0:0:
399,148,254875,1,0,0:0:0:0:
398,154,254989,1,8,3:0:0:0:
377,218,255216,1,10,3:0:0:0:
232,339,255443,5,8,0:0:0:0:
166,164,255671,1,2,0:0:0:0:
172,163,255784,1,0,0:0:0:0:
178,162,255898,1,2,1:0:0:0:
243,200,256125,1,0,0:0:0:0:
249,201,256239,1,0,0:0:0:0:
255,202,256352,1,0,1:0:0:0:
306,150,256580,2,0,L|345:146,1,32.3474996051331,8|0,3:0|3:0,0:0:0:0:
408,202,256807,1,8,0:0:0:0:
383,68,257034,2,0,P|400:78|415:100,1,32.3474996051331,0|0,0:0|3:0,0:0:0:0:
512,254,257261,6,0,B|435:246|487:199|391:188,1,129.389998420532,12|2,0:0|0:0,0:0:0:0:
323,261,257943,1,2,1:0:0:0:
368,383,258171,2,0,P|383:312|406:253,1,129.389998420532,2|2,1:0|1:0,0:0:0:0:
173,216,259080,6,0,P|196:195|234:186,1,64.6949992102661,2|0,0:0|1:0,0:0:0:0:
306,245,259534,1,2,1:0:0:0:
245,28,259761,1,10,0:0:0:0:
202,91,259989,2,0,P|179:69|140:61,1,64.6949992102661,2|0,1:0|0:0,0:0:0:0:
98,112,260330,1,0,0:0:0:0:
99,118,260443,1,8,3:0:0:0:
152,180,260671,1,10,3:0:0:0:
46,324,260898,5,8,0:0:0:0:
68,245,261125,1,2,0:0:0:0:
200,370,261352,2,0,P|225:356|263:347,1,64.6949992102661,2|0,1:0|0:0,0:0:0:0:
324,375,261693,1,0,0:0:0:0:
323,381,261806,1,0,1:0:0:0:
401,321,262034,1,8,3:0:0:0:
270,143,262261,1,8,0:0:0:0:
218,199,262489,5,0,3:0:0:0:
218,210,262602,1,8,0:0:0:0:
219,222,262716,2,0,B|336:256|294:143|413:189,1,199.192500759859,6|0,1:0|0:0,0:0:0:0:
404,322,263171,2,0,P|378:294|372:238,1,66.3975002532864,10|0,0:0|0:0,0:0:0:0:
501,161,263398,2,0,P|489:192|466:215,1,66.3975002532864,10|8,3:0|3:0,0:0:0:0:
296,113,263625,1,2,1:0:0:0:
173,330,263966,1,0,3:0:0:0:
116,295,264080,2,0,P|106:231|92:156,1,132.795000506573,10|8,0:0|3:0,0:0:0:0:
172,15,264421,1,0,3:0:0:0:
109,35,264534,6,0,B|121:47|133:66|133:66|179:51|238:43,1,132.795000506573,2|0,1:0|1:0,0:0:0:0:
346,129,264875,1,0,3:0:0:0:
280,115,264989,1,10,0:0:0:0:
196,310,265216,2,0,P|235:298|253:263,1,66.3975002532864,8|8,3:0|3:0,0:0:0:0:
206,119,265443,2,0,B|194:131|175:143|175:143|190:189|198:248,1,132.795000506573,2|0,1:0|1:0,0:0:0:0:
339,212,265784,1,0,3:0:0:0:
275,192,265898,1,10,0:0:0:0:
377,311,266125,1,8,3:0:0:0:
393,311,266239,1,8,3:0:0:0:
458,287,266352,6,0,P|429:209|419:141,1,132.795000506573,2|0,1:0|1:0,0:0:0:0:
319,18,266693,1,0,3:0:0:0:
271,68,266807,2,0,P|241:55|196:49,1,66.3975002532864,10|0,0:0|0:0,0:0:0:0:
135,215,267034,2,0,P|165:202|210:196,1,66.3975002532864,8|8,3:0|3:0,0:0:0:0:
48,64,267261,2,0,P|86:111|55:192,1,132.795000506573,2|0,1:0|1:0,0:0:0:0:
27,314,267602,1,0,3:0:0:0:
2,249,267716,2,0,P|49:211|130:242,1,132.795000506573,10|8,0:0|3:0,0:0:0:0:
229,361,268171,6,0,B|295:375|316:329|316:329|354:361|407:316,1,199.192500759859,2|0,1:0|0:0,0:0:0:0:
223,225,268625,2,0,P|242:255|251:302,1,66.3975002532864,8|0,0:0|0:0,0:0:0:0:
359,148,268852,1,10,3:0:0:0:
362,160,268966,1,8,3:0:0:0:
364,173,269080,2,0,P|333:153|286:144,1,66.3975002532864,2|0,1:0|0:0,0:0:0:0:
170,71,269307,2,0,P|200:56|221:30,1,66.3975002532864,2|0,1:0|0:0,0:0:0:0:
123,156,269534,2,0,P|154:167|187:165,1,66.3975002532864,10|0,0:0|0:0,0:0:0:0:
24,179,269761,2,0,P|36:209|61:232,1,66.3975002532864,14|0,0:0|3:0,0:0:0:0:
170,71,269989,6,0,B|287:37|245:150|364:104,1,199.192500759859,6|0,1:0|0:0,0:0:0:0:
487,197,270443,2,0,P|460:178|420:166,1,66.3975002532864,10|0,0:0|0:0,0:0:0:0:
381,4,270671,2,0,P|349:14|322:33,1,66.3975002532864,10|8,3:0|3:0,0:0:0:0:
197,159,270898,1,2,1:0:0:0:
335,292,271239,1,0,3:0:0:0:
402,270,271352,2,0,P|344:260|250:254,1,132.795000506573,10|8,0:0|3:0,0:0:0:0:
81,309,271694,1,0,3:0:0:0:
129,361,271807,6,0,B|141:349|160:337|160:337|145:291|137:232,1,132.795000506573,0|0,1:0|1:0,0:0:0:0:
64,73,272148,1,0,3:0:0:0:
127,102,272262,1,8,0:0:0:0:
266,27,272489,1,8,3:0:0:0:
256,42,272603,1,8,3:0:0:0:
239,106,272716,2,0,P|296:150|351:105,1,132.795000506573,2|0,1:0|1:0,0:0:0:0:
458,28,273057,1,0,3:0:0:0:
446,95,273171,1,10,0:0:0:0:
421,260,273398,1,8,3:0:0:0:
417,247,273511,1,8,3:0:0:0:
366,203,273625,6,0,B|294:223|342:266|244:290,1,132.795000506573,2|0,1:0|1:0,0:0:0:0:
101,192,273966,1,0,3:0:0:0:
157,223,274080,2,0,P|153:259|117:295,1,66.3975002532864,10|0,0:0|0:0,0:0:0:0:
23,172,274307,2,0,P|27:208|63:244,1,66.3975002532864,8|8,3:0|3:0,0:0:0:0:
186,81,274534,2,0,P|121:95|46:115,1,132.795000506573,2|0,1:0|1:0,0:0:0:0:
264,196,274875,1,0,3:0:0:0:
331,180,274989,2,0,P|266:163|201:149,1,132.795000506573,8|8,0:0|3:0,0:0:0:0:
366,298,275443,6,0,B|387:283|419:281|419:281|427:210|464:130,1,199.192500759859,2|0,1:0|0:0,0:0:0:0:
301,32,275898,2,0,P|318:61|325:112,1,66.3975002532864,8|0,0:0|0:0,0:0:0:0:
180,180,276125,1,10,3:0:0:0:
191,173,276239,1,8,3:0:0:0:
203,168,276352,2,0,P|186:197|179:248,1,66.3975002532864,2|0,1:0|0:0,0:0:0:0:
349,275,276580,2,0,P|320:253|263:238,1,66.3975002532864,0|0,1:0|0:0,0:0:0:0:
161,353,276807,2,0,P|190:331|247:316,1,66.3975002532864,8|0,0:0|0:0,0:0:0:0:
38,178,277034,1,10,3:0:0:0:
42,210,277148,1,8,3:0:0:0:
53,279,277261,5,14,0:0:0:0:
