osu file format v14

[General]
AudioFilename: Mili - Vulnerability.mp3
AudioLeadIn: 0
PreviewTime:66174
Countdown: 0
SampleSet: Soft
StackLeniency: 0.7
Mode: 0
LetterboxInBreaks: 0
WidescreenStoryboard: 1

[Editor]
Bookmarks:9849,22861,40211,57560,69488,81054,92620,104186
DistanceSpacing: 1.1
BeatDivisor: 4
GridSize: 16
TimelineZoom: 2.599999

[Metadata]
Title:Vulnerability
TitleUnicode:Vulnerability
Artist:Mili
ArtistUnicode:Mili
Creator:frozz
Version:Hinsvar's Insane
Source:
Tags:featured artist fa miracle milk 06 mpg mappers' guild electronic instrumental -keqing Kiyoshi Guarden Nymphe kang-sae byeok Hinsvar
BeatmapID:3986730
BeatmapSetID:1919394

[Difficulty]
HPDrainRate:5
CircleSize:3.6
OverallDifficulty:8
ApproachRate:9
SliderMultiplier:1.68
SliderTickRate:1

[Events]
//Background and Video events
0,0,"Mili - Vulnerability.jpg",0,0
//Break Periods
//Storyboard Layer 0 (Background)
//Storyboard Layer 1 (Fail)
//Storyboard Layer 2 (Pass)
//Storyboard Layer 3 (Foreground)
//Storyboard Layer 4 (Overlay)
//Storyboard Sound Samples

[TimingPoints]
1175,361.44578313253,3,2,1,50,1,0
1175,-166.666666666667,3,2,1,50,0,0
9849,-250.000000000001,3,2,1,40,0,0
14187,-166.666666666667,3,2,1,55,0,0
22861,-125,3,2,1,65,0,0
23223,-83.3333333333333,3,2,1,65,0,0
23584,-125,3,2,1,65,0,0
24307,-83.3333333333333,3,2,1,65,0,0
24668,-125,3,2,1,65,0,0
26114,-250,3,2,1,65,0,0
27199,-250,3,2,1,40,0,0
29367,-166.666666666667,3,2,1,40,0,0
31536,-125,3,2,1,40,0,0
35873,-166.666666666667,3,2,1,40,0,0
36958,-250,3,2,1,40,0,0
39126,-166.666666666667,3,2,1,40,0,0
40211,-100,3,2,1,70,0,0
43464,-166.666666666667,3,2,1,70,0,0
43735,-166.666666666667,3,2,10,5,0,0
43825,-83.3333333333333,3,2,1,70,0,0
44096,-83.3333333333333,3,2,10,5,0,0
44187,-83.3333333333333,3,2,1,70,0,0
44458,-83.3333333333333,3,2,10,5,0,0
44548,-100,3,2,1,70,0,0
48162,-83.3333333333333,3,2,1,70,0,0
48885,-100,3,2,1,70,0,0
49970,-166.666666666667,3,2,1,70,0,0
50241,-166.666666666667,3,2,10,5,0,0
50331,-250,3,2,1,70,0,0
50873,-100,3,2,1,70,0,0
52138,-166.666666666667,3,2,1,70,0,0
52409,-166.666666666667,3,2,10,5,0,0
52500,-83.3333333333334,3,2,1,70,0,0
52771,-83.3333333333334,3,2,10,5,0,0
52861,-83.3333333333334,3,2,1,70,0,0
53132,-83.3333333333334,3,2,10,5,0,0
53223,-100,3,2,1,70,0,0
56837,-83.3333333333333,3,2,1,70,0,0
57560,-125,3,2,1,40,0,0
66235,-83.3333333333333,3,2,1,70,0,0
66596,-125,3,2,1,70,0,0
67319,-83.3333333333333,3,2,1,60,0,0
67681,-100,3,2,1,60,0,0
68042,-125,3,2,1,60,0,0
68403,-100,3,2,1,50,0,0
68765,-83.3333333333333,3,2,1,60,0,0
69126,-71.4285714285714,3,2,1,70,0,0
69397,-71.4285714285714,3,2,10,5,0,0
69488,361.44578313253,4,2,1,85,1,1
69488,-83.3333333333333,4,2,1,85,0,1
70572,-166.666666666667,4,2,1,85,0,1
70933,-125,4,2,1,85,0,1
71295,-100,4,2,1,85,0,1
72379,-83.3333333333333,4,2,1,85,0,1
73945,-125,4,2,1,85,0,1
76355,-100,4,2,1,85,0,1
76716,-83.3333333333333,4,2,1,85,0,1
78524,-100,4,2,1,85,0,1
78885,-125,4,2,1,85,0,1
79247,-166.666666666667,4,2,1,85,0,1
79969,-83.3333333333333,4,2,1,85,0,1
80692,-166.666666666667,4,2,1,85,0,1
81054,-100,4,2,1,85,0,1
85301,-100,4,2,10,5,0,1
85391,-100,4,2,1,85,0,1
86837,-83.3333333333333,4,2,1,85,0,1
87108,-83.3333333333333,4,2,10,5,0,1
87198,-83.3333333333333,4,2,1,85,0,1
87469,-83.3333333333333,4,2,10,5,0,1
87560,-83.3333333333333,4,2,1,85,0,1
87831,-83.3333333333333,4,2,10,5,0,1
87921,-83.3333333333333,4,2,1,85,0,1
89728,-71.4285714285714,4,2,1,85,0,1
92620,-125,4,2,1,85,0,0
95331,-125,4,2,1,50,0,0
95512,-125,4,2,1,60,0,0
98403,-125,4,2,1,70,0,0
104186,-100,4,2,1,50,0,0
105632,-125,4,2,1,50,0,0
107078,-166.666666666667,4,2,1,50,0,0
108524,-125,4,2,1,50,0,0
108885,-100,4,2,1,50,0,0
109969,-83.3333333333333,4,2,1,40,0,0
112861,-166.666666666667,4,2,1,40,0,0
114126,-250.000000000001,4,2,1,40,0,0
115753,-166.666666666667,4,2,1,40,0,0
116475,-166.666666666667,4,2,1,50,0,0
117198,-125,4,2,1,60,0,0
117921,-100,4,2,1,70,0,0
118644,-71.4285714285714,4,2,1,80,0,0
119909,392.156862745098,4,2,1,60,1,0
120117,392.156862745098,4,2,1,60,1,0
120117,-62.5,4,2,1,60,0,0
120901,-62.5,4,2,10,5,0,0

[Colours]
Combo1 : 127,127,127
Combo2 : 157,149,255
Combo3 : 213,149,255
Combo4 : 149,255,250
Combo5 : 255,159,149
Combo6 : 202,202,202

[HitObjects]
39,296,1175,5,0,0:0:0:0:
39,296,1536,2,0,P|34:328|25:359,2,50.3999984619141,2|0|2,0:0|0:0|0:0,0:0:0:0:
261,176,2259,2,0,P|225:66|144:13,1,201.599993847656,2|2,0:0|0:0,0:0:0:0:
23,214,3343,6,0,P|47:220|78:199,1,50.3999984619141,2|2,0:0|0:0,0:0:0:0:
168,141,3705,2,0,P|146:128|110:141,1,50.3999984619141,2|2,0:0|0:0,0:0:0:0:
344,243,4066,1,2,0:0:0:0:
344,243,4428,2,0,P|375:273|443:269,2,100.799996923828,2|2|2,0:0|0:0|0:0,0:0:0:0:
373,38,5512,6,0,P|381:63|386:103,1,50.3999984619141,2|2,0:0|0:0,0:0:0:0:
475,95,5873,2,0,P|467:70|462:30,1,50.3999984619141,2|2,0:0|0:0,0:0:0:0:
289,24,6235,1,2,0:0:0:0:
27,185,6596,2,0,B|73:197|119:311|163:331,1,201.599993847656,2|2,0:0|0:0,0:0:0:0:
465,361,7681,54,0,P|468:334|475:308,1,50.3999984619141,2|2,0:0|0:0,0:0:0:0:
368,210,8042,2,0,P|368:235|372:260,1,50.3999984619141,2|2,0:0|0:0,0:0:0:0:
289,362,8403,2,0,P|278:338|271:314,1,50.3999984619141,2|2,0:0|0:0,0:0:0:0:
169,260,8765,2,0,P|120:293|78:277,2,100.799996923828,2|2|2,0:0|0:0|0:0,0:0:0:0:
71,23,9849,6,0,P|57:30|47:54,1,33.6,14|0,1:0|0:0,0:0:0:0:
65,124,10211,2,0,P|78:132|103:129,1,33.6,2|0,0:0|0:0,0:0:0:0:
156,79,10572,2,0,P|156:63|141:42,1,33.6,2|0,0:0|0:0,0:0:0:0:
71,23,10934,5,2,0:0:0:0:
43,235,11295,1,2,0:0:0:0:
255,263,11656,1,2,0:0:0:0:
283,51,12018,54,0,P|287:33|279:15,1,33.6,2|0,0:0|0:0,0:0:0:0:
331,121,12379,2,0,P|344:133|364:135,1,33.6,2|0,0:0|0:0,0:0:0:0:
245,126,12741,2,0,P|229:131|218:143,1,33.6,2|0,0:0|0:0,0:0:0:0:
117,228,13102,6,0,L|164:219,1,33.6,2|0,0:0|0:0,0:0:0:0:
258,234,13464,2,0,L|303:249,2,33.6,2|0|2,0:0|0:0|0:0,0:0:0:0:
98,344,14006,2,0,L|90:366,1,16.8,8|0,1:1|0:0,0:0:0:0:
10,361,14187,6,0,P|19:304|14:254,1,100.799996923828,12|2,1:0|1:2,0:0:0:0:
120,223,14729,2,0,P|116:194|108:170,1,50.3999984619141,0|2,0:0|1:2,0:0:0:0:
181,85,15090,1,0,0:0:0:0:
0,21,15271,1,10,0:1:0:0:
60,100,15452,54,0,B|81:52|226:76|246:10,1,201.599993847656,0|2,0:0|0:0,0:0:0:0:
248,31,16265,1,2,0:0:0:0:
248,31,16355,2,0,B|295:52|271:197|337:217,1,201.599993847656,2|10,1:2|0:1,0:0:0:0:
483,344,17440,6,0,P|496:312|476:237,1,100.799996923828,10|2,1:1|0:0,0:0:0:0:
312,125,18162,1,10,0:1:0:0:
161,274,18524,6,0,P|148:306|168:381,2,100.799996923828,12|2|2,1:0|1:2|1:2,0:0:0:0:
248,247,19428,1,2,0:0:0:0:
315,187,19608,2,0,B|312:124|196:80|189:8,1,201.599993847656,2|10,1:2|0:1,0:0:0:0:
136,101,20512,1,2,0:0:0:0:
345,52,20693,2,0,B|282:54|238:170|166:177,1,201.599993847656,10|0,1:1|0:0,0:0:0:0:
25,283,21777,2,0,B|87:275|148:382|220:379,1,201.599993847656,2|2,1:2|0:0,0:0:0:0:
480,275,22861,54,0,P|478:240|484:203,1,67.2,6|0,1:0|0:0,0:0:0:0:
331,128,23223,6,0,P|328:75|337:20,1,100.799996923828,2|0,1:2|0:0,0:0:0:0:
472,283,23584,6,0,P|470:248|476:211,1,67.2,2|0,1:2|0:0,0:0:0:0:
393,313,23946,54,0,P|373:283|360:248,1,67.2,2|0,1:2|0:0,0:0:0:0:
190,260,24308,6,0,P|161:216|141:163,1,100.799996923828,2|0,1:2|0:0,0:0:0:0:
390,323,24669,6,0,P|370:293|357:258,1,67.2,2|0,1:2|0:0,0:0:0:0:
273,181,25030,53,2,1:2:0:0:
50,114,25211,1,2,0:0:0:0:
50,114,25301,1,2,0:0:0:0:
50,114,25391,1,2,1:2:0:0:
165,27,25572,1,2,0:0:0:0:
304,60,25753,2,0,P|339:73|366:103,1,67.2,2|2,1:2|0:0,0:0:0:0:
448,143,26114,6,0,B|440:176|455:249|439:284,1,134.4,2|0,1:2|1:2,0:0:0:0:
439,358,27018,1,2,0:0:0:0:
353,344,27199,54,0,B|351:328|327:300|322:284,2,67.2,2|2|0,1:2|0:0|0:0,0:0:0:0:
353,344,28102,1,2,0:0:0:0:
280,374,28283,2,0,B|244:356|176:375|146:346,1,134.4,2|2,0:0|0:0,0:0:0:0:
29,116,29367,70,0,P|109:149|114:269,1,201.599993847656,2|2,0:0|0:0,0:0:0:0:
294,293,30452,2,0,P|327:213|447:208,1,201.599993847656,2|2,0:0|0:0,0:0:0:0:
490,26,31536,6,0,B|423:10|294:110|199:83,1,268.8,2|2,0:0|0:0,0:0:0:0:
26,34,32440,1,2,0:0:0:0:
65,108,32620,2,0,B|98:104|135:32|169:25,2,134.4,2|2|2,0:0|0:0|0:0,0:0:0:0:
274,166,33705,70,0,B|344:190|361:340|434:374,1,268.8,2|2,0:0|0:0,0:0:0:0:
504,298,34608,1,2,0:0:0:0:
460,191,34789,2,0,B|426:264|276:281|252:351,1,268.8,2|2,0:0|0:0,0:0:0:0:
59,373,35873,6,0,P|85:248|90:161,1,201.599993847656,2|2,0:0|0:0,0:0:0:0:
172,145,36777,1,2,0:0:0:0:
218,71,36958,70,0,B|208:58|108:54|87:26,1,134.4,2|2,0:0|0:0,0:0:0:0:
261,151,38042,2,0,B|254:166|301:254|287:286,1,134.4,2|2,0:0|0:0,0:0:0:0:
261,151,38946,1,2,0:0:0:0:
302,74,39126,6,0,B|314:72|354:8|380:5,2,100.799996923828,2|2|2,0:0|0:0|0:0,0:0:0:0:
46,155,40211,6,0,P|20:185|18:230,1,84,14|0,1:0|0:0,0:0:0:0:
202,351,40572,1,2,1:2:0:0:
202,351,40753,1,0,0:0:0:0:
122,222,40934,2,0,P|104:257|114:301,1,84,2|0,1:2|1:2,0:0:0:0:
272,278,41295,1,2,1:2:0:0:
272,278,41656,5,2,1:2:0:0:
256,155,41837,1,0,0:0:0:0:
368,202,42018,5,2,1:2:0:0:
159,230,42199,2,0,L|206:223,1,42,8|0,1:0|0:0,0:0:0:0:
375,353,42379,54,0,P|456:337|463:244,1,168,14|2,1:0|1:2,0:0:0:0:
379,223,42921,1,2,0:0:0:0:
335,41,43102,1,2,1:2:0:0:
488,18,43283,1,2,1:2:0:0:
470,133,43464,6,0,P|432:127|383:122,1,75.5999976928712,2|0,1:2|0:0,0:0:0:0:
321,159,43825,6,0,L|296:-3,1,151.199995385742,10|0,1:1|0:0,0:0:0:0:
219,22,44187,2,0,L|244:184,1,151.199995385742,10|0,1:0|0:0,0:0:0:0:
275,318,44548,54,0,L|287:234,2,84,14|0|2,1:0|0:0|1:2,0:0:0:0:
113,353,45090,1,2,0:0:0:0:
113,353,45181,1,0,0:0:0:0:
113,353,45271,2,0,P|87:340|66:338,1,42,2|0,1:2|0:0,0:0:0:0:
97,254,45452,2,0,P|123:267|144:269,1,42,2|0,1:2|0:0,0:0:0:0:
197,331,45632,5,2,1:2:0:0:
197,331,45994,2,0,P|236:325|266:294,1,84,2|0,1:2|0:0,0:0:0:0:
113,353,46355,1,2,1:2:0:0:
177,198,46536,2,0,P|188:182|188:160,1,42,8|0,1:0|0:0,0:0:0:0:
102,31,46717,6,0,B|118:50|118:50|125:135,1,84,14|2,1:0|0:0,0:0:0:0:
348,90,47078,2,0,B|332:71|332:71|325:-14,2,84,2|2|2,1:2|0:0|1:2,0:0:0:0:
447,34,47620,1,2,1:2:0:0:
489,166,47801,2,0,P|480:186|478:265,1,84,2|2,1:2|0:0,0:0:0:0:
265,300,48162,54,0,P|310:321|344:359,1,100.799996923828,10|2,1:1|0:0,0:0:0:0:
336,90,48524,2,0,P|294:118|246:129,1,100.799996923828,10|2,1:1|0:0,0:0:0:0:
96,228,48885,6,0,B|66:232|30:213|9:216,2,84,14|0|2,1:0|0:0|1:2,0:0:0:0:
53,130,49428,1,0,0:0:0:0:
53,130,49518,1,0,0:0:0:0:
53,130,49608,1,2,1:2:0:0:
57,317,49789,2,0,P|56:339|64:370,1,42,0|0,1:2|0:0,0:0:0:0:
139,365,49970,6,0,B|160:358|160:358|193:363|193:363|226:351,1,75.5999976928712,2|0,1:2|0:0,0:0:0:0:
222,348,50331,54,0,L|228:313,1,33.6,2|0,1:2|0:0,0:0:0:0:
179,202,50693,1,2,1:2:0:0:
308,364,50873,6,0,L|315:322,1,42,8|0,1:0|0:0,0:0:0:0:
248,138,51054,6,0,P|312:68|298:-1,1,168,14|2,1:0|1:2,0:0:0:0:
163,102,51596,1,2,0:0:0:0:
195,302,51777,1,2,1:2:0:0:
94,166,51958,1,2,1:2:0:0:
5,236,52138,54,0,P|43:237|81:251,1,75.5999976928712,2|0,1:2|0:0,0:0:0:0:
146,369,52500,6,0,P|148:293|176:217,1,151.199995385742,10|0,1:0|0:0,0:0:0:0:
256,157,52861,2,0,P|254:233|226:309,1,151.199995385742,10|0,1:0|0:0,0:0:0:0:
290,357,53223,6,0,B|315:340|343:354|374:335,2,84,14|0|2,1:0|0:0|1:2,0:0:0:0:
466,258,53765,1,2,0:0:0:0:
466,258,53855,1,2,0:0:0:0:
466,258,53946,2,0,B|481:257|489:269|507:269,1,42,2|2,1:2|0:0,0:0:0:0:
390,207,54126,2,0,B|382:220|367:221|359:237,1,42,2|2,1:2|0:0,0:0:0:0:
472,166,54307,1,2,1:2:0:0:
472,166,54668,54,0,B|455:140|469:113|450:82,1,84,2|0,1:2|0:0,0:0:0:0:
346,20,55030,1,2,1:2:0:0:
293,187,55211,2,0,B|279:179|278:164|262:156,1,42,8|0,1:0|0:0,0:0:0:0:
149,108,55391,6,0,B|191:112|191:112|243:77,1,84,14|2,1:0|0:0,0:0:0:0:
86,253,55753,2,0,B|44:249|44:249|-8:284,2,84,2|2|2,1:2|0:0|1:2,0:0:0:0:
24,157,56295,1,2,1:2:0:0:
185,274,56476,2,0,P|188:308|205:370,1,84,2|2,1:2|0:0,0:0:0:0:
370,82,56837,6,0,P|335:118|294:148,1,100.799996923828,10|2,1:0|0:0,0:0:0:0:
6,55,57199,2,0,P|55:68|101:88,1,100.799996923828,10|2,1:0|0:0,0:0:0:0:
185,274,57560,38,0,B|225:193|383:287|432:214,1,268.8,2|2,0:0|0:0,0:0:0:0:
301,153,58464,1,2,0:0:0:0:
387,143,58644,2,0,B|427:123|380:44|417:19,2,134.4,2|2|2,0:0|0:0|0:0,0:0:0:0:
216,40,59729,70,0,P|122:24|17:171,1,268.8,2|2,0:0|0:0,0:0:0:0:
180,123,60632,1,2,0:0:0:0:
250,173,60813,2,0,P|297:181|349:107,2,134.4,2|2|2,0:0|0:0|0:0,0:0:0:0:
34,352,61897,6,0,P|58:238|52:215,2,134.4,2|2|2,0:0|0:0|0:0,0:0:0:0:
243,378,62982,2,0,P|235:245|284:121,1,268.8,2|2,0:0|0:0,0:0:0:0:
480,41,64066,70,0,B|397:104|278:-18|220:47,1,268.8,2|2,0:0|0:0,0:0:0:0:
13,73,65150,2,0,B|109:113|63:277|148:295,1,268.8,2|2,0:0|0:0,0:0:0:0:
400,237,66235,70,0,B|411:269|345:285|350:327,1,100.799996923828,2|2,0:0|0:0,0:0:0:0:
298,112,66596,2,0,B|318:130|277:169|298:197,1,67.2,2|2,0:0|0:0,0:0:0:0:
160,28,66958,2,0,B|181:32|169:75|194:86,1,67.2,2|2,0:0|0:0,0:0:0:0:
409,115,67319,54,0,P|451:100|479:38,1,100.799996923828,2|2,0:0|0:0,0:0:0:0:
290,175,67681,2,0,P|283:211|316:257,1,84,2|2,0:0|0:0,0:0:0:0:
297,41,68042,2,0,P|274:21|229:26,1,67.2,2|2,0:0|0:0,0:0:0:0:
60,28,68403,22,0,P|45:52|28:109,1,84,2|0,1:2|0:0,0:0:0:0:
73,266,68765,2,0,P|68:299|79:370,1,100.799996923828,2|0,1:2|0:0,0:0:0:0:
318,349,69126,2,0,P|326:281|305:140,1,176.399994616699,10|0,0:1|0:0,0:0:0:0:
301,97,69488,6,0,B|294:87|294:87|303:40,1,50.3999984619141,12|0,1:0|0:0,0:0:0:0:
403,17,69668,1,0,0:0:0:0:
403,17,69759,1,0,0:0:0:0:
403,17,69849,1,2,1:2:0:0:
192,36,70030,1,0,0:0:0:0:
8,108,70210,70,0,B|46:107|87:162|145:160,1,134.399995898438,2|0,1:2|0:0,0:0:0:0:
208,146,70572,6,0,P|213:119|223:103,2,33.5999989746094,10|2|2,0:0|0:0|0:0,0:0:0:0:
315,185,70933,2,0,P|338:157|360:145,2,44.8,2|2|2,1:2|0:0|0:0,0:0:0:0:
377,309,71295,70,0,P|420:293|451:294,2,56,2|2|2,1:2|0:0|0:0,0:0:0:0:
153,366,71656,2,0,P|109:381|78:380,2,56,2|2|2,1:2|0:0|0:0,0:0:0:0:
178,137,72018,5,2,1:2:0:0:
149,182,72138,69,2,0:0:0:0:
182,266,72259,5,2,0:0:0:0:
264,296,72379,70,0,B|299:239|299:239|286:157,1,134.399995898438,14|0,1:0|0:0,0:0:0:0:
427,33,72741,2,0,B|360:31|360:31|295:83,1,134.399995898438,2|0,1:2|0:0,0:0:0:0:
118,24,73102,2,0,B|149:82|149:82|227:112,1,134.399995898438,2|0,1:2|0:0,0:0:0:0:
387,143,73463,1,10,0:0:0:0:
387,143,73825,5,2,1:2:0:0:
448,62,73945,2,0,L|447:17,2,44.8,2|2|2,0:0|0:0|1:2,0:0:0:0:
326,224,74307,2,0,L|327:269,1,44.8,2|2,0:0|0:0,0:0:0:0:
387,143,74548,1,2,1:2:0:0:
387,143,74909,70,0,L|344:131,1,33.6,2|0,1:2|0:0,0:0:0:0:
153,69,75090,2,0,L|185:59,1,33.6,8|0,0:0|0:0,0:0:0:0:
287,42,75271,6,0,P|272:77|265:142,1,89.6,12|0,1:0|0:0,0:0:0:0:
289,355,75632,69,2,1:2:0:0:
332,243,75753,5,2,0:0:0:0:
220,200,75873,69,2,0:0:0:0:
137,229,75994,6,0,P|189:221|242:232,1,89.6,0|2,1:2|0:0,0:0:0:0:
448,266,76355,2,0,P|383:276|316:262,1,112,10|2,0:0|0:0,0:0:0:0:
148,50,76716,2,0,P|245:88|327:160,1,201.599993847656,2|2,1:2|1:2,0:0:0:0:
318,150,77318,69,2,0:0:0:0:
423,132,77439,5,2,1:2:0:0:
471,228,77559,69,2,0:0:0:0:
395,303,77680,5,2,0:0:0:0:
299,255,77801,70,0,P|284:276|272:301,1,50.3999984619141,2|0,1:2|0:0,0:0:0:0:
110,208,77981,2,0,P|124:185|135:160,1,50.3999984619141,8|0,0:0|0:0,0:0:0:0:
229,173,78162,6,0,B|209:197|209:197|194:271|194:271|169:308,1,134.399995898438,14|0,1:0|0:0,0:0:0:0:
37,357,78524,2,0,B|31:342|31:342|3:317|3:317|-6:297,2,56,2|0|0,1:2|0:0|0:0,0:0:0:0:
92,267,78885,2,0,B|94:254|94:254|84:226|84:226|85:208,2,44.8,2|0|0,1:2|0:0|0:0,0:0:0:0:
48,104,79247,70,0,B|68:56|68:56|55:5,1,100.799996923828,10|2,0:0|1:2,0:0:0:0:
194,72,79789,1,2,0:0:0:0:
418,20,79969,6,0,B|370:0|319:13,1,100.799996923828,8|2,0:0|0:0,0:0:0:0:
309,214,80331,2,0,B|357:234|408:221,1,100.799996923828,0|2,1:2|0:0,0:0:0:0:
388,122,80692,70,0,B|364:112|364:112|338:118,1,50.3999984619141,10|2,0:0|0:0,0:0:0:0:
277,305,81054,6,0,B|307:329|400:336|426:385,1,168,14|0,1:0|1:2,0:0:0:0:
462,283,81596,1,0,0:0:0:0:
309,214,81777,2,0,B|279:190|186:183|162:137,2,168,0|10|0,1:2|0:0|1:2,0:0:0:0:
251,93,82680,2,0,P|232:55|230:3,2,84,2|2|0,0:0|1:2|0:0,0:0:0:0:
113,33,83222,2,0,P|89:68|45:96,1,84,0|2,1:2|0:0,0:0:0:0:
166,142,83584,1,0,1:2:0:0:
197,377,83765,1,8,0:0:0:0:
327,315,83945,70,0,B|281:257|51:256|51:256|4:184,1,336,14|0,1:0|1:2,0:0:0:0:
83,37,84849,1,0,0:0:0:0:
83,37,84939,1,0,0:0:0:0:
83,37,85030,2,0,B|110:46|110:46|90:104|118:180,1,126,10|0,0:0|0:0,0:0:0:0:
177,176,85391,6,0,P|196:146|257:135,1,84,2|2,1:2|0:0,0:0:0:0:
454,107,85753,2,0,P|415:166|292:188,1,168,2|2,1:2|1:2,0:0:0:0:
251,113,86295,1,2,0:0:0:0:
315,212,86475,1,2,1:2:0:0:
348,51,86656,2,0,L|359:-1,1,42,10|0,0:0|0:0,0:0:0:0:
123,16,86837,70,0,B|117:40|117:40|160:177,1,151.199995385742,14|0,1:0|0:0,0:0:0:0:
313,237,87198,2,0,B|295:219|295:219|155:188,1,151.199995385742,2|0,1:2|0:0,0:0:0:0:
26,291,87560,2,0,B|49:284|49:284|135:191,1,151.199995385742,2|0,1:2|0:0,0:0:0:0:
227,121,87921,2,0,L|231:66,1,50.3999984619141,10|0,0:0|0:0,0:0:0:0:
44,98,88102,2,0,L|68:147,1,50.3999984619141,2|0,0:0|0:0,0:0:0:0:
139,96,88283,5,2,1:2:0:0:
183,288,88463,2,0,P|180:310|147:341,1,50.3999984619141
87,340,88644,1,2,1:2:0:0:
289,242,88825,2,0,P|309:233|353:245,2,50.3999984619141,0|0|2,0:0|0:0|1:2,0:0:0:0:
197,173,89186,2,0,P|161:146|139:58,1,100.799996923828,0|2,0:0|1:2,0:0:0:0:
361,72,89548,2,0,B|351:56|351:56|352:12,1,50.3999984619141,10|0,0:0|0:0,0:0:0:0:
441,49,89728,70,0,B|423:71|319:14|261:27,1,176.399994616699,14|2,1:0|0:0,0:0:0:0:
54,242,90271,2,0,P|68:234|76:183,1,58.7999982055665,2|0,0:0|0:0,0:0:0:0:
104,27,90451,2,0,P|76:43|60:145,1,117.599996411133,2|2,1:2|0:0,0:0:0:0:
150,317,90813,2,0,B|166:345|166:345|268:361,1,117.599996411133,10|2,0:0|0:0,0:0:0:0:
487,136,91174,6,0,P|467:134|420:155,1,58.7999982055665,2|0,1:2|0:0,0:0:0:0:
219,271,91355,2,0,P|239:273|286:252,1,58.7999982055665,2|0,0:0|0:0,0:0:0:0:
355,93,91536,1,10,0:0:0:0:
351,314,91716,1,2,0:0:0:0:
353,202,91897,1,2,1:2:0:0:
365,83,92078,70,0,B|371:29|371:29|356:21,1,58.7999982055665,10|0,0:0|0:0,0:0:0:0:
341,324,92259,2,0,B|335:378|335:378|350:386,1,58.7999982055665,10|0,0:0|0:0,0:0:0:0:
254,132,92439,2,0,B|210:100|210:100|196:109,1,58.7999982055665,2|0,0:0|0:0,0:0:0:0:
451,274,92620,21,14,1:0:0:0:
256,192,92801,12,0,95150,0:0:0:0:
61,110,95331,69,10,0:1:0:0:
61,110,95421,1,10,0:1:0:0:
61,110,95512,1,14,1:0:0:0:
256,192,95692,12,0,97680,0:0:0:0:
61,274,98042,5,8,0:1:0:0:
451,110,98403,5,14,1:0:0:0:
321,264,98765,2,0,B|239:145|115:230|38:75,1,336,0|2,1:2|0:0,0:0:0:0:
54,98,99759,1,2,0:0:0:0:
54,98,99849,2,0,B|133:51|204:61|228:200|406:202|449:43|380:-1|304:4|299:45,1,470.4,2|10,1:2|0:1,0:0:0:0:
308,47,101204,1,2,0:0:0:0:
308,47,101295,2,0,B|315:236|185:348|4:305,1,470.4,14|2,1:0|0:0,0:0:0:0:
17,314,102650,1,2,0:0:0:0:
17,314,102741,2,0,B|74:251|309:241|232:349|407:364,1,403.2,10|0,1:1|1:2,0:0:0:0:
512,295,104006,1,0,0:0:0:0:
486,189,104186,70,0,P|447:169|396:176,2,84,2|0|0,0:0|0:0|0:0,0:0:0:0:
422,279,104728,1,2,0:0:0:0:
252,351,104909,70,0,P|291:371|342:364,2,84,2|0|0,0:0|0:0|0:0,0:0:0:0:
316,261,105451,1,2,0:0:0:0:
227,117,105632,6,0,P|233:150|232:183,2,67.2,2|0|0,0:0|0:0|0:0,0:0:0:0:
172,38,106174,1,2,0:0:0:0:
82,84,106355,2,0,P|75:50|76:17,2,67.2,2|0|0,0:0|0:0|0:0,0:0:0:0:
144,170,106897,69,2,0:0:0:0:
144,170,106987,1,2,0:0:0:0:
144,170,107078,2,0,L|133:234,2,50.3999984619141,2|0|0,0:0|0:0|0:0,0:0:0:0:
52,169,107620,1,2,0:0:0:0:
52,169,107801,2,0,L|-1:206,2,50.3999984619141,2|0|0,0:0|0:0|0:0,0:0:0:0:
172,82,108343,5,2,0:0:0:0:
172,81,108524,2,0,L|242:32,1,67.2,2|0,0:0|0:0,0:0:0:0:
343,113,108885,2,0,L|450:103,1,84,2|0,0:0|0:0,0:0:0:0:
477,167,109156,1,0,0:0:0:0:
484,186,109247,1,2,0:0:0:0:
480,210,109337,1,0,0:0:0:0:
463,234,109427,1,0,0:0:0:0:
431,245,109518,1,0,0:0:0:0:
394,236,109608,69,2,0:0:0:0:
353,245,109698,1,0,0:0:0:0:
323,280,109789,1,0,0:0:0:0:
319,330,109879,1,0,0:0:0:0:
347,375,109969,6,0,B|471:322|447:163|335:111|243:163|197:173|143:128|124:59|161:0|226:0|270:25|266:64,1,604.799981542969,2|0,0:0|0:0,0:0:0:0:
38,177,111234,1,2,0:0:0:0:
38,177,111325,1,2,0:0:0:0:
38,177,111415,2,0,B|55:63|196:67|323:232|486:221|541:139|532:-8|465:-36|380:-24|347:8|365:62,1,705.599978466798,2|0,0:0|0:0,0:0:0:0:
293,247,112861,70,0,P|146:282|23:368,1,302.399990771485,2|0,0:0|0:0,0:0:0:0:
80,214,114126,5,2,0:0:0:0:
80,214,114216,1,2,0:0:0:0:
80,214,114307,2,0,P|62:141|19:80,1,134.4,2|0,0:0|0:0,0:0:0:0:
382,26,115753,70,0,P|408:134|472:226,1,201.599993847656,2|2,0:0|0:0,0:0:0:0:
164,358,117017,5,2,0:0:0:0:
164,358,117108,1,2,0:0:0:0:
164,358,117198,2,0,B|196:302|159:210|189:154,1,201.6,2|2,0:0|0:0,0:0:0:0:
348,26,117921,70,0,B|300:26|287:122|421:143|408:243|348:234,1,252,2|2,0:0|0:0,0:0:0:0:
368,241,118554,1,0,0:0:0:0:
368,241,118644,6,0,B|274:249|156:132|449:-85|-164:-85|-161:279|8:376|128:364|170:220,1,823.19997487793,6|2,0:1|0:0,0:0:0:0:
177,230,120007,1,2,0:0:0:0:
177,230,120117,70,0,B|82:179|144:18|308:114|461:191|532:78|453:0,1,537.6,2|0,0:0|0:0,0:0:0:0:
