osu file format v14

[General]
AudioFilename: Mili - Vulnerability.mp3
AudioLeadIn: 0
PreviewTime: 66174
Countdown: 0
SampleSet: Soft
StackLeniency: 0.7
Mode: 0
LetterboxInBreaks: 0
WidescreenStoryboard: 1

[Editor]
Bookmarks: 5512,9849,14187,18524,22861,27199,31536,40211,44548,48885,53223,57560,66235,67319,68403,69488,81054,92620,98403,104186,109969
DistanceSpacing: 1
BeatDivisor: 2
GridSize: 32
TimelineZoom: 2.4

[Metadata]
Title:Vulnerability
TitleUnicode:Vulnerability
Artist:Mili
ArtistUnicode:Mili
Creator:frozz
Version:Easy
Source:
Tags:featured artist fa miracle milk 06 mpg mappers' guild electronic instrumental -keqing Kiyoshi Guarden Nymphe kang-sae byeok Hinsvar
BeatmapID:4000451
BeatmapSetID:1919394

[Difficulty]
HPDrainRate:2
CircleSize:3
OverallDifficulty:3
ApproachRate:4
SliderMultiplier:1
SliderTickRate:1

[Events]
//Background and Video events
0,0,"Mili - Vulnerability.jpg",0,0
//Break Periods
//Storyboard Layer 0 (Background)
//Storyboard Layer 1 (Fail)
//Storyboard Layer 2 (Pass)
//Storyboard Layer 3 (Foreground)
//Storyboard Layer 4 (Overlay)
//Storyboard Sound Samples

[TimingPoints]
1175,361.44578313253,3,2,1,50,1,0
9849,-100,3,2,1,40,0,0
14187,-100,3,2,1,55,0,0
22861,-100,3,2,1,65,0,0
27199,-100,3,2,1,40,0,0
40211,-100,3,2,1,70,0,0
57560,-100,3,2,1,40,0,0
66235,-100,3,2,1,70,0,0
67319,-100,3,2,1,60,0,0
68403,-100,3,2,1,50,0,0
68765,-100,3,2,1,60,0,0
69126,-100,3,2,1,70,0,0
69488,361.44578313253,4,2,1,85,1,0
95331,-100,4,2,1,50,0,0
95512,-100,4,2,1,60,0,0
98403,-100,4,2,1,70,0,0
104186,-100,4,2,1,50,0,0
109969,-100,4,2,1,40,0,0
116475,-100,4,2,1,50,0,0
117198,-100,4,2,1,60,0,0
117920,-100,4,2,1,70,0,0
118644,-100,4,2,1,80,0,0
119909,392.156862745098,4,2,1,60,1,0
120117,392.156862745098,4,2,1,60,1,0
120901,-100,4,2,10,5,0,0

[Colours]
Combo1 : 127,127,127
Combo2 : 157,149,255
Combo3 : 213,149,255
Combo4 : 149,255,250
Combo5 : 255,159,149
Combo6 : 202,202,202

[HitObjects]
512,192,1175,5,0,0:0:0:0:
436,126,1536,2,0,P|383:119|329:102,1,100,2|2,0:0|0:0,0:0:0:0:
242,78,2259,2,0,B|215:144|256:185|261:160|301:206|288:265,1,200,2|2,0:0|0:0,0:0:0:0:
226,338,3343,5,2,0:0:0:0:
126,351,3705,2,0,P|71:330|48:274,1,100,2|2,0:0|0:0,0:0:0:0:
109,215,4428,2,0,L|213:201,2,100,2|2|2,0:0|0:0|0:0,0:0:0:0:
24,161,5512,6,0,P|42:92|51:39,1,100,2|2,0:0|0:0,0:0:0:0:
140,26,6235,1,2,0:0:0:0:
228,73,6596,2,0,P|332:58|448:34,1,200,2|2,0:0|0:0,0:0:0:0:
504,101,7681,1,2,0:0:0:0:
489,199,8042,1,2,0:0:0:0:
475,297,8403,1,2,0:0:0:0:
376,279,8765,2,0,L|260:261,2,100,2|2|2,0:0|0:0|0:0,0:0:0:0:
475,297,9849,54,0,L|493:181,1,100,14|2,1:0|0:0,0:0:0:0:
504,101,10572,2,0,L|388:83,1,100,2|2,0:0|0:0,0:0:0:0:
308,72,11295,1,2,0:0:0:0:
292,170,11656,1,2,0:0:0:0:
193,155,12018,6,0,L|77:137,2,100,2|2|2,0:0|0:0|0:0,0:0:0:0:
292,170,13102,1,2,0:0:0:0:
276,268,13464,1,2,0:0:0:0:
375,355,14006,2,0,L|436:342,1,50,8|12,1:1|1:0,0:0:0:0:
479,261,14548,6,0,P|483:203|493:148,1,100,2|2,1:2|1:2,0:0:0:0:
507,63,15271,2,0,B|441:36|400:77|425:82|379:122|320:109,1,200,10|0,0:1|0:0,0:0:0:0:
232,149,16355,2,0,P|225:91|248:41,2,100,2|2|10,1:2|0:0|0:1,0:0:0:0:
313,207,17440,1,10,1:1:0:0:
263,294,17801,2,0,P|186:313|149:326,1,100,2|10,0:0|0:1,0:0:0:0:
87,381,18524,54,0,P|66:326|79:272,1,100,12|2,1:0|1:2,0:0:0:0:
148,221,19247,1,2,1:2:0:0:
62,170,19608,2,0,B|57:117|43:72|43:72|98:64|139:45,1,200,2|10,1:2|0:1,0:0:0:0:
224,96,20693,2,0,B|229:149|243:194|243:194|187:201|146:220,1,200,10|0,1:1|0:0,0:0:0:0:
72,286,21777,2,0,P|173:277|245:379,1,200,2|2,1:2|0:0,0:0:0:0:
333,370,22861,5,6,1:0:0:0:
349,271,23223,2,0,L|365:172,1,100,2|2,1:2|1:2,0:0:0:0:
376,72,23946,1,2,1:2:0:0:
277,56,24308,2,0,L|178:39,1,100,2|2,1:2|1:2,0:0:0:0:
84,5,25030,6,0,P|81:70|112:121,1,100,2|2,1:2|1:2,0:0:0:0:
184,147,25753,1,2,1:2:0:0:
119,223,26114,2,0,P|55:214|10:208,2,100,2|0|0,1:2|1:2|1:2,0:0:0:0:
211,262,27199,38,0,P|263:244|294:190,1,100,2|2,1:2|0:0,0:0:0:0:
361,22,28283,2,0,P|461:59|465:159,1,200,2|2,0:0|0:0,0:0:0:0:
419,226,29367,2,0,P|333:239|201:262,1,200,2|2,0:0|0:0,0:0:0:0:
176,347,30452,2,0,P|124:304|122:244,2,100,2|2|2,0:0|0:0|0:0,0:0:0:0:
275,339,31536,69,2,0:0:0:0:
470,297,32259,1,2,0:0:0:0:
506,203,32620,1,2,0:0:0:0:
440,127,32982,2,0,P|353:139|309:147,1,100,2|2,0:0|0:0,0:0:0:0:
297,231,33705,5,2,0:0:0:0:
97,223,34428,1,2,0:0:0:0:
51,134,34789,2,0,P|93:39|195:49,1,200,2|2,0:0|0:0,0:0:0:0:
276,54,35873,69,2,0:0:0:0:
357,236,36596,1,2,0:0:0:0:
375,334,36958,2,0,P|293:327|256:210,1,200,2|2,0:0|0:0,0:0:0:0:
313,150,38042,1,2,0:0:0:0:
165,14,38765,1,2,0:0:0:0:
90,80,39126,2,0,P|41:75|-5:44,2,100,2|2|2,0:0|0:0|0:0,0:0:0:0:
146,163,40211,22,0,P|133:235|126:292,1,100,14|2,1:0|1:2,0:0:0:0:
105,358,40934,1,2,1:2:0:0:
203,376,41295,1,2,1:2:0:0:
275,307,41656,2,0,L|391:322,1,100,2|2,1:2|1:2,0:0:0:0:
453,380,42379,6,0,P|474:329|462:271,1,100,14|2,1:0|1:2,0:0:0:0:
397,215,43102,2,0,P|392:165|412:120,1,100,2|2,1:2|1:2,0:0:0:0:
472,40,43825,1,10,1:1:0:0:
373,24,44187,1,10,1:0:0:0:
274,13,44548,6,0,P|291:94|299:148,1,100,14|2,1:0|1:2,0:0:0:0:
220,178,45271,2,0,P|141:152|90:132,1,100,2|2,1:2|1:2,0:0:0:0:
29,116,45994,1,2,1:2:0:0:
46,214,46355,1,2,1:2:0:0:
63,312,46717,54,0,P|152:326|177:336,1,100,14|2,1:0|1:2,0:0:0:0:
226,253,47440,2,0,P|212:204|208:155,1,100,2|2,1:2|1:2,0:0:0:0:
277,82,48162,1,10,1:1:0:0:
375,97,48524,1,10,1:1:0:0:
473,112,48885,6,0,P|495:161|478:217,1,100,14|2,1:0|1:2,0:0:0:0:
408,268,49608,1,2,1:2:0:0:
308,258,49970,1,2,1:2:0:0:
234,325,50331,2,0,L|120:312,1,100,2|2,1:2|1:2,0:0:0:0:
60,381,51054,6,0,P|33:325|53:266,1,100,14|2,1:0|1:2,0:0:0:0:
108,217,51777,2,0,P|111:167|86:125,1,100,2|2,1:2|1:2,0:0:0:0:
46,33,52500,1,10,1:0:0:0:
145,23,52861,1,10,1:0:0:0:
244,13,53223,54,0,P|303:28|369:37,1,100,14|2,1:0|1:2,0:0:0:0:
396,118,53946,2,0,P|352:161|312:214,1,100,2|2,1:2|1:2,0:0:0:0:
264,268,54668,1,2,1:2:0:0:
333,339,55030,1,2,1:2:0:0:
432,330,55391,6,0,P|458:267|474:229,1,100,14|2,1:0|1:2,0:0:0:0:
420,153,56114,2,0,P|373:172|327:191,1,100,2|2,1:2|1:2,0:0:0:0:
237,147,56837,1,10,1:0:0:0:
248,47,57199,1,10,1:0:0:0:
149,33,57560,53,2,0:0:0:0:
117,230,58283,1,2,0:0:0:0:
76,321,58644,2,0,P|32:288|26:222,2,100,2|2|2,0:0|0:0|0:0,0:0:0:0:
159,377,59729,69,2,0:0:0:0:
357,353,60452,1,2,0:0:0:0:
416,272,60813,2,0,P|491:296|528:302,2,100,2|2|2,0:0|0:0|0:0,0:0:0:0:
356,191,61897,6,0,P|370:115|376:79,1,100,2|2,0:0|0:0,0:0:0:0:
296,29,62620,1,2,0:0:0:0:
196,42,62982,2,0,P|168:188|157:258,1,200,2|2,0:0|0:0,0:0:0:0:
85,305,64066,2,0,P|19:290|15:164,1,200,2|2,0:0|0:0,0:0:0:0:
89,119,65150,2,0,B|155:92|196:133|171:138|217:178|276:165,1,200,2|2,0:0|0:0,0:0:0:0:
361,120,66235,54,0,P|388:72|388:18,2,100,2|2|2,0:0|0:0|0:0,0:0:0:0:
391,215,67319,2,0,P|438:186|465:140,2,100,2|2|2,0:0|0:0|0:0,0:0:0:0:
412,312,68403,1,2,1:2:0:0:
312,321,68765,1,2,1:2:0:0:
212,331,69126,1,10,0:1:0:0:
102,342,69488,6,0,P|43:314|35:254,1,100,12|2,1:0|1:2,0:0:0:0:
88,202,70210,1,2,1:2:0:0:
21,126,70572,2,0,P|95:105|140:89,1,100,10|2,0:0|1:2,0:0:0:0:
213,69,71295,2,0,P|234:143|250:188,1,100,2|2,1:2|1:2,0:0:0:0:
339,142,72018,2,0,P|413:121|458:105,1,100,2|14,1:2|1:0,0:0:0:0:
503,186,72741,69,2,1:2:0:0:
483,284,73102,1,2,1:2:0:0:
402,342,73463,2,0,P|350:327|312:269,1,100,10|2,0:0|1:2,0:0:0:0:
299,195,74186,2,0,P|312:136|322:78,1,100,2|2,1:2|1:2,0:0:0:0:
236,40,74909,1,2,1:2:0:0:
155,100,75271,5,12,1:0:0:0:
66,54,75632,2,0,P|50:118|78:175,1,100,2|0,1:2|1:2,0:0:0:0:
143,202,76355,1,10,0:0:0:0:
82,281,76716,2,0,P|107:351|120:394,1,100,2|2,1:2|1:2,0:0:0:0:
207,338,77439,2,0,P|277:363|320:376,1,100,2|2,1:2|1:2,0:0:0:0:
388,321,78162,69,14,1:0:0:0:
344,230,78524,2,0,P|328:165|320:109,1,100,2|2,1:2|1:2,0:0:0:0:
270,47,79247,2,0,P|338:34|387:55,1,100,10|2,0:0|1:2,0:0:0:0:
462,17,79969,1,8,0:0:0:0:
470,116,80331,2,0,P|485:183|497:231,1,100,0|10,1:2|0:0,0:0:0:0:
397,246,81054,6,0,P|330:261|282:273,2,100,14|0|0,1:0|1:2|1:2,0:0:0:0:
417,344,82138,2,0,P|350:359|302:371,1,100,10|0,0:0|1:2,0:0:0:0:
222,342,82861,2,0,P|192:288|201:239,1,100,2|0,1:2|1:2,0:0:0:0:
261,176,83584,1,0,1:2:0:0:
179,118,83945,70,0,P|91:149|58:162,2,100,14|0|0,1:0|1:2|1:2,0:0:0:0:
234,34,85030,1,10,0:0:0:0:
316,90,85391,1,2,1:2:0:0:
261,176,85753,2,0,P|280:248|297:296,1,100,2|2,1:2|1:2,0:0:0:0:
235,356,86475,1,2,1:2:0:0:
135,348,86837,6,0,P|64:359|16:388,2,100,14|2|2,1:0|1:2|1:2,0:0:0:0:
172,255,87921,1,10,0:0:0:0:
78,217,88283,1,2,1:2:0:0:
113,123,88644,2,0,P|185:99|225:83,1,100,2|2,1:2|1:2,0:0:0:0:
278,20,89367,1,2,1:2:0:0:
355,82,89728,70,0,P|339:154|333:203,2,100,14|10|2,1:0|0:0|1:2,0:0:0:0:
431,16,90813,1,10,0:0:0:0:
481,102,91174,2,0,P|465:174|459:223,1,100,2|10,1:2|0:0,0:0:0:0:
386,266,91897,1,2,1:2:0:0:
288,288,92259,1,10,0:0:0:0:
190,310,92620,1,14,1:0:0:0:
256,192,92801,12,14,95512,1:0:0:0:
0,288,98042,21,8,0:1:0:0:
88,333,98403,2,0,P|157:312|169:252,1,100,14|0,1:0|1:2,0:0:0:0:
247,229,99126,2,0,P|239:169|233:122,1,100,0|0,1:2|1:2,0:0:0:0:
310,65,99849,2,0,P|379:86|391:146,2,100,2|0|0,1:2|1:2|1:2,0:0:0:0:
155,192,101295,6,0,P|163:252|169:299,1,100,14|0,1:0|1:2,0:0:0:0:
261,328,102018,2,0,P|321:320|368:314,1,100,0|0,1:2|1:2,0:0:0:0:
435,249,102741,2,0,P|459:304|452:358,2,100,10|0|0,1:1|1:2|1:2,0:0:0:0:
342,210,103825,1,0,1:2:0:0:
370,114,104186,70,0,B|304:87|263:128|288:133|242:173|183:160,1,200,2|2,0:0|0:0,0:0:0:0:
140,355,105632,2,0,B|206:382|247:341|222:336|268:296|327:309,1,200,2|2,0:0|0:0,0:0:0:0:
470,173,107078,1,2,0:0:0:0:
335,25,107801,1,2,0:0:0:0:
187,160,108524,70,0,P|208:215|221:272,1,100,2|2,0:0|0:0,0:0:0:0:
307,300,109247,2,0,P|362:279|419:266,1,100,2|2,0:0|0:0,0:0:0:0:
462,348,109969,6,0,B|511:317|525:238|476:170|413:160|413:160|321:187,1,300,2|0,0:0|0:0,0:0:0:0:
264,206,111415,2,0,B|210:221|210:221|147:211|98:143|112:64|161:33,1,300,2|0,0:0|0:0,0:0:0:0:
260,14,112861,69,2,0:0:0:0:
260,14,114307,2,0,P|235:143|204:329,1,300,2|0,0:0|0:0,0:0:0:0:
281,376,115753,6,0,P|355:358|404:352,1,100,2|0,0:0|0:0,0:0:0:0:
460,297,116475,2,0,P|442:222|436:173,1,100,2|2,0:0|0:0,0:0:0:0:
343,169,117198,2,0,P|268:186|219:192,1,100,2|0,0:0|0:0,0:0:0:0:
148,166,117921,2,0,P|130:91|124:42,1,100,2|0,0:0|0:0,0:0:0:0:
206,6,118644,1,6,0:1:0:0:
256,192,118825,12,0,120901,0:0:0:0:
