osu file format v14

[General]
AudioFilename: Mili - Vulnerability.mp3
AudioLeadIn: 0
PreviewTime: 66174
Countdown: 0
SampleSet: Soft
StackLeniency: 0.7
Mode: 0
LetterboxInBreaks: 0
WidescreenStoryboard: 0

[Editor]
Bookmarks: 5512,9849,14187,18524,22861,27199,31536,40211,44548,48885,53223,57560,66235,67319,68403,69488,81054,92620,98403,104186,109969
DistanceSpacing: 1
BeatDivisor: 4
GridSize: 32
TimelineZoom: 2.4

[Metadata]
Title:Vulnerability
TitleUnicode:Vulnerability
Artist:Mili
ArtistUnicode:Mili
Creator:frozz
Version:EX
Source:
Tags:featured artist fa miracle milk 06 mpg mappers' guild electronic instrumental -keqing Kiyoshi Guarden Nymphe kang-sae byeok Hinsvar
BeatmapID:3961059
BeatmapSetID:1919394

[Difficulty]
HPDrainRate:6
CircleSize:4.2
OverallDifficulty:9
ApproachRate:9.4
SliderMultiplier:2.22
SliderTickRate:1

[Events]
//Background and Video events
0,0,"Mili - Vulnerability.jpg",0,0
//Break Periods
//Storyboard Layer 0 (Background)
//Storyboard Layer 1 (Fail)
//Storyboard Layer 2 (Pass)
//Storyboard Layer 3 (Foreground)
//Storyboard Layer 4 (Overlay)
//Storyboard Sound Samples

[TimingPoints]
1175,361.44578313253,3,2,1,50,1,0
1175,-83.3333333333333,3,2,1,50,0,0
1265,-83.3333333333333,3,2,10,5,0,0
1536,-125,3,2,1,50,0,0
2168,-125,3,2,10,5,0,0
2259,-125,3,2,1,50,0,0
2891,-125,3,2,10,5,0,0
2982,-83.3333333333333,3,2,1,50,0,0
3072,-83.3333333333333,3,2,10,5,0,0
3343,-83.3333333333333,3,2,1,50,0,0
4428,-100,3,2,1,50,0,0
4699,-100,3,2,10,5,0,0
4789,-83.3333333333333,3,2,1,50,0,0
4879,-83.3333333333333,3,2,10,5,0,0
5150,-83.3333333333333,3,2,1,50,0,0
5241,-83.3333333333333,3,2,10,5,0,0
5512,-250.000000000001,3,2,1,50,0,0
7229,-250.000000000001,3,2,10,5,0,0
7319,-125,3,2,1,50,0,0
7409,-125,3,2,10,5,0,0
7681,-125,3,2,1,50,0,0
9036,-125,3,2,10,5,0,0
9126,-125,3,2,1,50,0,0
9397,-125,3,2,10,5,0,0
9488,-125,3,2,1,50,0,0
9578,-125,3,2,10,5,0,0
9849,-500,3,2,1,40,0,0
9940,-500,3,2,10,5,0,0
10030,-500,3,2,1,40,0,0
10120,-500,3,2,10,5,0,0
10211,-200,3,2,1,40,0,0
10301,-200,3,2,10,5,0,0
10391,-200,3,2,1,40,0,0
10482,-200,3,2,10,5,0,0
10572,-125,3,2,1,40,0,0
10662,-125,3,2,10,5,0,0
10753,-125,3,2,1,40,0,0
10843,-125,3,2,10,5,0,0
10934,-90.9090909090909,3,2,1,40,0,0
11024,-90.9090909090909,3,2,10,5,0,0
11114,-90.9090909090909,3,2,1,40,0,0
11205,-90.9090909090909,3,2,10,5,0,0
11295,-71.4285714285714,3,2,1,40,0,0
11385,-71.4285714285714,3,2,10,5,0,0
11476,-71.4285714285714,3,2,1,40,0,0
11566,-71.4285714285714,3,2,10,5,0,0
11656,-90.9090909090909,3,2,1,40,0,0
11747,-90.9090909090909,3,2,10,5,0,0
11837,-90.9090909090909,3,2,1,40,0,0
12108,-90.9090909090909,3,2,10,5,0,0
12199,-90.9090909090909,3,2,1,40,0,0
12289,-90.9090909090909,3,2,10,5,0,0
12379,-71.4285714285714,3,2,1,40,0,0
12470,-71.4285714285714,3,2,10,5,0,0
12560,-71.4285714285714,3,2,1,40,0,0
12650,-71.4285714285714,3,2,10,5,0,0
12741,-58.8235294117647,3,2,1,40,0,0
12831,-58.8235294117647,3,2,10,5,0,0
12921,-58.8235294117647,3,2,1,40,0,0
13012,-58.8235294117647,3,2,10,5,0,0
13102,-50,3,2,1,40,0,0
13193,-50,3,2,10,5,0,0
13283,-50,3,2,1,40,0,0
13373,-50,3,2,10,5,0,0
13464,-43.4782608695652,3,2,1,40,0,0
13554,-43.4782608695652,3,2,10,5,0,0
13644,-43.4782608695652,3,2,1,40,0,0
13735,-43.4782608695652,3,2,10,5,0,0
13825,-111.111111111111,3,2,1,40,0,0
13915,-111.111111111111,3,2,10,5,0,0
14006,-76.9230769230769,3,2,1,40,0,0
14141,-76.9230769230769,3,2,10,5,0,0
14187,-71.4285714285714,3,2,1,55,0,0
14458,-71.4285714285714,3,2,10,5,0,0
14548,-71.4285714285714,3,2,1,55,0,0
15271,-83.3333333333333,3,2,1,55,0,0
15994,-83.3333333333333,3,2,10,5,0,0
16174,-83.3333333333333,3,2,1,55,0,0
16355,-111.111111111111,3,2,1,55,0,0
16626,-111.111111111111,3,2,10,5,0,0
16717,-90.9090909090909,3,2,1,55,0,0
16988,-90.9090909090909,3,2,10,5,0,0
17078,-90.9090909090909,3,2,1,55,0,0
17349,-90.9090909090909,3,2,10,5,0,0
17440,-90.909090909091,3,2,1,55,0,0
17711,-90.909090909091,3,2,10,5,0,0
17801,-90.909090909091,3,2,1,55,0,0
18072,-90.909090909091,3,2,10,5,0,0
18162,-50,3,2,1,55,0,0
18434,-50,3,2,10,5,0,0
18524,-58.8235294117647,3,2,1,55,0,0
18795,-58.8235294117647,3,2,10,5,0,0
18885,-166.666666666667,3,2,1,55,0,0
19156,-166.666666666667,3,2,10,5,0,0
19247,-166.666666666667,3,2,1,55,0,0
19608,-125,3,2,1,55,0,0
20241,-125,3,2,10,5,0,0
20331,-90.9090909090909,3,2,1,55,0,0
20693,-95.2380952380952,3,2,1,55,0,0
21325,-95.2380952380952,3,2,10,5,0,0
21415,-166.666666666667,3,2,1,55,0,0
21687,-166.666666666667,3,2,10,5,0,0
21777,-100,3,2,1,55,0,0
22409,-100,3,2,10,5,0,0
22500,-333.333333333333,3,2,1,55,0,0
22771,-333.333333333333,3,2,10,5,0,0
22861,-50,3,2,1,65,0,0
22952,-50,3,2,10,5,0,0
23223,-83.3333333333333,3,2,1,65,0,0
23494,-83.3333333333333,3,2,10,5,0,0
23584,-83.3333333333333,3,2,1,65,0,0
23765,-83.3333333333333,3,2,10,5,0,0
23946,-83.3333333333333,3,2,1,65,0,0
24217,-83.3333333333333,3,2,10,5,0,0
24307,-111.111111111111,3,2,1,65,0,0
24488,-111.111111111111,3,2,10,5,0,0
24668,-111.111111111111,3,2,1,65,0,0
24849,-111.111111111111,3,2,10,5,0,0
25030,-83.3333333333333,3,2,1,65,0,0
27199,-125,3,2,1,40,0,0
27470,-125,3,2,10,5,0,0
27560,-125,3,2,1,40,0,0
31536,-166.666666666667,3,2,1,40,0,0
32891,-166.666666666667,3,2,10,5,0,0
32982,-166.666666666667,3,2,1,40,0,0
33253,-166.666666666667,3,2,10,5,0,0
33343,-166.666666666667,3,2,1,40,0,0
33614,-166.666666666667,3,2,10,5,0,0
33705,-166.666666666667,3,2,1,40,0,0
34247,-166.666666666667,3,2,10,5,0,0
34428,-166.666666666667,3,2,1,40,0,0
36415,-166.666666666667,3,2,10,5,0,0
36596,-166.666666666667,3,2,1,40,0,0
38584,-166.666666666667,3,2,10,5,0,0
38765,-166.666666666667,3,2,1,40,0,0
39397,-166.666666666667,3,2,10,5,0,0
39488,-166.666666666667,3,2,1,40,0,0
39759,-166.666666666667,3,2,10,5,0,0
39849,-166.666666666667,3,2,1,40,0,0
40120,-166.666666666667,3,2,10,5,0,0
40211,-90.909090909091,3,2,1,70,0,0
41024,-90.909090909091,3,2,10,5,0,0
41114,-90.909090909091,3,2,1,70,0,0
41205,-90.909090909091,3,2,10,5,0,0
41295,-90.909090909091,3,2,1,70,0,0
41566,-90.909090909091,3,2,10,5,0,0
41656,-71.4285714285714,3,2,1,70,0,0
41928,-71.4285714285714,3,2,10,5,0,0
42018,-71.4285714285714,3,2,1,70,0,0
42108,-71.4285714285714,3,2,10,5,0,0
42199,-71.4285714285714,3,2,1,70,0,0
42289,-71.4285714285714,3,2,10,5,0,0
42379,-90.909090909091,3,2,1,70,0,0
42741,-333.333333333333,3,2,1,70,0,0
42831,-333.333333333333,3,2,10,5,0,0
42921,-333.333333333333,3,2,1,70,0,0
43012,-333.333333333333,3,2,10,5,0,0
43102,-333.333333333333,3,2,1,70,0,0
43193,-333.333333333333,3,2,10,5,0,0
43283,-333.333333333333,3,2,1,70,0,0
43373,-333.333333333333,3,2,10,5,0,0
43464,-90.909090909091,3,2,1,70,0,0
43735,-90.909090909091,3,2,10,5,0,0
43825,-71.4285714285714,3,2,1,70,0,0
44096,-71.4285714285714,3,2,10,5,0,0
44187,-71.4285714285714,3,2,1,70,0,0
44458,-71.4285714285714,3,2,10,5,0,0
44548,-90.909090909091,3,2,1,70,0,0
45903,-90.909090909091,3,2,10,5,0,0
45994,-90.909090909091,3,2,1,70,0,0
46084,-90.909090909091,3,2,10,5,0,0
46174,-90.909090909091,3,2,1,70,0,0
46265,-90.909090909091,3,2,10,5,0,0
46355,-71.4285714285714,3,2,1,70,0,0
46446,-71.4285714285714,3,2,10,5,0,0
46536,-71.4285714285714,3,2,1,70,0,0
46626,-71.4285714285714,3,2,10,5,0,0
46717,-90.909090909091,3,2,1,70,0,0
48162,-71.4285714285714,3,2,1,70,0,0
48253,-71.4285714285714,3,2,10,5,0,0
48343,-71.4285714285714,3,2,1,70,0,0
48434,-71.4285714285714,3,2,10,5,0,0
48524,-71.4285714285714,3,2,1,70,0,0
48614,-71.4285714285714,3,2,10,5,0,0
48705,-71.4285714285714,3,2,1,70,0,0
48795,-71.4285714285714,3,2,10,5,0,0
48885,-90.9090909090909,3,2,1,70,0,0
49699,-90.9090909090909,3,2,10,5,0,0
49789,-90.9090909090909,3,2,1,70,0,0
49879,-90.9090909090909,3,2,10,5,0,0
49970,-90.9090909090909,3,2,1,70,0,0
50241,-90.9090909090909,3,2,10,5,0,0
50331,-71.4285714285714,3,2,1,70,0,0
50602,-71.4285714285714,3,2,10,5,0,0
50693,-71.4285714285714,3,2,1,70,0,0
50783,-71.4285714285714,3,2,10,5,0,0
50873,-71.4285714285714,3,2,1,70,0,0
50964,-71.4285714285714,3,2,10,5,0,0
51054,-90.9090909090909,3,2,1,70,0,0
51415,-333.333333333333,3,2,1,70,0,0
51506,-333.333333333333,3,2,10,5,0,0
51596,-333.333333333333,3,2,1,70,0,0
51687,-333.333333333333,3,2,10,5,0,0
51777,-333.333333333333,3,2,1,70,0,0
51867,-333.333333333333,3,2,10,5,0,0
51958,-333.333333333333,3,2,1,70,0,0
52048,-333.333333333333,3,2,10,5,0,0
52138,-90.9090909090909,3,2,1,70,0,0
52409,-90.9090909090909,3,2,10,5,0,0
52500,-71.4285714285714,3,2,1,70,0,0
52771,-71.4285714285714,3,2,10,5,0,0
52861,-71.4285714285714,3,2,1,70,0,0
53132,-71.4285714285714,3,2,10,5,0,0
53223,-90.9090909090909,3,2,1,70,0,0
54578,-90.9090909090909,3,2,10,5,0,0
54668,-90.9090909090909,3,2,1,70,0,0
54759,-90.9090909090909,3,2,10,5,0,0
54849,-90.9090909090909,3,2,1,70,0,0
54940,-90.9090909090909,3,2,10,5,0,0
55030,-71.4285714285714,3,2,1,70,0,0
55120,-71.4285714285714,3,2,10,5,0,0
55211,-71.4285714285714,3,2,1,70,0,0
55301,-71.4285714285714,3,2,10,5,0,0
55391,-90.9090909090909,3,2,1,70,0,0
56837,-71.4285714285714,3,2,1,70,0,0
56928,-71.4285714285714,3,2,10,5,0,0
57018,-71.4285714285714,3,2,1,70,0,0
57108,-71.4285714285714,3,2,10,5,0,0
57199,-71.4285714285714,3,2,1,70,0,0
57289,-71.4285714285714,3,2,10,5,0,0
57379,-71.4285714285714,3,2,1,70,0,0
57470,-71.4285714285714,3,2,10,5,0,0
57560,-166.666666666667,3,2,1,40,0,0
58915,-166.666666666667,3,2,10,5,0,0
59006,-166.666666666667,3,2,1,40,0,0
59277,-166.666666666667,3,2,10,5,0,0
59367,-166.666666666667,3,2,1,40,0,0
59638,-166.666666666667,3,2,10,5,0,0
59729,-166.666666666667,3,2,1,40,0,0
62168,-166.666666666667,3,2,10,5,0,0
62259,-166.666666666667,3,2,1,40,0,0
62530,-166.666666666667,3,2,10,5,0,0
62620,-166.666666666667,3,2,1,40,0,0
62891,-166.666666666667,3,2,10,5,0,0
62982,-166.666666666667,3,2,1,40,0,0
64608,-166.666666666667,3,2,10,5,0,0
64789,-166.666666666667,3,2,1,40,0,0
65693,-166.666666666667,3,2,10,5,0,0
65873,-166.666666666667,3,2,1,40,0,0
66144,-166.666666666667,3,2,10,5,0,0
66235,-166.666666666667,3,2,1,70,0,0
67319,-166.666666666667,3,2,1,60,0,0
68403,-55.5555555555556,3,2,1,50,0,0
68674,-55.5555555555556,3,2,10,5,0,0
68765,-71.4285714285714,3,2,1,60,0,0
69036,-71.4285714285714,3,2,10,5,0,0
69126,-100,3,2,1,70,0,0
69397,-100,3,2,10,5,0,0
69488,361.44578313253,4,2,1,85,1,0
69488,-50,4,2,1,85,0,0
70210,-62.5,4,2,1,85,0,0
70301,-62.5,4,2,10,5,0,0
70391,-62.5,4,2,1,85,0,0
72379,-55.5555555555556,4,2,1,85,0,0
72469,-55.5555555555556,4,2,10,5,0,0
72560,-55.5555555555556,4,2,1,85,0,0
72741,-50,4,2,1,85,0,0
73463,-75.0000187500047,4,2,1,85,0,0
73734,-75.0000187500047,4,2,10,5,0,0
73825,-75.0000187500047,4,2,1,85,0,0
74909,-50,4,2,1,85,0,0
75045,-50,4,2,10,5,0,0
75090,-50,4,2,1,85,0,0
75225,-50,4,2,10,5,0,0
75271,-50,4,2,1,85,0,0
75542,-50,4,2,10,5,0,0
75632,-50,4,2,1,85,0,0
75994,-83.3333333333333,4,2,1,85,0,0
76716,-50,4,2,1,85,0,0
77078,-83.3333333333333,4,2,1,85,0,0
77801,-55.5555555555556,4,2,1,85,0,0
77936,-55.5555555555556,4,2,10,5,0,0
77981,-55.5555555555556,4,2,1,85,0,0
78117,-55.5555555555556,4,2,1,85,0,0
78162,-50,4,2,1,85,0,0
79247,-40,4,2,1,85,0,0
79518,-40,4,2,10,5,0,0
79608,-62.5,4,2,1,85,0,0
79698,-62.5,4,2,10,5,0,0
79789,-45.4545454545455,4,2,1,85,0,0
79924,-45.4545454545455,4,2,10,5,0,0
79969,-200,4,2,1,85,0,0
80105,-200,4,2,10,5,0,0
80150,-33.3333333333333,4,2,1,85,0,0
80286,-33.3333333333333,4,2,10,5,0,0
80331,-200,4,2,1,85,0,0
80466,-200,4,2,10,5,0,0
80512,-40,4,2,1,85,0,0
80647,-40,4,2,10,5,0,0
80692,-200,4,2,1,85,0,0
80783,-200,4,2,10,5,0,0
80873,-200,4,2,1,85,0,0
80963,-200,4,2,10,5,0,0
81054,-62.5,4,2,1,85,0,0
82409,-62.5,4,2,10,5,0,0
82500,-166.666666666667,4,2,1,85,0,0
82590,-166.666666666667,4,2,10,5,0,0
82680,-54.054054054054,4,2,1,85,0,0
82816,-54.054054054054,4,2,10,5,0,0
82861,-52.6315789473684,4,2,1,85,0,0
83132,-52.6315789473684,4,2,10,5,0,0
83222,-166.666666666667,4,2,1,85,0,0
83313,-166.666666666667,4,2,10,5,0,0
83403,-62.5,4,2,1,85,0,0
83539,-62.5,4,2,10,5,0,0
83584,-111.111111111111,4,2,1,85,0,0
83674,-111.111111111111,4,2,10,5,0,0
83765,-40,4,2,1,85,0,0
83900,-40,4,2,10,5,0,0
83945,-50,4,2,1,85,0,0
84216,-50,4,2,10,5,0,0
84307,-41.6666666666667,4,2,1,85,0,0
84578,-41.6666666666667,4,2,10,5,0,0
84668,-76.9230769230769,4,2,1,85,0,0
84759,-76.9230769230769,4,2,10,5,0,0
84849,-76.9230769230769,4,2,1,85,0,0
85753,-166.666666666667,4,2,1,85,0,0
86024,-166.666666666667,4,2,10,5,0,0
86114,-166.666666666667,4,2,1,85,0,0
86204,-166.666666666667,4,2,10,5,0,0
86295,-166.666666666667,4,2,1,85,0,0
86837,-71.4285714285714,4,2,1,85,0,0
87108,-71.4285714285714,4,2,10,5,0,0
87198,-76.9230769230769,4,2,1,85,0,0
87289,-76.9230769230769,4,2,10,5,0,0
87379,-76.9230769230769,4,2,1,85,0,0
87831,-76.9230769230769,4,2,10,5,0,0
87921,-125,4,2,1,85,0,0
88012,-125,4,2,10,5,0,0
88102,-200,4,2,1,85,0,0
88192,-200,4,2,10,5,0,0
88283,-111.111111111111,4,2,1,85,0,0
88644,-74.0740740740741,4,2,1,85,0,0
88915,-74.0740740740741,4,2,10,5,0,0
89006,-74.0740740740741,4,2,1,85,0,0
89277,-74.0740740740741,4,2,10,5,0,0
89367,-74.0740740740741,4,2,1,85,0,0
89503,-74.0740740740741,4,2,10,5,0,0
89548,-74.0740740740741,4,2,1,85,0,0
89683,-74.0740740740741,4,2,10,5,0,0
89728,-125,4,2,1,85,0,0
89819,-125,4,2,10,5,0,0
89909,-125,4,2,1,85,0,0
90271,-71.4285714285714,4,2,1,85,0,0
90361,-71.4285714285714,4,2,10,5,0,0
90451,-71.4285714285714,4,2,1,85,0,0
90542,-71.4285714285714,4,2,10,5,0,0
90632,-125,4,2,1,85,0,0
90722,-125,4,2,10,5,0,0
90813,-125,4,2,1,85,0,0
90903,-125,4,2,10,5,0,0
90994,-125,4,2,1,85,0,0
91084,-125,4,2,10,5,0,0
91174,-50,4,2,1,85,0,0
91310,-50,4,2,10,5,0,0
91355,-111.111111111111,4,2,1,85,0,0
91445,-111.111111111111,4,2,10,5,0,0
91536,-111.111111111111,4,2,1,85,0,0
91626,-111.111111111111,4,2,10,5,0,0
91716,-111.111111111111,4,2,1,85,0,0
91807,-111.111111111111,4,2,10,5,0,0
91897,-30.03003003003,4,2,1,85,0,0
91988,-30.03003003003,4,2,10,5,0,0
92078,-34.1296928327645,4,2,1,85,0,0
92168,-34.1296928327645,4,2,10,5,0,0
92259,-39.5256916996047,4,2,1,85,0,0
92349,-39.5256916996047,4,2,10,5,0,0
92439,-46.9483568075117,4,2,1,85,0,0
92530,-46.9483568075117,4,2,10,5,0,0
92620,-105.263157894737,4,2,1,85,0,0
92710,-105.263157894737,4,2,1,60,0,0
95150,-105.263157894737,4,2,10,5,0,0
95331,-105.263157894737,4,2,1,50,0,0
95512,-142.857142857143,4,2,1,60,0,0
97680,-142.857142857143,4,2,10,5,0,0
98042,-55.5555555555556,4,2,1,60,0,0
98313,-55.5555555555556,4,2,10,5,0,0
98403,-62.5,4,2,1,70,0,0
99126,-90.9090909090909,4,2,1,70,0,0
101114,-200,4,2,1,70,0,0
101295,-76.9230769230769,4,2,1,70,0,0
101566,-76.9230769230769,4,2,10,5,0,0
101656,-76.9230769230769,4,2,1,70,0,0
102560,-166.666666666667,4,2,1,70,0,0
102741,-66.6666666666667,4,2,1,70,0,0
104186,-166.666666666667,4,2,1,50,0,0
109969,-200,4,2,1,40,0,0
111054,-200,4,2,10,5,0,0
111234,-200,4,2,1,40,0,0
112500,-200,4,2,10,5,0,0
112861,-200,4,2,1,40,0,0
113945,-200,4,2,10,5,0,0
114126,-200,4,2,1,40,0,0
114939,-200,4,2,10,5,0,0
115030,-200,4,2,1,40,0,0
115662,-200,4,2,10,5,0,0
115753,-250,4,2,1,40,0,0
116475,-100,4,2,1,50,0,0
117198,-125,4,2,1,60,0,0
117921,-100,4,2,1,70,0,0
118463,-62.5,4,2,1,70,0,0
118554,-62.5,4,2,10,5,0,0
118644,-125,4,2,1,80,0,0
119728,-125,4,2,10,5,0,0
119909,392.156862745098,4,2,1,60,1,0
120117,392.156862745098,4,2,1,60,1,0
120901,-100,4,2,10,5,0,0

[Colours]
Combo1 : 127,127,127
Combo2 : 157,149,255
Combo3 : 213,149,255
Combo4 : 149,255,250
Combo5 : 255,159,149
Combo6 : 202,202,202

[HitObjects]
512,192,1175,6,0,L|495:286,1,66.5999979675294
265,91,1536,6,0,P|232:62|188:63,1,88.8,2|0,0:0|0:0,0:0:0:0:
268,100,1897,2,0,P|317:142|382:141,1,133.2,2|0,0:0|0:0,0:0:0:0:
442,74,2259,2,0,P|330:92|124:147,1,310.8,2|0,0:0|0:0,0:0:0:0:
75,95,2982,6,0,L|91:0,1,66.5999979675294,2|0,0:0|0:0,0:0:0:0:
32,352,3343,53,2,0:0:0:0:
4,194,3524,1,2,0:0:0:0:
113,328,3705,5,2,0:0:0:0:
139,251,3886,1,2,0:0:0:0:
195,347,4066,5,2,0:0:0:0:
512,160,4428,54,0,P|422:171|357:246,1,166.5,2|0,0:0|0:0,0:0:0:0:
293,214,4789,2,0,L|276:119,1,66.5999979675294,2|0,0:0|0:0,0:0:0:0:
281,148,5150,2,0,L|292:213,1,66.5999979675294,2|0,0:0|0:0,0:0:0:0:
472,375,5512,5,2,0:0:0:0:
455,383,5693,1,2,0:0:0:0:
394,378,5873,1,2,0:0:0:0:
315,327,6054,1,2,0:0:0:0:
292,213,6235,1,2,0:0:0:0:
168,366,6596,6,0,B|122:386|89:353|99:346|73:317|26:326,1,155.4,2|0,0:0|0:0,0:0:0:0:
22,333,7319,2,0,L|14:376,1,44.4,2|0,0:0|0:0,0:0:0:0:
160,192,7681,53,2,0:0:0:0:
132,34,7861,1,2,0:0:0:0:
246,178,8042,5,2,0:0:0:0:
278,87,8222,1,2,0:0:0:0:
327,208,8403,5,2,0:0:0:0:
357,181,8583,1,2,0:0:0:0:
353,307,8765,54,0,P|278:310|234:247,1,133.2,2|0,0:0|0:0,0:0:0:0:
236,258,9126,2,0,P|187:214|123:222,1,133.2,2|0,0:0|0:0,0:0:0:0:
120,231,9488,2,0,L|131:294,1,44.4,2|0,0:0|0:0,0:0:0:0:
493,301,9849,6,0,L|473:297,1,11.1,14|0,1:0|0:0,0:0:0:0:
469,295,10030,2,0,L|458:293,1,11.1
489,204,10211,6,0,L|450:216,1,27.75,2|0,0:0|0:0,0:0:0:0:
451,216,10392,2,0,L|425:225,1,27.75
420,104,10572,54,0,L|365:164,1,44.4,2|0,0:0|0:0,0:0:0:0:
384,145,10753,2,0,L|356:180,1,44.4
304,28,10934,6,0,L|280:138,1,61.0500018630982,2|0,0:0|0:0,0:0:0:0:
289,98,11115,2,0,L|279:158,1,61.0500018630982
144,7,11295,6,0,L|179:114,1,77.6999976287843,2|0,0:0|0:0,0:0:0:0:
172,90,11476,2,0,L|199:163,1,77.6999976287843
304,28,11656,54,0,L|280:138,1,61.0500018630982,2|0,0:0|0:0,0:0:0:0:
257,245,11837,5,2,0:0:0:0:
255,256,11927,1,2,0:0:0:0:
253,267,12018,6,0,P|219:285|181:260,1,61.0500018630982,2|0,0:0|0:0,0:0:0:0:
189,271,12199,2,0,P|159:266|134:283,1,61.0500018630982
242,218,12379,54,0,P|232:254|199:274,1,77.6999976287843,2|0,0:0|0:0,0:0:0:0:
186,275,12560,2,0,P|153:295|143:332,1,77.6999976287843
194,184,12741,6,0,P|211:227|198:271,1,94.3500017995835,2|0,0:0|0:0,0:0:0:0:
188,279,12922,2,0,P|173:323|193:365,1,94.3500017995835
126,192,13102,6,0,P|174:217|195:267,1,111,2|0,0:0|0:0,0:0:0:0:
192,281,13283,2,0,P|212:333|263:356,1,111
73,249,13464,54,0,P|135:237|189:267,1,127.650002434731,2|0,0:0|0:0,0:0:0:0:
196,280,13645,2,0,P|256:312|320:294,1,127.650002434731
384,224,13825,6,0,L|367:129,1,49.949998475647,2|0,0:0|0:0,0:0:0:0:
456,135,14006,6,0,P|482:181|470:243,1,108.224995045853,8|0,1:1|0:0,0:0:0:0:
466,223,14187,54,0,B|426:154|489:99|485:134|542:79|512:12,1,233.099992886353,12|0,1:0|0:0,0:0:0:0:
506,20,14548,5,2,1:2:0:0:
456,135,14729,1,0,0:0:0:0:
356,0,14909,5,2,1:2:0:0:
375,174,15090,1,0,0:0:0:0:
168,65,15271,54,0,B|172:43|190:16|190:16|135:75|49:74|49:74|133:82|168:132|166:198|109:235|44:231|5:154|58:111,1,532.799983740235,10|0,0:1|0:0,0:0:0:0:
254,73,16174,5,2,0:0:0:0:
286,79,16264,1,2,0:0:0:0:
319,85,16355,2,0,P|394:62|390:-32,1,149.849995426941,2|0,1:2|0:0,0:0:0:0:
337,10,16717,6,0,P|359:121|380:245,1,183.150005589295,2|0,0:0|0:0,0:0:0:0:
363,194,17078,2,0,P|380:284|398:374,1,183.150005589295,10|0,0:1|0:0,0:0:0:0:
320,354,17440,54,0,P|236:377|178:268,1,183.150005589295,10|0,1:1|0:0,0:0:0:0:
169,297,17801,2,0,P|109:233|25:257,1,183.150005589295,2|0,0:0|0:0,0:0:0:0:
8,338,18162,6,0,P|219:287|370:259,1,333,10|0,0:1|0:0,0:0:0:0:
512,347,18524,6,0,B|442:330|442:330|393:289|434:240|385:199|385:199|291:161,1,283.05000539875,12|0,1:0|0:0,0:0:0:0:
238,201,18885,54,0,L|264:321,1,99.899996951294,2|0,1:2|0:0,0:0:0:0:
259,298,19247,1,2,1:2:0:0:
406,164,19428,1,2,0:0:0:0:
217,104,19608,2,0,B|157:97|132:29|186:-60|297:-12|325:46|301:112,1,310.8,2|0,1:2|0:0,0:0:0:0:
238,201,20331,2,0,P|182:187|111:178,1,122.100003726196,10|2,0:1|0:0,0:0:0:0:
6,247,20602,1,2,0:0:0:0:
4,235,20693,6,0,P|218:193|445:157,1,407.924987551117,10|0,1:1|0:0,0:0:0:0:
463,101,21415,6,0,B|478:52|478:52|440:12,1,99.899996951294
509,196,21777,54,0,B|442:198|416:122|454:138|439:56|364:10|282:54|264:157|342:207|436:146,1,388.5,2|0,1:2|0:0,0:0:0:0:
463,101,22500,6,0,L|482:40,1,49.949998475647,2|0,0:0|0:0,0:0:0:0:
489,86,22861,6,0,L|522:275,1,111,6|0,1:0|0:0,0:0:0:0:
326,361,23223,2,0,P|238:349|243:230,1,199.799993902588,2|0,1:2|0:0,0:0:0:0:
229,239,23584,2,0,P|220:164|148:149,1,133.199995935059,2|0,1:2|0:0,0:0:0:0:
99,333,23946,54,0,P|185:305|305:289,1,199.799993902588,2|0,1:2|0:0,0:0:0:0:
338,352,24307,2,0,B|374:319|374:319|361:249,1,99.8999969512941,2|0,1:2|0:0,0:0:0:0:
173,144,24668,2,0,B|137:177|137:177|150:247,1,99.8999969512941,2|0,1:2|0:0,0:0:0:0:
322,132,25030,6,0,P|405:110|472:83,1,133.199995935059,2|2,1:2|0:0,0:0:0:0:
449,93,25301,1,2,0:0:0:0:
449,93,25391,1,2,1:2:0:0:
304,211,25572,1,2,0:0:0:0:
445,307,25753,1,2,1:2:0:0:
411,188,25934,1,2,0:0:0:0:
252,302,26114,6,0,B|204:339|150:314|135:259|150:269|132:214|76:196|29:235,2,266.399991870117,2|0|0,1:2|1:2|1:2,0:0:0:0:
411,188,27018,1,2,0:0:0:0:
272,230,27199,38,0,P|337:248|408:275,1,133.2,2|0,1:2|0:0,0:0:0:0:
420,272,27560,2,0,P|475:249|484:197,1,88.8,2|0,0:0|0:0,0:0:0:0:
408,111,27921,1,0,0:0:0:0:
408,111,28012,1,0,0:0:0:0:
408,111,28102,1,2,0:0:0:0:
512,51,28283,70,0,P|414:33|302:16,2,177.6,2|0|2,0:0|0:0|0:0,0:0:0:0:
294,115,29367,2,0,P|213:113|215:21,2,177.6,2|0|2,0:0|0:0|0:0,0:0:0:0:
487,214,30452,5,2,0:0:0:0:
485,225,30542,1,2,0:0:0:0:
309,243,30813,69,2,0:0:0:0:
307,254,30903,1,2,0:0:0:0:
131,272,31175,5,2,0:0:0:0:
129,283,31265,1,2,0:0:0:0:
30,214,31536,70,0,B|-14:129|58:35|156:88|145:170|81:177,1,266.399991870117,2|2,0:0|0:0,0:0:0:0:
139,371,32440,1,2,0:0:0:0:
139,371,32530,1,2,0:0:0:0:
139,371,32620,2,0,P|187:352|208:303,1,99.899996951294,2|0,0:0|0:0,0:0:0:0:
302,352,32982,2,0,P|261:319|208:326,1,99.899996951294,2|0,0:0|0:0,0:0:0:0:
205,221,33344,2,0,P|197:272|229:314,1,99.899996951294,2|0,0:0|0:0,0:0:0:0:
302,352,33705,6,0,P|360:336|514:315,1,199.799993902588,2|0,0:0|0:0,0:0:0:0:
376,242,34428,1,2,0:0:0:0:
324,187,34608,1,2,0:0:0:0:
345,114,34789,2,0,P|426:134|483:144,2,133.199995935059,2|0|2,0:0|0:0|0:0,0:0:0:0:
17,91,35873,70,0,B|81:55|144:122|98:124|145:185|246:161,1,199.799993902588,2|0,0:0|0:0,0:0:0:0:
254,127,36596,2,0,B|265:95|265:95|245:60,1,66.5999979675294,2|2,0:0|0:0,0:0:0:0:
190,12,36958,2,0,P|167:110|128:298,1,266.399991870117,2|2,0:0|0:0,0:0:0:0:
375,350,38042,6,0,B|335:324|341:261|341:261|325:323|236:335,1,199.799993902588,2|0,0:0|0:0,0:0:0:0:
215,377,38765,2,0,P|195:333|215:286,1,66.5999979675294,2|2,0:0|0:0,0:0:0:0:
260,212,39126,2,0,P|306:185|363:162,1,99.899996951294,2|0,0:0|0:0,0:0:0:0:
267,101,39488,2,0,P|267:154|258:215,1,99.899996951294,2|0,0:0|0:0,0:0:0:0:
359,162,39849,2,0,P|312:135|264:97,1,99.899996951294,2|0,0:0|0:0,0:0:0:0:
186,39,40211,6,0,P|266:24|356:10,1,122.100003726196,14|0,1:0|0:0,0:0:0:0:
479,140,40572,2,0,P|399:155|309:169,1,122.100003726196,2|0,1:2|0:0,0:0:0:0:
401,67,40934,6,0,B|401:36|401:36|419:10,1,61.0500018630982,2|0,1:2|0:0,0:0:0:0:
430,15,41114,2,0,B|429:46|429:46|412:71,1,61.0500018630982,0|0,1:2|0:0,0:0:0:0:
383,235,41295,6,0,B|324:267|267:206|309:204|266:149|174:171,1,183.150005589295,2|0,1:2|0:0,0:0:0:0:
129,201,41656,54,0,P|247:178|381:157,1,233.099992886353,2|0,1:2|0:0,0:0:0:0:
429,130,42018,6,0,B|439:168|439:168|413:227,1,77.6999976287843,2|0,1:2|0:0,0:0:0:0:
216,98,42199,2,0,B|206:60|206:60|232:1,1,77.6999976287843,8|0,1:0|0:0,0:0:0:0:
256,251,42379,6,0,P|211:309|134:295,1,122.100003726196,14|0,1:0|0:0,0:0:0:0:
30,250,42741,54,0,L|38:219,1,16.6499994918823,2|0,1:2|0:0,0:0:0:0:
173,175,42921,2,0,L|164:144,1,16.6499994918823,2|0,0:0|0:0,0:0:0:0:
23,121,43102,2,0,L|31:90,1,16.6499994918823,2|0,1:2|0:0,0:0:0:0:
166,46,43282,2,0,L|157:15,1,16.6499994918823,2|0,1:2|0:0,0:0:0:0:
62,7,43464,6,0,P|82:112|102:228,1,183.150005589295,2|0,1:2|0:0,0:0:0:0:
30,250,43825,6,0,P|53:162|182:191,1,233.099992886353,10|0,1:1|0:0,0:0:0:0:
256,251,44187,2,0,P|359:276|399:176,1,233.099992886353,10|0,1:0|0:0,0:0:0:0:
446,90,44548,54,0,P|326:111|283:121,1,122.100003726196,14|0,1:0|0:0,0:0:0:0:
237,42,44909,5,2,1:2:0:0:
226,63,44999,1,0,0:0:0:0:
224,88,45089,1,2,0:0:0:0:
386,222,45271,1,2,1:2:0:0:
397,201,45361,1,0,0:0:0:0:
399,176,45451,1,2,1:2:0:0:
242,248,45632,6,0,P|165:263|36:288,1,183.150005589295,2|0,1:2|0:0,0:0:0:0:
51,278,45994,54,0,P|64:225|69:196,1,61.0500018630982,2|0,1:2|0:0,0:0:0:0:
154,178,46174,2,0,P|141:125|136:96,1,61.0500018630982
45,24,46355,6,0,B|24:56|24:56|31:95,1,77.6999976287843,2|0,1:2|0:0,0:0:0:0:
228,130,46536,2,0,B|248:97|248:97|241:58,1,77.6999976287843,8|0,1:0|0:0,0:0:0:0:
70,211,46717,5,14,1:0:0:0:
226,352,46897,1,2,0:0:0:0:
167,188,47078,53,2,1:2:0:0:
127,373,47258,1,2,0:0:0:0:
227,255,47440,5,2,1:2:0:0:
67,306,47620,1,2,1:2:0:0:
226,352,47801,5,2,1:2:0:0:
70,211,47981,1,2,0:0:0:0:
270,146,48162,54,0,P|323:158|364:163,1,77.6999976287843,10|0,1:1|0:0,0:0:0:0:
365,85,48343,2,0,P|312:73|271:68,1,77.6999976287843,2|0,0:0|0:0,0:0:0:0:
199,180,48524,6,0,B|190:142|190:142|203:106,1,77.6999976287843,10|0,1:1|0:0,0:0:0:0:
435,50,48705,2,0,B|443:87|443:87|430:123,1,77.6999976287843,2|0,0:0|0:0,0:0:0:0:
346,333,48885,6,0,P|284:339|188:360,1,122.100003726196,14|0,1:0|0:0,0:0:0:0:
70,211,49247,2,0,P|131:204|227:183,1,122.100003726196,2|0,1:2|0:0,0:0:0:0:
143,299,49608,54,0,B|145:331|145:331|133:358,1,61.0500018630982,2|0,1:2|0:0,0:0:0:0:
120,355,49789,2,0,B|118:323|118:323|129:295,1,61.0500018630982,0|0,1:2|0:0,0:0:0:0:
159,126,49970,6,0,B|217:93|274:154|232:156|275:211|367:189,1,183.150005589295,2|0,1:2|0:0,0:0:0:0:
418,141,50331,6,0,P|307:164|160:200,1,233.099992886353,2|0,1:2|0:0,0:0:0:0:
84,157,50693,54,0,B|76:119|76:119|98:71,1,77.6999976287843,2|0,1:2|0:0,0:0:0:0:
313,193,50873,2,0,B|321:231|321:231|299:279,1,77.6999976287843,8|0,1:0|0:0,0:0:0:0:
233,63,51054,6,0,P|322:41|398:28,1,122.100003726196,14|0,1:0|0:0,0:0:0:0:
508,112,51415,6,0,L|499:142,1,16.6499994918823,2|0,1:2|0:0,0:0:0:0:
375,187,51596,2,0,L|383:217,1,16.6499994918823,2|0,0:0|0:0,0:0:0:0:
512,243,51777,2,0,L|503:273,1,16.6499994918823,2|0,1:2|0:0,0:0:0:0:
379,318,51958,2,0,L|387:348,1,16.6499994918823,2|0,1:2|0:0,0:0:0:0:
485,368,52138,54,0,P|460:249|452:176,1,183.150005589295,2|0,1:2|0:0,0:0:0:0:
508,112,52500,6,0,P|355:79|261:55,1,233.099992886353,10|0,1:0|0:0,0:0:0:0:
151,266,52861,2,0,P|304:299|398:323,1,233.099992886353,10|0,1:0|0:0,0:0:0:0:
375,168,53223,6,0,P|314:180|254:195,1,122.100003726196,14|0,1:0|0:0,0:0:0:0:
143,36,53584,53,2,1:2:0:0:
184,50,53674,1,2,0:0:0:0:
203,90,53764,1,2,0:0:0:0:
188,132,53855,1,2,0:0:0:0:
147,150,53946,1,2,1:2:0:0:
105,168,54036,1,2,0:0:0:0:
90,210,54127,1,2,1:2:0:0:
109,250,54217,1,2,0:0:0:0:
151,266,54307,6,0,P|248:245|344:221,1,183.150005589295,2|0,1:2|0:0,0:0:0:0:
344,232,54668,6,0,P|327:287|316:328,1,61.0500018630982,2|0,1:2|0:0,0:0:0:0:
243,384,54849,2,0,P|234:354|225:325,1,61.0500018630982
426,237,55030,54,0,B|427:277|427:277|402:315,1,77.6999976287843,2|0,1:2|0:0,0:0:0:0:
208,209,55211,2,0,B|207:169|207:169|232:131,1,77.6999976287843,8|0,1:0|0:0,0:0:0:0:
424,19,55391,5,14,1:0:0:0:
344,232,55572,1,2,0:0:0:0:
485,108,55753,5,2,1:2:0:0:
282,142,55934,1,2,0:0:0:0:
441,195,56114,53,2,1:2:0:0:
326,55,56295,1,2,1:2:0:0:
344,232,56476,5,2,1:2:0:0:
424,19,56657,1,2,0:0:0:0:
199,56,56837,6,0,P|157:51|93:42,1,77.6999976287843,10|0,1:0|0:0,0:0:0:0:
78,124,57018,2,0,P|120:129|184:138,1,77.6999976287843,2|0,0:0|0:0,0:0:0:0:
273,38,57199,54,0,B|274:78|274:78|256:112,1,77.6999976287843,10|0,1:0|0:0,0:0:0:0:
3,141,57380,2,0,B|1:101|1:101|20:67,1,77.6999976287843,2|0,0:0|0:0,0:0:0:0:
150,257,57560,70,0,B|241:229|276:309|245:305|294:377|374:350,1,266.399991870117,2|2,0:0|0:0,0:0:0:0:
494,248,58464,1,2,0:0:0:0:
494,248,58554,1,2,0:0:0:0:
494,248,58644,2,0,P|429:254|390:286,1,99.899996951294,2|0,0:0|0:0,0:0:0:0:
373,350,59006,2,0,P|400:290|392:240,1,99.899996951294,2|0,0:0|0:0,0:0:0:0:
345,194,59367,2,0,P|382:247|429:265,1,99.899996951294,2|0,0:0|0:0,0:0:0:0:
494,248,59729,70,0,P|479:183|474:156,1,66.5999979675294,2|0,0:0|0:0,0:0:0:0:
404,133,60090,2,0,P|418:68|424:41,1,66.5999979675294
310,18,60452,1,2,0:0:0:0:
232,5,60632,1,2,0:0:0:0:
181,66,60813,2,0,P|195:132|210:221,2,133.199995935059,2|2|2,0:0|0:0|0:0,0:0:0:0:
38,223,61897,6,0,P|69:278|125:282,1,99.899996951294,2|0,0:0|0:0,0:0:0:0:
180,274,62259,2,0,P|116:273|85:319,1,99.899996951294,2|0,0:0|0:0,0:0:0:0:
64,371,62620,2,0,P|96:316|71:266,1,99.899996951294,2|0,0:0|0:0,0:0:0:0:
38,223,62982,2,0,P|51:173|55:148,1,66.5999979675294,2|0,0:0|0:0,0:0:0:0:
150,51,63343,1,0,0:0:0:0:
88,5,63524,1,0,0:0:0:0:
17,35,63705,2,0,P|4:85|0:110,1,66.5999979675294,2|0,0:0|0:0,0:0:0:0:
121,214,64066,70,0,P|224:198|333:185,1,199.799993902588,2|0,0:0|0:0,0:0:0:0:
504,331,64789,1,2,0:0:0:0:
432,384,64970,1,0,0:0:0:0:
379,312,65150,2,0,B|358:256|406:211|407:242|449:196|434:133,1,199.799993902588,2|0,0:0|0:0,0:0:0:0:
365,99,65873,2,0,P|412:95|431:26,1,99.899996951294,2|0,0:0|0:0,0:0:0:0:
512,0,66235,69,2,0:0:0:0:
445,239,66415,1,2,0:0:0:0:
338,8,66596,53,2,0:0:0:0:
351,193,66776,1,2,0:0:0:0:
193,69,66958,21,2,0:0:0:0:
249,196,67138,1,2,0:0:0:0:
7,190,67319,53,2,0:0:0:0:
0,293,67499,1,2,0:0:0:0:
113,261,67681,21,2,0:0:0:0:
73,322,67861,1,2,0:0:0:0:
175,356,68042,53,2,0:0:0:0:
135,375,68222,1,2,0:0:0:0:
399,368,68403,22,0,P|432:277|397:367,1,299.699990853882,2|0,1:2|0:0,0:0:0:0:
282,219,68765,54,0,P|268:146|280:219,1,233.099992886353,2|0,1:2|0:0,0:0:0:0:
110,144,69126,22,0,P|77:101|109:145,1,166.5,10|0,0:1|0:0,0:0:0:0:
0,3,69488,6,0,P|109:13|219:34,1,222,12|0,1:0|0:0,0:0:0:0:
364,100,69759,1,0,0:0:0:0:
436,74,69849,2,0,P|325:63|216:43,1,222,2|0,1:2|0:0,0:0:0:0:
493,125,70210,70,0,B|518:87|518:87|496:16,1,88.8,2|0,1:2|0:0,0:0:0:0:
417,184,70391,1,0,0:0:0:0:
419,194,70481,1,0,0:0:0:0:
422,205,70571,5,10,0:0:0:0:
393,272,70692,1,2,0:0:0:0:
350,213,70813,1,2,0:0:0:0:
464,262,70933,69,2,1:2:0:0:
320,280,71054,1,2,0:0:0:0:
378,146,71175,1,2,0:0:0:0:
402,353,71295,5,2,1:2:0:0:
271,180,71416,1,2,0:0:0:0:
488,155,71537,1,2,0:0:0:0:
320,280,71656,69,2,1:2:0:0:
464,262,71777,1,2,0:0:0:0:
378,146,71898,1,2,0:0:0:0:
405,380,72018,5,2,1:2:0:0:
510,139,72139,1,2,0:0:0:0:
246,169,72260,1,2,0:0:0:0:
473,314,72379,70,0,B|512:284|512:284|506:234,1,99.8999969512941,14|0,1:0|0:0,0:0:0:0:
446,57,72560,5,0,0:0:0:0:
443,66,72650,1,0,0:0:0:0:
440,76,72741,2,0,P|333:56|187:31,1,222,2|0,1:2|0:0,0:0:0:0:
86,106,73012,69,0,0:0:0:0:
0,8,73102,2,0,P|106:27|252:52,1,222,2|0,1:2|0:0,0:0:0:0:
378,146,73373,5,0,0:0:0:0:
433,94,73463,2,0,P|326:74|180:49,1,221.999954833994,10|0,0:0|0:0,0:0:0:0:
86,106,73825,69,2,1:2:0:0:
47,324,73945,1,2,0:0:0:0:
256,249,74066,1,2,0:0:0:0:
35,209,74186,5,2,1:2:0:0:
162,316,74306,1,2,0:0:0:0:
191,152,74427,1,2,0:0:0:0:
98,263,74548,69,2,1:2:0:0:
177,234,74668,1,2,0:0:0:0:
113,181,74789,1,2,0:0:0:0:
162,316,74909,6,0,P|263:303|289:246,1,166.5,2|0,1:2|0:0,0:0:0:0:
293,237,75090,2,0,P|339:171|419:173,1,166.5,8|0,0:0|0:0,0:0:0:0:
460,264,75271,70,0,P|296:242|129:226,1,333,12|0,1:0|0:0,0:0:0:0:
35,209,75632,5,2,1:2:0:0:
266,80,75753,1,2,0:0:0:0:
262,344,75873,1,2,0:0:0:0:
113,76,75994,70,0,L|137:-15,1,88.7999972900391,0|0,1:2|0:0,0:0:0:0:
187,154,76234,5,2,0:0:0:0:
93,179,76355,2,0,L|178:156,1,88.7999972900391,10|0,0:0|0:0,0:0:0:0:
266,80,76596,69,2,0:0:0:0:
227,231,76716,2,0,L|275:45,1,148,2|0,1:2|0:0,0:0:0:0:
319,221,76957,5,0,0:0:0:0:
413,196,77078,2,0,L|327:218,1,88.7999972900391,2|0,1:2|0:0,0:0:0:0:
147,266,77319,69,2,0:0:0:0:
93,179,77439,1,2,1:2:0:0:
249,262,77560,1,2,0:0:0:0:
99,355,77680,1,2,0:0:0:0:
199,166,77801,6,0,P|266:152|321:233,1,149.849995426941,2|0,1:2|0:0,0:0:0:0:
326,218,77981,2,0,P|375:270|446:257,1,149.849995426941,8|0,0:0|0:0,0:0:0:0:
436,181,78162,70,0,P|356:199|195:244,1,222,14|0,1:0|0:0,0:0:0:0:
87,170,78433,5,0,0:0:0:0:
4,283,78524,2,0,P|84:265|245:220,1,222,2|0,1:2|0:0,0:0:0:0:
361,140,78795,69,0,0:0:0:0:
432,165,78885,2,0,P|352:183|191:228,1,222,2|0,1:2|0:0,0:0:0:0:
27,125,79247,6,0,B|-16:52|-7:-35|112:-84|214:-6|149:158|33:76,1,416.25,10|0,0:0|0:0,0:0:0:0:
84,177,79608,70,0,P|30:203|-27:179,1,88.8,2|0,1:2|0:0,0:0:0:0:
87,170,79789,2,0,P|140:143|217:220,1,183.150005589295,2|0,0:0|0:0,0:0:0:0:
139,247,79969,6,0,L|131:290,1,41.625,8|0,0:0|0:0,0:0:0:0:
130,297,80150,2,0,P|243:274|382:252,1,249.750009527207,2|0,0:0|0:0,0:0:0:0:
460,303,80331,70,0,L|467:346,1,41.625,0|0,1:2|0:0,0:0:0:0:
468,353,80512,2,0,P|359:331|249:313,1,208.125,2|0,0:0|0:0,0:0:0:0:
143,219,80692,6,0,L|136:257,1,27.75,10|0,0:0|0:0,0:0:0:0:
126,314,80873,2,0,L|119:352,1,27.75,2|0,0:0|0:0,0:0:0:0:
184,384,81054,70,0,B|233:321|201:251|128:231|141:251|69:227|46:154|96:91,2,355.2,14|0|0,1:0|1:2|1:2,0:0:0:0:
507,99,82138,6,0,B|440:99|408:27|408:27|435:104|374:147,1,266.4,10|0,0:0|0:0,0:0:0:0:
298,136,82500,70,0,L|281:74,1,33.2999989837647,0|0,1:2|0:0,0:0:0:0:
250,196,82680,2,0,P|315:137|390:161,1,154.012499412489,2|0,0:0|0:0,0:0:0:0:
464,201,82861,6,0,P|308:170|152:149,1,316.349991552544,2|0,1:2|0:0,0:0:0:0:
154,143,83222,2,0,L|187:146,1,33.2999989837647,0|0,1:2|0:0,0:0:0:0:
330,215,83403,70,0,P|315:276|253:283,1,133.2,2|0,0:0|0:0,0:0:0:0:
258,276,83584,2,0,P|212:265|198:263,1,49.949998475647,0|0,1:2|0:0,0:0:0:0:
41,321,83765,6,0,P|170:300|272:285,1,208.125,8|0,0:0|0:0,0:0:0:0:
343,373,83945,70,0,B|272:402|216:355|216:283|231:300|226:228|165:189|95:219,1,333,14|0,1:0|0:0,0:0:0:0:
41,321,84307,6,0,B|25:349|-9:357|-9:357|121:380|121:380|157:378|172:344|172:344|156:284|156:284|166:240|210:231,1,399.599987805176,0|0,1:2|0:0,0:0:0:0:
330,215,84668,70,0,L|305:307,1,72.1499966972353,0|0,1:2|0:0,0:0:0:0:
423,371,84849,5,0,0:0:0:0:
421,362,84939,1,0,0:0:0:0:
419,354,85029,1,10,0:0:0:0:
361,137,85210,1,2,0:0:0:0:
205,232,85391,69,2,1:2:0:0:
263,104,85572,1,2,0:0:0:0:
112,40,85753,6,0,L|208:14,1,99.899996951294,2|0,1:2|0:0,0:0:0:0:
271,71,86114,2,0,L|263:104,1,33.2999989837647,2|0,1:2|0:0,0:0:0:0:
334,232,86295,69,2,0:0:0:0:
332,223,86385,1,2,0:0:0:0:
330,215,86475,1,2,1:2:0:0:
407,92,86656,5,10,0:0:0:0:
185,226,86837,2,0,B|122:264|48:219|49:134|132:113|158:170,1,233.099992886353,14|0,1:0|0:0,0:0:0:0:
193,235,87198,2,0,L|168:327,1,72.1499966972353,2|0,1:2|0:0,0:0:0:0:
273,347,87379,69,0,0:0:0:0:
275,355,87469,1,0,0:0:0:0:
277,364,87560,2,0,B|203:384|174:303|201:318|172:247|100:260,1,216.449990091706,2|0,1:2|0:0,0:0:0:0:
64,351,87921,6,0,L|127:339,1,44.4,10|0,0:0|0:0,0:0:0:0:
174,304,88102,2,0,L|212:297,1,27.75,2|0,0:0|0:0,0:0:0:0:
285,273,88283,2,0,P|326:289|346:347,1,99.8999969512941,2|0,1:2|0:0,0:0:0:0:
434,210,88554,69,0,0:0:0:0:
506,233,88644,2,0,P|391:255|253:277,1,224.775000857449,2|0,1:2|0:0,0:0:0:0:
211,215,89006,2,0,B|164:160|164:160|339:202,1,224.775000857449,2|0,1:2|0:0,0:0:0:0:
470,304,89367,6,0,P|433:264|433:209,1,112.387500428724,2|0,1:2|0:0,0:0:0:0:
440,197,89548,2,0,P|439:142|402:102,1,112.387500428724,10|0,0:0|0:0,0:0:0:0:
326,96,89728,2,0,B|253:113,1,44.4,14|0,1:0|0:0,0:0:0:0:
36,27,89909,69,2,0:0:0:0:
97,5,89999,1,2,0:0:0:0:
155,34,90089,1,10,0:0:0:0:
174,96,90180,1,2,0:0:0:0:
144,153,90271,6,0,L|17:130,1,77.6999976287843,2|0,0:0|0:0,0:0:0:0:
335,188,90451,2,0,L|461:210,1,77.6999976287843,2|0,1:2|0:0,0:0:0:0:
222,268,90632,70,0,L|235:191,1,44.4,2|0,0:0|0:0,0:0:0:0:
248,340,90813,2,0,L|307:389,1,44.4,10|0,0:0|0:0,0:0:0:0:
173,326,90994,2,0,L|99:352,1,44.4,2|0,0:0|0:0,0:0:0:0:
0,224,91174,6,0,P|95:202|150:268,1,166.5,2|0,1:2|0:0,0:0:0:0:
144,252,91355,70,0,L|132:188,1,49.949998475647,2|0,0:0|0:0,0:0:0:0:
32,118,91536,2,0,L|92:139,1,49.949998475647,10|0,0:0|0:0,0:0:0:0:
204,88,91716,2,0,L|154:129,1,49.949998475647,2|0,0:0|0:0,0:0:0:0:
88,2,91897,6,0,P|103:56|91:0,1,184.815004512085,2|0,1:2|0:0,0:0:0:0:
328,114,92078,70,0,P|310:163|324:112,1,162.615003597897,10|0,0:0|0:0,0:0:0:0:
135,202,92259,6,0,P|147:245|137:201,1,140.414998982283,10|0,0:0|0:0,0:0:0:0:
242,303,92440,70,0,P|231:340|239:302,1,118.215000450954,2|0,0:0|0:0,0:0:0:0:
147,364,92620,22,0,B|174:373|206:373|206:373|239:352|243:309|243:309|213:293|213:293|182:295|140:283|140:283|108:254|119:193|119:193|119:99|31:111|31:111|27:198|114:196|114:196|272:249|316:165|316:165|272:104|298:35|298:35|267:104|195:127|195:127|194:208|283:238|283:238|329:275|326:336|326:336|334:286|388:274,1,1476.29996057854,14|0,1:0|0:0,0:0:0:0:
461,93,95331,69,10,0:1:0:0:
438,124,95421,1,10,0:1:0:0:
402,138,95512,2,0,B|300:50|408:-102|567:-67|596:58|566:165|463:204|437:214|437:214|384:229|371:277|371:277|400:326|397:377|397:377|428:333|467:316|467:316|507:254|428:206,1,932.399971545411,14|0,1:0|0:0,0:0:0:0:
453,224,98042,6,0,P|306:209|154:197,1,299.699990853882,8|0,0:1|0:0,0:0:0:0:
66,159,98403,6,0,B|-32:228|-88:89|-2:22|100:64|107:138|71:200,1,355.2,14|0,1:0|1:2,0:0:0:0:
192,293,98945,1,0,0:0:0:0:
192,293,99126,2,0,P|143:234|166:184,2,122.100003726196,0|0|0,1:2|0:0|1:2,0:0:0:0:
0,328,99668,5,2,0:0:0:0:
3,320,99758,1,2,0:0:0:0:
6,312,99849,2,0,P|92:335|154:359,1,122.100003726196,2|0,1:2|0:0,0:0:0:0:
286,248,100210,1,0,1:2:0:0:
154,196,100390,1,0,0:0:0:0:
296,335,100572,2,0,P|366:291|373:242,2,122.100003726196,0|0|0,1:2|0:0|1:2,0:0:0:0:
154,196,101114,6,0,L|162:226,1,27.75,10|2,0:1|0:0,0:0:0:0:
163,234,101295,2,0,P|271:200|372:177,1,216.449990091706,14|0,1:0|0:0,0:0:0:0:
371,178,101656,53,0,1:2:0:0:
250,156,101837,1,0,0:0:0:0:
310,47,102018,5,0,1:2:0:0:
175,121,102199,1,0,0:0:0:0:
145,0,102379,5,0,1:2:0:0:
77,171,102560,2,0,L|93:232,1,33.2999989837647,2|2,0:0|0:0,0:0:0:0:
7,316,102741,53,10,1:1:0:0:
45,95,102921,1,0,0:0:0:0:
91,283,103102,5,0,1:2:0:0:
174,136,103282,1,0,0:0:0:0:
178,292,103463,5,0,1:2:0:0:
254,225,103643,1,0,0:0:0:0:
246,337,103825,53,0,1:2:0:0:
269,327,104005,1,0,0:0:0:0:
359,192,104186,69,2,0:0:0:0:
512,269,104367,69,0,0:0:0:0:
502,272,104548,1,0,0:0:0:0:
355,200,104728,5,2,0:0:0:0:
386,384,104909,1,2,0:0:0:0:
492,275,105090,69,0,0:0:0:0:
482,278,105271,1,0,0:0:0:0:
351,208,105451,5,2,0:0:0:0:
386,384,105632,1,2,0:0:0:0:
472,281,105813,69,0,0:0:0:0:
462,284,105994,1,0,0:0:0:0:
347,216,106174,5,2,0:0:0:0:
386,384,106355,1,2,0:0:0:0:
452,287,106535,69,0,0:0:0:0:
442,290,106716,1,0,0:0:0:0:
347,216,106897,5,2,0:0:0:0:
345,220,106987,1,2,0:0:0:0:
343,224,107078,1,2,0:0:0:0:
432,293,107258,69,0,0:0:0:0:
422,296,107439,1,0,0:0:0:0:
339,232,107620,5,2,0:0:0:0:
385,383,107801,1,2,0:0:0:0:
412,299,107981,69,0,0:0:0:0:
402,302,108162,1,0,0:0:0:0:
335,240,108343,5,2,0:0:0:0:
385,383,108524,1,2,0:0:0:0:
392,305,108704,69,0,0:0:0:0:
512,269,108885,1,2,0:0:0:0:
290,165,109066,5,0,0:0:0:0:
292,175,109156,1,0,0:0:0:0:
294,186,109247,1,2,0:0:0:0:
332,202,109337,1,0,0:0:0:0:
371,189,109427,1,0,0:0:0:0:
391,155,109518,1,0,0:0:0:0:
384,114,109609,1,2,0:0:0:0:
376,75,109699,1,0,0:0:0:0:
398,40,109790,1,0,0:0:0:0:
436,27,109880,1,0,0:0:0:0:
473,44,109969,70,0,P|493:229|505:376,1,333,2|0,0:0|0:0,0:0:0:0:
349,378,111234,6,0,L|354:346,1,27.75,2|2,0:0|0:0,0:0:0:0:
422,288,111415,2,0,B|337:288|296:196|296:196|330:294|253:348,1,333,2|0,0:0|0:0,0:0:0:0:
152,108,112861,70,0,B|58:173|7:42|88:-21|184:18|191:88|156:147,1,333,2|0,0:0|0:0,0:0:0:0:
4,205,114126,5,2,0:0:0:0:
6,196,114216,1,2,0:0:0:0:
8,187,114307,2,0,B|69:172|92:230|74:229|95:283|160:279,1,194.25,2|0,0:0|0:0,0:0:0:0:
172,276,115030,2,0,B|155:224|93:209|48:253|64:261|24:292|-12:271,1,194.25
0,275,115753,70,0,P|8:318|15:362,1,88.8,2|0,0:0|0:0,0:0:0:0:
128,177,116475,6,0,P|109:231|88:285,1,111,2|2,0:0|0:0,0:0:0:0:
90,281,116747,1,2,0:0:0:0:
90,281,116837,1,2,0:0:0:0:
330,139,117018,69,2,0:0:0:0:
330,139,117108,1,2,0:0:0:0:
330,139,117198,2,0,P|261:198|190:256,1,177.6,2|0,0:0|0:0,0:0:0:0:
418,341,117741,5,2,0:0:0:0:
512,238,117921,2,0,P|401:258|288:276,1,222,2|0,0:0|0:0,0:0:0:0:
501,371,118463,70,0,P|452:353|404:335,1,88.8,2|0,0:0|0:0,0:0:0:0:
193,252,118644,6,0,B|96:169|-36:273|48:424|200:411|240:298|210:224|270:174|354:187,1,532.8,6|0,0:1|0:0,0:0:0:0:
421,311,119909,69,2,0:0:0:0:
417,326,120007,5,2,0:0:0:0:
417,340,120117,70,0,B|545:430|617:249|504:163|372:217|362:313|410:394,1,444,2|0,0:0|0:0,0:0:0:0:
