osu file format v14

[General]
AudioFilename: audio.ogg
AudioLeadIn: 0
PreviewTime: 66235
Countdown: 0
SampleSet: Soft
StackLeniency: 0.7
Mode: 2
LetterboxInBreaks: 0
WidescreenStoryboard: 1

[Editor]
Bookmarks: 1175,3343,5512,7681,9849,14187,22861,27199,30452,31536,40211,57560,66235,69488,75271,81054,86837,92620,98403,104186,109969
DistanceSpacing: 0.9
BeatDivisor: 4
GridSize: 32
TimelineZoom: 4.099999

[Metadata]
Title:Vulnerability
TitleUnicode:Vulnerability
Artist:Mili
ArtistUnicode:Mili
Creator:Mniam
Version:Zonda's Overdose
Source:
Tags:fa featured artist instrumental violin miracle milk electronic piano mpg mappers' guild Benita bennybananas benny- Stardust Prism bighzonda zonda bigh 050 momocashew cassie wei yamato kasai indie projectmili
BeatmapID:4091382
BeatmapSetID:1971788

[Difficulty]
HPDrainRate:6
CircleSize:4.3
OverallDifficulty:9.4
ApproachRate:9.4
SliderMultiplier:1.8
SliderTickRate:2

[Events]
//Background and Video events
0,0,"violintypebeat.jpg",0,0
//Break Periods
//Storyboard Layer 0 (Background)
//Storyboard Layer 1 (Fail)
//Storyboard Layer 2 (Pass)
//Storyboard Layer 3 (Foreground)
//Storyboard Layer 4 (Overlay)
//Storyboard Sound Samples

[TimingPoints]
1175,361.44578313253,3,2,1,40,1,0
9849,-90.0900900900901,3,2,1,40,0,0
14187,-90.0900900900901,3,2,1,50,0,0
15271,-90.0900900900901,3,2,2,50,0,0
22861,-90.0900900900901,3,2,1,70,0,0
23223,-36.3636363636364,3,2,1,70,0,0
23584,-90.0900900900901,3,2,1,70,0,0
24307,-36.3636363636364,3,2,1,70,0,0
24668,-90.0900900900901,3,2,1,70,0,0
25030,-90.0900900900901,3,2,1,60,0,0
26114,-90.0900900900901,3,2,1,50,0,0
27199,-90.0900900900901,3,2,1,40,0,0
30452,-90.0900900900901,3,2,1,30,0,0
31536,-90.0900900900901,3,2,1,40,0,0
40211,-90.0900900900901,3,2,1,60,0,0
48162,-36.3636363636364,3,2,1,60,0,0
48434,-90.0900900900901,3,2,1,60,0,0
48524,-36.3636363636364,3,2,1,60,0,0
48795,-90.0900900900901,3,2,1,60,0,0
56837,-36.3636363636364,3,2,1,60,0,0
57108,-90.0900900900901,3,2,1,60,0,0
57199,-36.3636363636364,3,2,1,60,0,0
57470,-90.0900900900901,3,2,1,60,0,0
57560,-90.0900900900901,3,2,1,40,0,0
66235,-90.0900900900901,3,2,1,50,0,0
69126,-36.3636363636364,3,2,1,50,0,0
69488,361.44578313253,4,2,1,80,1,1
69488,-50,3,2,1,80,0,1
69668,-72.7272727272727,3,2,1,80,0,1
70210,-68.9655172413793,3,2,1,80,0,1
70572,-68.9655172413793,3,2,2,80,0,1
70933,-65.7894736842105,3,2,2,80,0,1
71656,-62.8930817610063,3,2,2,80,0,1
72379,-68.9655172413793,3,2,2,80,0,1
75090,-68.9655172413793,3,2,1,80,0,1
75271,-50,3,2,1,80,0,1
75512,-68.9655172413793,3,2,1,80,0,1
76355,-68.9655172413793,3,2,2,80,0,1
79247,-50,3,2,2,80,0,1
79608,-68.9655172413793,3,2,2,80,0,1
80692,-68.9655172413793,3,2,1,80,0,1
81054,-36.3636363636364,3,2,1,70,0,1
81415,-90.0900900900901,3,2,1,70,0,1
82138,-90.0900900900901,3,2,2,70,0,1
86656,-90.0900900900901,3,2,1,70,0,1
86837,-90.0900900900901,3,2,1,80,0,1
87921,-90.0900900900901,3,2,2,80,0,1
92259,-90.0900900900901,3,2,1,80,0,1
92620,-90.0900900900901,3,2,1,70,0,0
98403,-90.0900900900901,3,2,1,80,0,0
104186,-90.0900900900901,3,2,1,50,0,0
105632,-90.0900900900901,3,2,1,40,0,0
108524,-90.0900900900901,3,2,1,50,0,0
118644,-90.0900900900901,3,2,1,80,0,0
119909,392.156862745098,4,2,1,60,1,0
120117,392.156862745098,4,2,1,40,1,0
120901,-100,4,2,1,20,0,0
121293,-100,4,2,1,15,0,0
121685,-100,4,2,1,10,0,0
122077,-100,4,2,1,5,0,0

[Colours]
Combo1 : 63,109,156
Combo2 : 222,213,99
Combo3 : 169,40,37
Combo4 : 151,82,36

[HitObjects]
122,283,1175,5,2,1:2:0:0:
122,283,1536,2,0,L|231:273,1,90
403,205,1897,2,0,L|287:195,1,90,2|0,0:0|0:0,0:0:0:0:
122,143,2259,2,0,P|196:122|498:164,1,360,2|2,0:0|0:0,0:0:0:0:
53,253,3343,5,6,1:3:0:0:
175,243,3524,1,0,0:0:0:0:
211,166,3705,1,0,0:0:0:0:
175,243,3885,1,0,0:0:0:0:
53,253,4066,1,2,0:0:0:0:
175,243,4247,1,0,0:0:0:0:
368,239,4428,6,0,L|359:134,1,90,2|0,0:0|0:0,0:0:0:0:
182,163,4789,2,0,L|173:58,1,90,2|0,0:0|0:0,0:0:0:0:
267,112,5150,2,0,L|258:7,1,90,2|0,0:0|0:0,0:0:0:0:
13,152,5512,5,2,1:2:0:0:
105,153,5693,2,0,L|53:71,2,90
307,236,6235,1,2,0:0:0:0:
307,236,6596,2,0,P|194:220|19:24,1,360,2|2,0:0|0:0,0:0:0:0:
459,253,7681,5,6,1:3:0:0:
337,243,7862,1,0,0:0:0:0:
301,166,8043,1,0,0:0:0:0:
337,243,8223,1,0,0:0:0:0:
459,253,8404,1,2,0:0:0:0:
337,243,8585,1,2,0:0:0:0:
144,239,8766,6,0,L|43:230,1,90,2|0,0:0|0:0,0:0:0:0:
241,167,9127,2,0,L|364:162,1,90,2|0,0:0|0:0,0:0:0:0:
223,111,9488,2,0,L|211:1,1,90,2|0,0:0|0:0,0:0:0:0:
491,41,9849,5,6,1:2:0:0:
509,75,9940,1,0,0:0:0:0:
491,41,10030,1,0,0:0:0:0:
388,92,10211,2,0,L|264:104,1,99.9000024389649,2|0,0:0|0:0,0:0:0:0:
391,182,10572,2,0,L|515:194,1,99.9000024389649,2|0,0:0|0:0,0:0:0:0:
278,245,10934,6,0,L|154:257,1,99.9000024389649,2|0,0:0|0:0,0:0:0:0:
75,165,11295,2,0,L|199:177,1,99.9000024389649,2|0,0:0|0:0,0:0:0:0:
287,124,11656,1,2,0:0:0:0:
184,111,11837,1,8,0:3:0:0:
287,124,11928,1,8,0:3:0:0:
389,136,12018,6,0,L|412:249,1,99.9000024389649,14|0,0:3|0:0,0:0:0:0:
301,230,12379,2,0,L|188:257,1,99.9000024389649,2|0,0:0|0:0,0:0:0:0:
326,30,12741,2,0,L|439:57,1,99.9000024389649,2|0,0:0|0:0,0:0:0:0:
211,154,13102,6,0,L|170:35,1,99.9000024389649,2|0,0:0|0:0,0:0:0:0:
301,154,13464,2,0,L|342:35,2,99.9000024389649,2|2|2,0:0|0:0|0:0,0:0:0:0:
62,217,14006,1,10,0:0:0:0:
302,288,14187,6,0,L|425:273,1,99.9000024389649,14|0,1:2|0:0,0:0:0:0:
423,209,14458,1,0,0:0:0:0:
401,138,14548,2,0,L|278:123,1,99.9000024389649,2|0,0:0|0:0,0:0:0:0:
89,48,14909,2,0,L|100:177,1,99.9000024389649,2|2,1:2|0:0,0:0:0:0:
340,340,15271,6,0,B|240:313|128:341|128:341|143:276|192:219|192:219|99:228|41:204,1,499.500012194825,10|2,1:2|0:0,0:0:0:0:
151,144,16265,1,2,0:0:0:0:
251,130,16355,6,0,P|363:155|292:286,1,299.700007316895,2|0,1:2|0:0,0:0:0:0:
485,34,17078,2,0,L|354:33,1,99.9000024389649,8|0,0:0|0:0,0:0:0:0:
127,131,17440,6,0,P|224:134|287:243,1,199.80000487793,10|2,1:2|0:2,0:0:0:0:
179,226,17982,1,0,0:0:0:0:
464,237,18162,1,10,1:2:0:0:
46,237,18524,6,0,B|42:177|49:127|49:127|107:142|154:125,1,199.80000487793,14|2,1:2|0:2,0:0:0:0:
190,70,19066,1,0,0:0:0:0:
87,10,19247,2,0,L|102:131,1,99.9000024389649,2|2,1:2|0:2,0:0:0:0:
305,277,19608,6,0,P|232:252|348:88,1,349.650008536377,2|0,1:2|0:0,0:0:0:0:
433,99,20331,1,2,0:2:0:0:
328,163,20512,1,0,0:0:0:0:
64,273,20693,6,0,L|289:249,2,199.80000487793,10|0|2,1:2|0:0|0:2,0:0:0:0:
112,191,21596,1,0,0:0:0:0:
321,203,21777,5,2,1:2:0:0:
446,199,21958,1,0,0:0:0:0:
497,114,22138,1,0,0:0:0:0:
446,199,22319,1,0,0:0:0:0:
321,203,22500,1,2,0:2:0:0:
112,191,22681,1,0,0:0:0:0:
372,79,22861,6,0,P|420:134|361:190,1,149.850003658447,6|0,1:2|0:0,0:0:0:0:
211,237,23223,2,0,B|336:216|458:233|458:233|402:188|399:120,1,371.250003540516,10|0,0:3|0:0,0:0:0:0:
228,115,23584,1,10,1:3:0:0:
294,106,23674,1,0,0:0:0:0:
319,53,23765,1,0,0:0:0:0:
172,59,23946,6,0,P|124:114|183:170,1,149.850003658447,6|0,1:2|0:0,0:0:0:0:
333,217,24307,2,0,B|208:196|86:213|86:213|142:168|145:100,1,371.250003540516,10|0,0:3|0:0,0:0:0:0:
312,95,24668,2,0,P|367:132|335:230,1,149.850003658447,10|0,1:3|0:0,0:0:0:0:
178,218,25030,5,2,1:2:0:0:
348,265,25211,1,2,0:2:0:0:
294,271,25301,1,2,0:2:0:0:
370,337,25391,1,2,0:2:0:0:
247,331,25572,1,2,0:2:0:0:
68,295,25753,1,2,1:2:0:0:
191,289,25934,1,2,0:2:0:0:
405,266,26114,6,0,P|294:261|152:22,1,399.60000975586,2|2,1:2|1:2,0:0:0:0:
254,35,27018,1,2,0:0:0:0:
40,140,27199,6,0,P|79:203|230:237,2,199.80000487793,2|2|2,0:0|0:0|0:2,0:0:0:0:
147,118,28102,1,2,0:2:0:0:
343,106,28283,6,0,B|369:141|429:137|429:137|348:153|289:174|251:233|268:347,1,399.60000975586,2|2,0:2|0:2,0:0:0:0:
369,336,29187,1,0,0:0:0:0:
162,335,29367,6,0,P|166:265|370:180,1,299.700007316895,2|0,0:2|0:0,0:0:0:0:
248,85,30090,2,0,L|108:76,1,99.9000024389649,2|0,0:2|0:0,0:0:0:0:
354,41,30452,6,0,L|361:104,1,49.9500012194825,2|2,0:2|0:2,0:0:0:0:
209,173,30813,2,0,L|216:236,1,49.9500012194825,2|2,0:2|0:2,0:0:0:0:
354,41,31174,2,0,L|361:104,1,49.9500012194825,2|2,0:2|0:2,0:0:0:0:
315,118,31355,2,0,L|248:122,1,49.9500012194825
418,311,31536,6,0,P|466:272|313:48,1,399.60000975586,2|2,0:2|0:2,0:0:0:0:
436,63,32440,1,2,0:2:0:0:
227,271,32620,6,0,P|225:205|230:272,1,199.80000487793,2|2,0:2|0:2,0:0:0:0:
144,275,33162,1,0,0:0:0:0:
44,271,33343,2,0,L|98:165,1,99.9000024389649,2|0,0:2|0:0,0:0:0:0:
301,70,33705,6,0,P|257:223|233:68,1,399.60000975586,2|2,0:2|0:2,0:0:0:0:
301,70,34608,1,2,0:2:0:0:
95,310,34789,6,0,B|108:209|72:112|72:112|118:69|163:83|163:83|126:111|63:74,1,399.60000975586,2|2,0:2|0:2,0:0:0:0:
372,40,35873,6,0,P|371:170|138:284,1,399.60000975586,2|2,0:2|0:2,0:0:0:0:
55,269,36777,1,2,0:2:0:0:
263,56,36958,6,0,P|318:60|329:338,1,399.60000975586,2|2,0:2|0:2,0:0:0:0:
45,187,38042,6,0,P|256:188|349:19,1,399.60000975586,6|2,0:3|0:2,0:0:0:0:
246,35,38946,1,2,0:2:0:0:
457,39,39126,6,0,L|471:163,1,99.9000024389649,2|0,0:2|0:0,0:0:0:0:
267,161,39488,2,0,L|281:285,1,99.9000024389649,2|0,0:2|0:0,0:0:0:0:
78,94,39849,2,0,L|96:250,1,149.850003658447,2|0,0:2|0:0,0:0:0:0:
279,256,40211,5,14,1:2:0:0:
361,250,40301,1,0,0:0:0:0:
438,232,40391,1,2,0:0:0:0:
398,182,40482,1,0,0:0:0:0:
323,169,40572,1,2,1:2:0:0:
233,104,40662,1,0,0:0:0:0:
193,154,40753,1,2,0:2:0:0:
233,104,40844,1,0,0:0:0:0:
326,87,40934,1,2,1:2:0:0:
387,85,41024,1,0,0:0:0:0:
299,55,41114,1,2,1:2:0:0:
239,50,41205,1,0,0:0:0:0:
447,149,41295,5,2,1:2:0:0:
244,202,41656,1,10,1:3:0:0:
413,268,41837,1,0,0:0:0:0:
446,263,41882,1,0,0:0:0:0:
459,228,41928,1,0,0:0:0:0:
446,263,41973,1,0,0:0:0:0:
413,268,42018,1,14,1:3:0:0:
156,273,42199,1,10,0:2:0:0:
455,118,42379,6,0,L|313:104,1,99.9000024389649,14|0,1:2|0:0,0:0:0:0:
164,102,42741,2,0,L|162:221,1,99.9000024389649,2|0,1:0|0:0,0:0:0:0:
353,247,43102,1,2,1:0:0:0:
162,201,43283,1,0,1:0:0:0:
353,247,43464,6,0,P|344:153|266:116,1,149.850003658447,2|0,1:0|0:0,0:0:0:0:
120,42,43825,2,0,L|303:38,1,149.850003658447,10|0,1:3|0:0,0:0:0:0:
81,119,44187,1,10,1:3:0:0:
501,248,44548,5,6,1:2:0:0:
331,246,44729,2,0,L|315:184,1,49.9500012194825,2|0,0:0|0:0,0:0:0:0:
424,183,44909,1,2,1:2:0:0:
397,128,45000,1,0,0:0:0:0:
341,110,45090,1,2,0:0:0:0:
265,104,45181,1,0,0:0:0:0:
158,103,45271,2,0,L|185:174,1,49.9500012194825,2|0,1:2|0:0,0:0:0:0:
290,167,45452,2,0,L|317:238,1,49.9500012194825,2|0,1:2|0:0,0:0:0:0:
150,315,45632,6,0,L|75:146,1,149.850003658447,2|0,1:2|0:0,0:0:0:0:
68,152,45994,2,0,L|194:148,1,99.9000024389649,10|2,1:3|0:2,0:0:0:0:
362,151,46355,1,14,1:3:0:0:
81,61,46536,1,10,0:2:0:0:
362,151,46717,5,14,1:2:0:0:
264,193,46897,1,0,0:0:0:0:
465,324,47078,2,0,L|445:199,1,99.9000024389649,2|0,1:2|0:0,0:0:0:0:
264,193,47440,1,2,1:2:0:0:
455,210,47620,1,0,1:0:0:0:
208,54,47801,6,0,L|340:42,1,99.9000024389649,2|0,1:2|0:0,0:0:0:0:
57,218,48162,2,0,B|311:214|311:214|234:112,1,371.250003540516,10|0,1:3|0:0,0:0:0:0:
417,218,48524,2,0,B|163:214|163:214|240:112,1,371.250003540516,10|0,1:3|0:0,0:0:0:0:
387,99,48885,6,0,L|464:92,1,49.9500012194825,14|0,1:2|0:0,0:0:0:0:
333,56,49066,2,0,L|258:51,1,49.9500012194825,2|0,0:0|0:0,0:0:0:0:
176,51,49247,1,2,1:2:0:0:
243,97,49337,1,0,0:0:0:0:
272,169,49428,1,2,0:2:0:0:
243,238,49518,1,0,0:0:0:0:
134,276,49608,2,0,L|63:276,1,49.9500012194825,2|0,1:2|0:0,0:0:0:0:
198,324,49789,2,0,L|269:324,1,49.9500012194825,2|0,1:2|0:0,0:0:0:0:
432,202,49970,5,2,1:2:0:0:
465,197,50015,1,0,0:0:0:0:
478,162,50061,1,0,0:0:0:0:
465,123,50106,1,0,0:0:0:0:
432,118,50151,1,0,0:0:0:0:
263,118,50332,1,10,1:3:0:0:
432,118,50512,1,0,0:0:0:0:
330,89,50693,1,14,1:3:0:0:
86,64,50873,1,10,0:2:0:0:
330,89,51054,6,0,L|471:97,1,99.9000024389649,14|0,1:2|0:0,0:0:0:0:
232,283,51415,2,0,L|208:169,1,99.9000024389649,2|0,1:0|0:0,0:0:0:0:
21,180,51777,1,2,1:0:0:0:
181,150,51958,1,0,1:0:0:0:
21,180,52138,5,2,1:0:0:0:
491,180,52500,1,10,1:3:0:0:
21,180,52861,1,10,1:3:0:0:
491,180,53223,5,6,1:2:0:0:
321,184,53403,2,0,L|248:181,1,49.9500012194825,2|0,0:0|0:0,0:0:0:0:
382,85,53584,2,0,L|398:157,1,49.9500012194825,2|0,1:2|0:0,0:0:0:0:
288,254,53765,1,2,0:0:0:0:
209,249,53855,1,0,0:0:0:0:
310,254,53946,1,2,1:2:0:0:
409,259,54036,1,0,0:0:0:0:
310,254,54126,1,2,1:2:0:0:
288,254,54217,1,0,0:0:0:0:
465,57,54307,6,0,L|468:294,1,199.80000487793,2|10,1:2|1:3,0:0:0:0:
363,137,54849,1,2,0:2:0:0:
193,132,55030,1,14,1:3:0:0:
465,57,55211,1,10,0:2:0:0:
178,239,55391,6,0,L|319:238,1,99.9000024389649,14|0,1:2|0:0,0:0:0:0:
470,236,55753,2,0,L|469:124,1,99.9000024389649,2|0,1:2|0:0,0:0:0:0:
284,113,56114,1,2,1:2:0:0:
98,104,56295,1,0,1:0:0:0:
361,199,56476,5,2,1:2:0:0:
57,218,56837,2,0,B|311:214|311:214|234:112,1,371.250003540516,10|0,1:3|0:0,0:0:0:0:
417,218,57199,2,0,B|163:214|163:214|240:112,1,371.250003540516,10|0,1:3|0:0,0:0:0:0:
318,98,57560,6,0,P|397:107|294:310,1,399.60000975586,2|2,1:0|0:0,0:0:0:0:
172,311,58464,1,2,0:0:0:0:
15,303,58644,6,0,L|10:182,1,99.9000024389649,2|0,0:0|0:0,0:0:0:0:
115,189,59006,2,0,L|160:72,1,99.9000024389649,2|0,0:0|0:0,0:0:0:0:
255,147,59367,2,0,L|374:80,1,99.9000024389649,2|0,0:0|0:0,0:0:0:0:
140,303,59729,6,0,P|75:244|263:71,1,399.60000975586,2|2,0:0|0:0,0:0:0:0:
385,77,60632,1,2,0:0:0:0:
226,120,60813,5,2,0:0:0:0:
126,141,60994,1,0,0:0:0:0:
81,219,61174,1,2,0:0:0:0:
126,304,61355,1,0,0:0:0:0:
226,334,61536,1,2,0:0:0:0:
231,331,61626,1,0,0:0:0:0:
499,235,61897,6,0,L|267:221,2,199.80000487793,2|2|2,0:0|0:0|0:0,0:0:0:0:
164,113,62982,6,0,L|396:99,1,199.80000487793,2|0,0:0|0:0,0:0:0:0:
263,107,63524,1,0,0:0:0:0:
164,113,63705,1,2,0:0:0:0:
263,107,63885,1,0,0:0:0:0:
60,293,64066,6,0,B|118:161|326:208|373:58,1,399.60000975586,2|2,0:0|0:0,0:0:0:0:
271,74,64970,1,0,0:0:0:0:
478,80,65150,5,2,0:0:0:0:
453,166,65331,1,0,0:0:0:0:
375,198,65512,1,0,0:0:0:0:
267,205,65693,1,0,0:0:0:0:
104,206,65873,2,0,B|73:165|30:155|30:155|62:139|80:104,1,149.850003658447,2|0,0:0|0:0,0:0:0:0:
256,64,66235,5,2,0:0:0:0:
495,64,66415,1,0,0:0:0:0:
256,64,66596,1,2,0:0:0:0:
160,64,66777,1,0,0:0:0:0:
256,64,66958,1,2,0:0:0:0:
256,64,67138,1,0,0:0:0:0:
0,160,67319,5,2,0:0:0:0:
256,160,67499,1,0,0:0:0:0:
352,160,67681,1,2,0:0:0:0:
256,160,67861,1,0,0:0:0:0:
160,160,68042,1,2,0:0:0:0:
256,160,68223,1,0,0:0:0:0:
495,255,68403,5,2,0:0:0:0:
352,256,68584,1,0,0:0:0:0:
98,256,68765,1,2,0:0:0:0:
192,256,68946,1,0,0:0:0:0:
480,352,69126,2,0,P|400:192|480:32,1,371.250003540516,8|0,0:0|0:0,0:0:0:0:
256,32,69488,6,0,L|63:30,1,180,12|2,1:2|0:2,0:0:0:0:
145,100,69759,1,2,0:2:0:0:
336,165,69849,2,0,L|177:163,1,123.750001180172,2|2,1:2|0:2,0:0:0:0:
419,86,70210,2,0,L|318:83,2,87.0000026550294,2|0|0,1:2|0:0|0:0,0:0:0:0:
219,262,70572,2,0,L|321:255,2,87.0000026550294,8|0|0,1:2|0:0|0:0,0:0:0:0:
22,157,70933,5,2,1:2:0:0:
222,150,71054,2,0,L|232:44,1,91.1999988867188,2|2,0:2|0:2,0:0:0:0:
433,260,71295,1,2,1:2:0:0:
233,252,71415,2,0,L|345:244,1,91.1999988867188,2|2,0:2|0:2,0:0:0:0:
114,161,71656,2,0,L|215:146,2,95.4000001455689,2|2|2,1:2|0:2|0:2,0:0:0:0:
313,72,72018,1,2,1:2:0:0:
101,163,72138,1,2,0:2:0:0:
309,250,72259,1,2,0:2:0:0:
81,83,72379,5,6,1:2:0:0:
135,82,72439,1,0,0:0:0:0:
191,80,72500,1,0,0:0:0:0:
247,76,72560,1,0,0:0:0:0:
191,80,72620,1,0,0:0:0:0:
135,82,72680,1,0,0:0:0:0:
81,83,72741,2,0,L|194:81,2,87.0000026550294,2|0|0,1:2|0:0|0:0,0:0:0:0:
280,256,73102,1,2,1:2:0:0:
157,265,73222,2,0,L|180:139,1,87.0000026550294
375,121,73463,1,10,1:2:0:0:
286,128,73584,1,0,0:0:0:0:
375,121,73704,1,0,0:0:0:0:
177,107,73825,5,0,1:2:0:0:
72,187,73945,2,0,L|195:193,1,87.0000026550294,2|2,0:2|0:2,0:0:0:0:
354,209,74186,1,2,1:2:0:0:
145,190,74307,1,2,0:2:0:0:
158,144,74367,1,0,0:0:0:0:
187,117,74427,1,2,0:2:0:0:
237,108,74488,1,0,0:0:0:0:
390,75,74548,2,0,P|426:160|354:215,1,174.000005310059,2|0,1:2|0:0,0:0:0:0:
167,260,74909,1,2,1:2:0:0:
468,283,75090,1,8,0:2:0:0:
71,196,75271,6,0,L|380:109,1,240,12|2,1:2|0:2,0:0:0:0:
109,89,75632,1,2,1:2:0:0:
301,70,75753,1,2,0:2:0:0:
492,57,75873,1,2,0:2:0:0:
301,70,75994,1,2,1:2:0:0:
391,59,76114,2,0,L|408:188,1,87.0000026550294,0|2,0:0|0:2,0:0:0:0:
201,219,76355,2,0,L|365:227,2,87.0000026550294,8|0|2,1:2|0:0|0:2,0:0:0:0:
15,166,76716,5,2,1:2:0:0:
146,160,76837,2,0,L|157:46,1,87.0000026550294
349,286,77078,1,2,1:2:0:0:
480,282,77199,2,0,L|491:168,1,87.0000026550294,0|2,0:0|0:2,0:0:0:0:
292,174,77439,1,2,1:2:0:0:
490,111,77560,2,0,L|381:102,1,87.0000026550294,2|2,0:2|0:2,0:0:0:0:
208,55,77801,2,0,L|340:47,1,87.0000026550294,2|2,1:2|0:2,0:0:0:0:
89,243,78042,1,2,0:2:0:0:
300,282,78162,5,6,1:2:0:0:
399,269,78253,1,0,1:2:0:0:
427,204,78343,1,0,1:2:0:0:
399,269,78433,1,0,1:2:0:0:
300,282,78524,1,2,1:2:0:0:
183,281,78644,1,0,0:0:0:0:
300,282,78765,1,0,0:0:0:0:
109,193,78885,1,2,1:2:0:0:
240,194,79006,2,0,L|251:72,1,87.0000026550294
62,69,79247,2,0,L|375:63,1,240,10|0,1:2|0:0,0:0:0:0:
210,62,79608,5,2,1:2:0:0:
407,249,79789,2,0,L|303:248,1,65.250001991272,10|0,0:2|0:0,0:0:0:0:
163,182,79969,2,0,L|76:189,1,65.250001991272,8|0,1:2|0:0,0:0:0:0:
276,249,80150,2,0,L|362:248,1,65.250001991272,2|0,0:2|0:0,0:0:0:0:
154,170,80331,2,0,L|67:177,1,65.250001991272,0|0,1:2|0:0,0:0:0:0:
280,157,80512,2,0,L|287:70,1,65.250001991272,2|0,0:2|0:0,0:0:0:0:
107,52,80692,2,0,L|194:45,1,65.250001991272,8|0,1:2|0:0,0:0:0:0:
245,34,80873,2,0,L|332:27,1,65.250001991272
143,262,81054,6,0,B|393:261|393:261|338:136,1,371.250003540516,6|0,1:2|0:0,0:0:0:0:
257,134,81415,2,0,L|243:15,1,99.9000024389649,0|0,1:2|0:0,0:0:0:0:
428,175,81777,2,0,L|442:56,1,99.9000024389649,2|0,1:2|0:0,0:0:0:0:
384,60,82048,1,0,0:0:0:0:
227,220,82138,2,0,L|365:219,1,99.9000024389649,8|0,1:2|0:0,0:0:0:0:
117,136,82500,6,0,L|1:126,2,99.9000024389649,2|0|2,1:2|0:0|1:2,0:0:0:0:
218,137,83042,1,0,0:0:0:0:
318,141,83132,1,0,0:0:0:0:
413,137,83222,2,0,L|529:127,2,99.9000024389649,0|2|0,1:2|0:2|1:0,0:0:0:0:
162,240,83765,1,8,0:2:0:0:
403,255,83945,6,0,P|287:210|264:109,1,199.80000487793,6|0,1:2|1:2,0:0:0:0:
354,117,84488,1,0,0:0:0:0:
190,79,84668,2,0,L|54:71,1,99.9000024389649,2|0,1:2|0:2,0:0:0:0:
286,202,85030,2,0,L|161:197,1,99.9000024389649,8|0,1:2|0:2,0:0:0:0:
439,198,85391,6,0,L|450:70,1,99.9000024389649,2|0,1:2|0:2,0:0:0:0:
296,79,85662,1,0,0:0:0:0:
145,196,85753,2,0,L|134:68,1,99.9000024389649,2|0,1:2|0:2,0:0:0:0:
227,80,86024,1,0,0:0:0:0:
309,196,86114,2,0,L|320:68,1,99.9000024389649,2|0,1:2|0:2,0:0:0:0:
267,83,86385,1,0,0:0:0:0:
217,78,86475,1,2,1:2:0:0:
468,46,86656,1,8,0:2:0:0:
136,42,86837,6,0,L|18:40,1,99.9000024389649,14|0,1:2|0:0,0:0:0:0:
272,186,87198,2,0,L|154:184,1,99.9000024389649,2|0,1:2|0:0,0:0:0:0:
356,102,87560,2,0,L|238:100,1,99.9000024389649,2|0,1:2|0:0,0:0:0:0:
501,39,87921,1,10,1:2:0:0:
256,37,88102,1,2,0:2:0:0:
11,31,88283,6,0,L|154:36,1,99.9000024389649,2|0,1:2|0:0,0:0:0:0:
353,115,88644,2,0,L|485:124,1,99.9000024389649,2|0,1:2|0:0,0:0:0:0:
245,200,89006,2,0,L|377:209,1,99.9000024389649,2|0,1:2|0:0,0:0:0:0:
144,109,89367,1,2,1:2:0:0:
398,45,89548,1,10,0:2:0:0:
304,43,89638,1,0,0:0:0:0:
146,47,89728,6,0,L|11:57,1,99.9000024389649,6|0,1:2|0:0,0:0:0:0:
208,158,90000,1,2,0:2:0:0:
368,105,90090,2,0,L|293:111,1,49.9500012194825,0|0,1:0|0:0,0:0:0:0:
135,241,90271,2,0,L|210:247,1,49.9500012194825,2|0,0:2|0:0,0:0:0:0:
386,258,90451,2,0,L|506:262,1,99.9000024389649,2|2,1:2|0:2,0:0:0:0:
245,32,90813,2,0,L|365:36,1,99.9000024389649,10|2,1:2|0:2,0:0:0:0:
36,147,91174,5,2,1:2:0:0:
203,113,91355,1,2,0:2:0:0:
453,204,91536,1,10,1:2:0:0:
286,170,91717,1,2,0:2:0:0:
453,204,91897,1,2,1:2:0:0:
203,113,92078,1,10,0:2:0:0:
453,204,92259,1,10,1:2:0:0:
286,170,92439,1,2,0:2:0:0:
368,149,92530,1,2,0:2:0:0:
162,281,92620,6,0,P|100:248|126:118,1,199.80000487793,14|2,1:2|0:0,0:0:0:0:
209,109,93162,1,2,0:0:0:0:
400,106,93343,2,0,L|282:104,1,99.9000024389649,0|2,0:2|0:0,0:0:0:0:
489,300,93704,6,0,P|485:240|352:155,1,199.80000487793,2|0,0:0|0:2,0:0:0:0:
278,148,94247,1,2,0:0:0:0:
383,155,94427,2,0,P|467:205|489:300,1,199.80000487793,2|0,0:0|0:2,0:0:0:0:
383,296,94969,2,0,L|160:282,1,199.80000487793,2|8,0:0|0:2,0:0:0:0:
331,219,95421,1,8,0:2:0:0:
479,189,95512,6,0,B|437:148|224:159|187:93,1,299.700007316895,12|0,1:2|0:0,0:0:0:0:
292,62,96234,1,2,0:2:0:0:
125,49,96415,1,2,0:2:0:0:
68,128,96596,1,2,0:2:0:0:
125,49,96777,1,2,0:2:0:0:
292,62,96957,5,2,0:2:0:0:
192,240,97138,2,0,L|183:129,1,99.9000024389649,0|2,0:2|0:2,0:0:0:0:
288,276,97500,2,0,L|279:165,1,99.9000024389649,0|2,0:2|0:2,0:0:0:0:
380,150,97861,1,0,0:2:0:0:
183,145,98042,1,10,0:2:0:0:
380,150,98222,1,0,0:2:0:0:
94,302,98403,6,0,L|85:71,1,199.80000487793,14|0,0:2|1:2,0:0:0:0:
191,88,98945,1,0,0:2:0:0:
390,72,99126,1,0,1:0:0:0:
289,78,99307,1,0,0:2:0:0:
241,178,99487,1,0,1:2:0:0:
289,78,99668,1,2,0:2:0:0:
390,72,99759,1,2,0:2:0:0:
289,78,99849,6,0,L|76:88,2,199.80000487793,2|0|0,1:2|1:2|1:2,0:0:0:0:
390,72,100753,1,0,0:2:0:0:
289,78,100933,1,0,1:2:0:0:
139,89,101114,1,10,0:2:0:0:
289,78,101204,1,2,0:2:0:0:
472,182,101295,6,0,L|246:181,2,199.80000487793,14|0|0,1:2|1:2|1:2,0:0:0:0:
368,182,102198,1,0,0:2:0:0:
418,111,102379,1,0,1:2:0:0:
507,109,102560,1,2,0:2:0:0:
357,99,102650,1,2,0:2:0:0:
204,77,102741,6,0,L|195:206,1,99.9000024389649,14|0,1:2|0:2,0:0:0:0:
354,260,103102,2,0,L|254:253,1,99.9000024389649,0|0,1:2|0:2,0:0:0:0:
98,193,103463,2,0,L|226:189,1,99.9000024389649,0|0,1:2|0:2,0:0:0:0:
42,352,103825,2,0,L|40:237,1,99.9000024389649,0|0,1:2|0:0,0:0:0:0:
320,192,104186,5,2,0:2:0:0:
170,192,104367,1,0,0:0:0:0:
170,192,104548,1,0,0:0:0:0:
21,189,104728,1,2,0:2:0:0:
320,192,104909,1,2,0:2:0:0:
170,192,105090,1,0,0:0:0:0:
170,192,105271,1,0,0:0:0:0:
21,189,105451,1,2,0:2:0:0:
320,192,105632,5,2,0:2:0:0:
224,192,105813,1,0,0:0:0:0:
224,192,105994,1,0,0:0:0:0:
128,192,106174,1,2,0:2:0:0:
320,192,106355,1,2,0:2:0:0:
224,192,106536,1,0,0:0:0:0:
224,192,106717,1,0,0:0:0:0:
128,192,106897,1,2,0:2:0:0:
224,192,106987,1,2,0:2:0:0:
320,192,107078,5,2,0:2:0:0:
224,192,107259,1,0,0:0:0:0:
224,192,107440,1,0,0:0:0:0:
128,192,107620,1,2,0:2:0:0:
320,192,107801,1,2,0:2:0:0:
224,192,107982,1,0,0:0:0:0:
224,192,108163,1,0,0:0:0:0:
128,192,108343,1,2,0:2:0:0:
416,192,108524,5,2,0:2:0:0:
320,192,108704,1,2,0:2:0:0:
32,192,108885,1,2,0:2:0:0:
128,192,109065,1,2,0:2:0:0:
189,192,109156,1,2,0:2:0:0:
384,192,109247,1,2,0:2:0:0:
320,192,109337,1,2,0:2:0:0:
223,192,109427,1,2,0:2:0:0:
213,255,109518,1,2,0:2:0:0:
320,192,109608,1,2,0:2:0:0:
384,192,109698,1,2,0:2:0:0:
221,193,109789,1,2,0:2:0:0:
160,192,109879,1,2,0:2:0:0:
320,192,109969,6,0,P|355:143|96:177,1,699.300017072754,2|2,0:2|0:2,0:0:0:0:
192,189,111325,1,0,0:0:0:0:
293,224,111415,6,0,B|395:213|395:213|224:189|109:126|99:74|130:38|187:45|228:86|219:123|205:159|205:159|118:168|32:243,1,699.300017072754,2|0,0:2|0:0,0:0:0:0:
268,318,112861,6,0,P|238:79|226:322,1,699.300017072754,2|2,0:2|0:2,0:0:0:0:
308,319,114216,1,2,0:2:0:0:
411,322,114307,6,0,B|362:219|362:219|143:189|143:189|71:30|71:30|317:56,1,749.250018292237,2|0,0:2|0:0,0:0:0:0:
131,333,115753,6,0,P|111:277|214:195,1,199.80000487793,2|0,0:2|0:0,0:0:0:0:
490,283,116475,2,0,L|482:169,1,99.9000024389649,2|0,0:2|0:0,0:0:0:0:
391,181,116747,1,0,0:0:0:0:
301,177,116837,2,0,L|309:63,1,99.9000024389649,0|2,0:0|0:2,0:0:0:0:
196,71,117109,1,2,0:2:0:0:
87,167,117198,6,0,L|95:53,1,99.9000024389649,2|0,0:2|0:0,0:0:0:0:
196,71,117560,1,0,0:0:0:0:
6,66,117741,1,0,0:0:0:0:
196,71,117921,2,0,L|209:378,1,299.700007316895,2|2,0:2|1:2,0:0:0:0:
360,366,118554,1,2,0:2:0:0:
208,370,118644,6,0,P|381:336|146:118,1,699.300017072754,6|2,1:2|1:2,0:0:0:0:
317,178,120007,1,2,0:2:0:0:
493,230,120117,2,0,P|409:212|494:52,1,330,2|0,1:2|0:0,0:0:0:0:
256,192,120901,12,0,122371,0:0:0:0:
