osu file format v14

[General]
AudioFilename: audio.ogg
AudioLeadIn: 0
PreviewTime: 66235
Countdown: 0
SampleSet: Soft
StackLeniency: 0.7
Mode: 2
LetterboxInBreaks: 0
WidescreenStoryboard: 0

[Editor]
DistanceSpacing: 1
BeatDivisor: 4
GridSize: 32
TimelineZoom: 2.7

[Metadata]
Title:Vulnerability
TitleUnicode:Vulnerability
Artist:Mili
ArtistUnicode:Mili
Creator:Mniam
Version:Stardust Prism's Salad
Source:
Tags:fa featured artist instrumental violin miracle milk electronic piano mpg mappers' guild Benita bennybananas benny- Stardust Prism bighzonda zonda bigh 050 momocashew cassie wei yamato kasai indie projectmili
BeatmapID:4091381
BeatmapSetID:1971788

[Difficulty]
HPDrainRate:3
CircleSize:3
OverallDifficulty:7
ApproachRate:7
SliderMultiplier:1.45
SliderTickRate:1

[Events]
//Background and Video events
0,0,"violintypebeat.jpg",0,0
//Break Periods
//Storyboard Layer 0 (Background)
//Storyboard Layer 1 (Fail)
//Storyboard Layer 2 (Pass)
//Storyboard Layer 3 (Foreground)
//Storyboard Layer 4 (Overlay)
//Storyboard Sound Samples

[TimingPoints]
1175,361.44578313253,3,2,1,40,1,0
14187,-100,3,2,1,50,0,0
15271,-100,3,2,2,50,0,0
22861,-100,3,2,1,70,0,0
25030,-100,3,2,1,60,0,0
26114,-100,3,2,1,50,0,0
27199,-100,3,2,1,40,0,0
30452,-100,3,2,1,30,0,0
31536,-100,3,2,1,40,0,0
40211,-100,3,2,1,60,0,0
57560,-100,3,2,1,40,0,0
66235,-100,3,2,1,50,0,0
69488,361.44578313253,4,2,1,80,1,1
70572,-100,4,2,2,80,0,1
75090,-100,4,2,1,80,0,1
76355,-100,4,2,2,80,0,1
80692,-100,4,2,1,80,0,1
81054,-100,4,2,1,70,0,1
82138,-100,4,2,2,70,0,1
86656,-100,4,2,1,70,0,1
86837,-100,4,2,1,80,0,1
87921,-100,4,2,2,80,0,1
92259,-100,4,2,1,80,0,1
92620,-100,4,2,1,70,0,0
98403,-100,4,2,1,80,0,0
104186,-100,4,2,1,50,0,0
105632,-100,4,2,1,40,0,0
108524,-100,4,2,1,50,0,0
118644,-100,4,2,1,80,0,0
119909,392.156862745098,4,2,1,60,1,0
120117,392.156862745098,4,2,1,40,1,0

[Colours]
Combo1 : 63,109,156
Combo2 : 222,213,99
Combo3 : 169,40,37
Combo4 : 151,82,36

[HitObjects]
49,289,1175,5,2,1:2:0:0:
194,291,1536,2,0,L|195:206,1,72.5
114,204,1897,1,2,0:0:0:0:
376,376,2259,2,0,P|471:298|345:252,1,290,2|2,0:0|0:0,0:0:0:0:
217,290,3343,5,6,1:3:0:0:
216,218,3523,1,0,0:0:0:0:
254,157,3704,1,0,0:0:0:0:
318,126,3885,1,0,0:0:0:0:
389,135,4065,1,2,0:0:0:0:
238,296,4428,2,0,L|46:283,2,145,2|2|2,0:0|0:0|0:0,0:0:0:0:
386,268,5512,6,0,L|474:268,2,72.5,2|0|0,1:2|0:0|0:0,0:0:0:0:
226,280,6235,1,2,0:0:0:0:
486,239,6596,2,0,P|496:155|314:78,1,290,2|2,0:0|0:0,0:0:0:0:
178,309,7681,5,6,1:3:0:0:
109,294,7861,1,0,0:0:0:0:
84,229,8042,1,0,0:0:0:0:
123,172,8223,1,0,0:0:0:0:
193,172,8403,1,2,0:0:0:0:
354,108,8765,2,0,L|555:90,2,145,2|2|2,0:0|0:0|0:0,0:0:0:0:
93,264,9849,5,6,1:2:0:0:
233,250,10211,1,2,0:0:0:0:
379,239,10572,1,2,0:0:0:0:
230,267,10934,2,0,L|223:79,1,145,2|2,0:0|0:0,0:0:0:0:
374,260,11656,2,0,L|367:181,1,72.5,2|8,0:0|0:3,0:0:0:0:
197,184,12018,5,14,0:3:0:0:
52,154,12379,1,2,0:0:0:0:
197,130,12741,1,2,0:0:0:0:
366,279,13102,2,0,P|402:220|341:160,1,145,2|2,0:0|0:0,0:0:0:0:
288,159,13644,1,2,0:0:0:0:
213,161,13825,1,2,0:0:0:0:
138,155,14006,1,10,0:0:0:0:
305,268,14187,6,0,P|356:242|274:143,1,217.5,14|0,1:2|0:0,0:0:0:0:
208,130,14909,1,2,1:2:0:0:
471,305,15271,2,0,L|485:-2,1,290,10|0,1:2|0:0,0:0:0:0:
409,166,16174,1,2,0:0:0:0:
333,214,16355,6,0,L|164:201,2,145,2|0|8,1:2|0:0|0:0,0:0:0:0:
68,299,17440,2,0,P|90:201|146:187,1,145,10|2,1:2|0:2,0:0:0:0:
279,171,18162,1,10,1:2:0:0:
18,248,18524,5,14,1:2:0:0:
18,248,18885,1,2,0:2:0:0:
164,190,19247,2,0,L|247:190,1,72.5,2|2,1:2|0:2,0:0:0:0:
311,117,19608,2,0,L|15:104,1,290,2|2,1:2|0:2,0:0:0:0:
100,162,20512,1,0,0:0:0:0:
275,241,20693,6,0,L|284:82,1,145,10|0,1:2|0:0,0:0:0:0:
146,137,21415,1,2,0:2:0:0:
292,230,21777,2,0,L|399:105,2,145,2|0|2,1:2|0:0|0:2,0:0:0:0:
21,237,22861,6,0,L|190:221,2,145,6|10|10,1:2|0:3|1:3,0:0:0:0:
281,222,23946,2,0,L|455:234,2,145,6|10|10,1:2|0:3|1:3,0:0:0:0:
19,252,25030,5,2,1:2:0:0:
19,252,25211,1,2,0:2:0:0:
95,203,25391,2,0,L|194:200,1,72.5,2|2,0:2|0:2,0:0:0:0:
241,154,25753,2,0,L|242:71,1,72.5,2|2,1:2|0:2,0:0:0:0:
67,273,26114,2,0,P|32:239|104:196,1,145,2|0,1:2|0:0,0:0:0:0:
234,234,26837,1,2,1:2:0:0:
379,202,27199,6,0,L|293:72,2,145,2|2|2,0:0|0:0|0:2,0:0:0:0:
234,266,28283,2,0,P|225:208|422:119,1,290,2|2,0:2|0:2,0:0:0:0:
248,289,29367,6,0,L|236:139,1,145,2|0,0:2|0:0,0:0:0:0:
91,126,30090,1,2,0:2:0:0:
231,308,30452,2,0,P|266:267|202:202,1,145,2|2,0:2|0:2,0:0:0:0:
75,196,31174,1,2,0:2:0:0:
335,283,31536,6,0,P|349:225|178:97,1,290,2|2,0:2|0:2,0:0:0:0:
124,129,32440,1,2,0:2:0:0:
201,185,32620,2,0,L|377:190,2,145,2|2|2,0:2|0:2|0:2,0:0:0:0:
55,305,33705,6,0,P|37:241|199:102,1,290,2|2,0:2|0:2,0:0:0:0:
250,93,34608,1,2,0:2:0:0:
332,188,34789,2,0,L|12:173,1,290,2|2,0:2|0:2,0:0:0:0:
207,320,35873,6,0,P|289:293|180:208,1,290,2|2,0:2|0:2,0:0:0:0:
110,207,36777,1,2,0:2:0:0:
193,329,36958,2,0,P|266:206|203:78,1,290,2|2,0:2|0:2,0:0:0:0:
64,214,38042,6,0,L|378:187,1,290,6|2,0:3|0:2,0:0:0:0:
275,155,38946,1,2,0:2:0:0:
195,215,39126,2,0,L|26:205,2,145,2|2|2,0:2|0:2|0:2,0:0:0:0:
464,283,40211,5,14,1:2:0:0:
469,212,40391,1,2,0:0:0:0:
430,152,40572,1,2,1:2:0:0:
363,129,40753,1,2,0:2:0:0:
292,77,40934,1,2,1:2:0:0:
364,73,41114,1,2,1:2:0:0:
192,205,41295,5,2,1:2:0:0:
47,136,41656,2,0,L|215:130,1,145,10|14,1:3|1:3,0:0:0:0:
453,215,42379,5,14,1:2:0:0:
308,202,42741,1,2,1:0:0:0:
164,152,43102,1,2,1:0:0:0:
90,148,43283,1,0,1:0:0:0:
164,152,43464,5,2,1:0:0:0:
422,278,43825,2,0,L|435:102,1,145,10|10,1:3|1:3,0:0:0:0:
171,226,44548,5,6,1:2:0:0:
181,155,44728,1,2,0:0:0:0:
231,104,44909,1,2,1:2:0:0:
302,93,45090,1,2,0:0:0:0:
374,48,45271,2,0,L|282:43,1,72.5,2|2,1:2|1:2,0:0:0:0:
131,220,45632,5,2,1:2:0:0:
275,207,45994,2,0,L|441:201,1,145,10|14,1:3|1:3,0:0:0:0:
346,184,46536,1,10,0:2:0:0:
177,255,46717,5,14,1:2:0:0:
113,223,46897,1,0,0:0:0:0:
93,156,47078,1,2,1:2:0:0:
127,94,47259,1,0,0:0:0:0:
196,78,47439,1,2,1:2:0:0:
342,206,47801,5,2,1:2:0:0:
269,204,47981,1,0,0:0:0:0:
197,202,48162,1,10,1:3:0:0:
124,200,48343,1,0,0:0:0:0:
52,198,48523,1,10,1:3:0:0:
314,296,48885,6,0,L|325:198,1,72.5,14|2,1:2|0:0,0:0:0:0:
249,215,49247,2,0,L|242:135,1,72.5,2|2,1:2|0:2,0:0:0:0:
316,102,49608,2,0,L|394:98,1,72.5,2|2,1:2|1:2,0:0:0:0:
218,223,49970,5,2,1:2:0:0:
70,168,50331,2,0,L|245:146,1,145,10|14,1:3|1:3,0:0:0:0:
287,136,50873,1,10,0:2:0:0:
118,226,51054,5,14,1:2:0:0:
263,225,51415,1,2,1:0:0:0:
407,221,51777,1,2,1:0:0:0:
334,193,51958,1,0,1:0:0:0:
163,188,52138,5,2,1:0:0:0:
19,144,52500,2,0,L|198:134,1,145,10|10,1:3|1:3,0:0:0:0:
426,255,53223,5,6,1:2:0:0:
476,205,53403,1,2,0:0:0:0:
472,135,53584,1,2,1:2:0:0:
417,92,53765,1,2,0:0:0:0:
348,105,53945,1,2,1:2:0:0:
417,92,54126,1,2,1:2:0:0:
244,198,54307,5,2,1:2:0:0:
93,220,54668,2,0,L|272:214,1,145,10|14,1:3|1:3,0:0:0:0:
311,201,55211,1,10,0:2:0:0:
145,286,55391,5,14,1:2:0:0:
82,254,55571,1,0,0:0:0:0:
64,185,55752,1,2,1:2:0:0:
104,128,55933,1,0,0:0:0:0:
174,119,56113,1,2,1:2:0:0:
340,258,56476,6,0,L|341:172,1,72.5,2|0,1:2|0:0,0:0:0:0:
259,179,56837,2,0,L|255:91,1,72.5,10|0,1:3|0:0,0:0:0:0:
335,70,57199,2,0,L|250:65,1,72.5,10|0,1:3|0:0,0:0:0:0:
101,304,57560,6,0,P|23:251|136:130,1,290,2|2,1:0|0:0,0:0:0:0:
191,109,58464,1,2,0:0:0:0:
276,66,58644,2,0,L|114:62,2,145,2|2|2,0:0|0:0|0:0,0:0:0:0:
421,273,59729,6,0,P|449:223|305:101,1,290,2|2,0:0|0:0,0:0:0:0:
229,221,60632,1,2,0:0:0:0:
159,149,60813,2,0,L|325:137,2,145,2|2|2,0:0|0:0|0:0,0:0:0:0:
20,279,61897,6,0,L|23:118,1,145,2|2,0:0|0:0,0:0:0:0:
170,118,62620,1,2,0:0:0:0:
325,299,62982,2,0,P|328:231|140:122,1,290,2|2,0:0|0:0,0:0:0:0:
304,342,64066,6,0,P|390:240|291:142,1,290,2|2,0:0|0:0,0:0:0:0:
162,242,65150,2,0,L|469:219,1,290,2|2,0:0|0:0,0:0:0:0:
183,296,66235,5,2,0:0:0:0:
116,271,66415,1,0,0:0:0:0:
92,206,66596,1,2,0:0:0:0:
126,144,66777,1,0,0:0:0:0:
195,131,66957,1,2,0:0:0:0:
458,266,67319,5,2,0:0:0:0:
459,194,67499,1,0,0:0:0:0:
425,131,67680,1,2,0:0:0:0:
365,93,67861,1,0,0:0:0:0:
293,90,68041,1,2,0:0:0:0:
29,297,68403,6,0,L|23:216,1,72.5,2|0,0:0|0:0,0:0:0:0:
98,185,68765,2,0,L|186:180,1,72.5,2|0,0:0|0:0,0:0:0:0:
253,172,69126,2,0,L|293:98,1,72.5,8|0,0:0|0:0,0:0:0:0:
112,253,69488,6,0,L|16:253,2,72.5,12|2|2,1:2|0:2|1:2,0:0:0:0:
186,254,70030,1,2,0:2:0:0:
265,185,70210,2,0,L|106:179,1,145,2|8,1:2|1:2,0:0:0:0:
396,164,70933,6,0,L|476:168,2,72.5,2|0|2,1:2|0:0|1:2,0:0:0:0:
251,248,71656,1,2,1:2:0:0:
178,248,71836,1,0,0:0:0:0:
106,248,72017,1,2,1:2:0:0:
178,248,72198,1,8,0:0:0:0:
353,183,72379,5,6,1:2:0:0:
353,183,72741,1,2,1:2:0:0:
208,190,73102,1,2,1:2:0:0:
353,183,73463,1,10,1:2:0:0:
77,262,73825,6,0,P|57:198|137:150,1,145,0|2,1:2|1:2,0:0:0:0:
181,143,74367,1,0,0:0:0:0:
254,141,74548,1,2,1:2:0:0:
109,213,74909,2,0,L|18:213,1,72.5,2|8,1:2|0:2,0:0:0:0:
213,267,75271,6,0,L|365:265,2,145
286,238,76174,1,0,0:0:0:0:
352,175,76355,2,0,L|374:79,1,72.5,8|0,1:2|0:0,0:0:0:0:
194,236,76716,6,0,P|165:161|246:133,1,145,2|2,1:2|1:2,0:0:0:0:
352,221,77439,2,0,L|358:121,1,72.5
283,143,77801,2,0,L|293:62,1,72.5
466,108,78162,6,0,L|291:88,1,145,6|2,1:2|1:2,0:0:0:0:
178,250,78885,2,0,L|179:96,1,145,2|10,1:2|1:2,0:0:0:0:
455,225,79608,6,0,L|469:75,1,145,2|8,1:2|1:2,0:0:0:0:
396,68,80150,1,2,0:2:0:0:
322,162,80331,2,0,L|473:151,1,145,0|8,1:2|1:2,0:0:0:0:
189,214,81054,5,6,1:2:0:0:
43,179,81415,1,0,1:2:0:0:
189,214,81777,1,2,1:2:0:0:
338,216,82138,1,8,1:2:0:0:
67,262,82500,5,2,1:2:0:0:
23,207,82680,1,0,0:0:0:0:
49,143,82861,1,2,1:2:0:0:
117,134,83042,1,0,0:0:0:0:
192,119,83222,2,0,L|41:94,1,145,0|0,1:2|1:0,0:0:0:0:
323,273,83945,6,0,L|343:93,1,145,6|0,1:2|1:2,0:0:0:0:
197,126,84668,1,2,1:2:0:0:
269,124,84848,1,0,0:2:0:0:
341,123,85029,1,8,1:2:0:0:
66,268,85391,6,0,L|58:103,1,145,2|2,1:2|1:2,0:0:0:0:
134,121,85933,1,0,0:2:0:0:
210,105,86114,2,0,L|58:95,1,145,2|2,1:2|1:2,0:0:0:0:
144,118,86656,1,8,0:2:0:0:
318,232,86837,5,14,1:2:0:0:
477,223,87198,1,2,1:2:0:0:
318,232,87560,1,2,1:2:0:0:
467,229,87921,2,0,L|470:130,1,72.5,10|2,1:2|0:2,0:0:0:0:
294,134,88283,6,0,L|132:130,1,145,2|2,1:2|1:2,0:0:0:0:
223,120,88825,1,0,0:0:0:0:
303,227,89006,2,0,L|327:63,1,145,2|2,1:2|1:2,0:0:0:0:
248,78,89548,1,10,0:2:0:0:
75,258,89728,5,6,1:2:0:0:
75,258,89909,2,0,L|141:258,1,36.25,0|2,0:0|0:2,0:0:0:0:
187,255,90180,2,0,L|187:194,1,36.25,0|2,0:0|0:2,0:0:0:0:
111,168,90451,6,0,L|24:166,2,72.5,2|2|10,1:2|0:2|1:2,0:0:0:0:
183,171,90994,1,2,0:2:0:0:
357,197,91174,6,0,L|438:197,2,72.5,2|2|10,1:2|0:2|1:2,0:0:0:0:
212,247,91897,2,0,L|212:166,1,72.5,2|10,1:2|0:2,0:0:0:0:
289,166,92259,2,0,L|290:92,1,72.5,10|2,1:2|0:2,0:0:0:0:
108,101,92620,5,14,1:2:0:0:
256,192,92981,12,0,95150,0:2:0:0:
196,174,95512,5,0,0:0:0:0:
256,192,95873,12,0,98042,0:0:0:0:
397,215,98403,5,14,0:2:0:0:
236,196,98765,1,0,1:2:0:0:
91,175,99126,1,0,1:0:0:0:
236,196,99487,2,0,L|236:101,1,72.5,0|2,1:2|0:2,0:0:0:0:
61,151,99849,5,2,1:2:0:0:
61,151,100210,1,0,1:2:0:0:
206,148,100572,1,0,1:2:0:0:
61,151,100933,1,0,1:2:0:0:
134,150,101114,1,10,0:2:0:0:
308,240,101295,5,14,1:2:0:0:
453,234,101656,1,0,1:2:0:0:
308,240,102018,1,0,1:2:0:0:
163,193,102379,2,0,L|258:193,1,72.5,0|2,1:2|0:2,0:0:0:0:
411,250,102741,5,14,1:2:0:0:
411,250,103102,1,0,1:2:0:0:
266,181,103463,1,0,1:2:0:0:
411,250,103825,2,0,L|412:167,1,72.5,0|0,1:2|0:0,0:0:0:0:
244,162,104186,6,0,P|195:126|262:87,1,145,2|0,0:2|0:0,0:0:0:0:
330,111,104728,1,2,0:2:0:0:
417,119,104909,1,2,0:2:0:0:
417,119,105271,1,0,0:0:0:0:
337,115,105451,1,2,0:2:0:0:
257,113,105632,5,2,0:2:0:0:
257,113,105994,1,0,0:0:0:0:
329,103,106174,1,2,0:2:0:0:
402,104,106355,1,2,0:2:0:0:
402,104,106716,1,0,0:0:0:0:
337,105,106897,1,2,0:2:0:0:
257,108,107078,5,2,0:2:0:0:
257,108,107439,1,0,0:0:0:0:
338,111,107620,1,2,0:2:0:0:
426,119,107801,1,2,0:2:0:0:
426,119,108162,1,0,0:0:0:0:
336,121,108343,1,2,0:2:0:0:
243,263,108524,6,0,P|194:229|259:206,1,145,2|2,0:2|0:2,0:0:0:0:
321,194,109066,1,2,0:2:0:0:
392,157,109247,2,0,L|396:77,1,72.5,2|2,0:2|0:2,0:0:0:0:
322,72,109608,1,2,0:2:0:0:
48,320,109969,6,0,P|20:257|324:144,1,507.5,2|2,0:2|0:2,0:0:0:0:
235,339,111415,2,0,P|58:238|246:125,1,507.5,2|0,0:2|0:0,0:0:0:0:
417,258,112861,6,0,P|430:170|98:54,1,507.5,2|2,0:2|0:2,0:0:0:0:
195,275,114307,2,0,B|338:263|338:263|419:180|297:104|92:106,1,507.5,2|0,0:2|0:0,0:0:0:0:
273,340,115753,6,0,L|258:187,1,145,2|0,0:2|0:0,0:0:0:0:
177,208,116295,1,0,0:0:0:0:
98,215,116475,2,0,L|82:52,1,145,2|0,0:2|0:0,0:0:0:0:
348,239,117198,6,0,L|493:228,1,145,2|0,0:2|0:0,0:0:0:0:
413,197,117741,1,0,0:0:0:0:
339,179,117921,2,0,L|166:167,1,145,2|0,0:2|0:0,0:0:0:0:
268,141,118463,1,2,1:2:0:0:
444,141,118644,5,6,1:2:0:0:
442,228,119909,1,2,1:2:0:0:
256,220,120117,1,2,1:2:0:0:
