osu file format v14

[General]
AudioFilename: audio.ogg
AudioLeadIn: 0
PreviewTime: 66235
Countdown: 0
SampleSet: Soft
StackLeniency: 0.7
Mode: 2
LetterboxInBreaks: 0
WidescreenStoryboard: 0

[Editor]
Bookmarks: 1175,3343,5512,7681,9849,14187,22861,25030,27199,30452,31536,40211,42379,44548,46717,48885,51054,53223,55391,57560,66235,69488,75271,81054,86837,92620,98403,104186,109969,115753
DistanceSpacing: 0.8
BeatDivisor: 3
GridSize: 16
TimelineZoom: 2.7

[Metadata]
Title:Vulnerability
TitleUnicode:Vulnerability
Artist:Mili
ArtistUnicode:Mili
Creator:Mniam
Version:Expressionism
Source:
Tags:fa featured artist instrumental violin miracle milk electronic piano mpg mappers' guild Benita bennybananas benny- Stardust Prism bighzonda zonda bigh 050 momocashew cassie wei yamato kasai indie projectmili
BeatmapID:4091378
BeatmapSetID:1971788

[Difficulty]
HPDrainRate:6
CircleSize:4.6
OverallDifficulty:9.8
ApproachRate:9.8
SliderMultiplier:1.8
SliderTickRate:2

[Events]
//Background and Video events
0,0,"violintypebeat.jpg",0,0
//Break Periods
//Storyboard Layer 0 (Background)
//Storyboard Layer 1 (Fail)
//Storyboard Layer 2 (Pass)
//Storyboard Layer 3 (Foreground)
//Storyboard Layer 4 (Overlay)
//Storyboard Sound Samples

[TimingPoints]
1175,361.44578313253,3,2,1,40,1,0
9849,-90.0900900900901,3,2,1,40,0,0
14187,-100,3,2,1,50,0,0
15271,-81.3008130081301,3,2,2,50,0,0
16174,-100,3,2,2,50,0,0
22861,-100,3,2,1,70,0,0
25030,-100,3,2,1,60,0,0
26114,-100,3,2,1,50,0,0
27199,-74.0740740740741,3,2,1,40,0,0
27537,-74.0740740740741,3,2,1,5,0,0
27560,-74.0740740740741,3,2,1,40,0,0
27899,-74.0740740740741,3,2,1,5,0,0
27922,-74.0740740740741,3,2,1,40,0,0
28080,-74.0740740740741,3,2,1,5,0,0
28103,-74.0740740740741,3,2,1,40,0,0
28260,-74.0740740740741,3,2,1,5,0,0
28283,-74.0740740740741,3,2,1,40,0,0
28983,-74.0740740740741,3,2,1,5,0,0
29006,-74.0740740740741,3,2,1,40,0,0
29345,-74.0740740740741,3,2,1,5,0,0
29368,-74.0740740740741,3,2,1,40,0,0
30068,-74.0740740740741,3,2,1,5,0,0
30091,-74.0740740740741,3,2,1,40,0,0
30429,-74.0740740740741,3,2,1,5,0,0
30452,-74.0740740740741,3,2,1,30,0,0
31536,-74.0740740740741,3,2,1,40,0,0
40211,-33.3333333333333,3,2,1,60,0,0
40391,-100,3,2,1,60,0,0
43825,-50,3,2,1,60,0,0
44548,-33.3333333333333,3,2,1,60,0,0
44728,-100,3,2,1,60,0,0
48885,-33.3333333333333,3,2,1,60,0,0
49065,-100,3,2,1,60,0,0
52499,-50,3,2,1,60,0,0
53222,-33.3333333333333,3,2,1,60,0,0
53402,-100,3,2,1,60,0,0
57560,-66.6666666666667,3,2,1,40,0,0
58644,-100,3,2,1,40,0,0
59729,-75.187969924812,3,2,1,40,0,0
60813,-100,3,2,1,40,0,0
62982,-75.187969924812,3,2,1,40,0,0
64066,-100,3,2,1,40,0,0
65150,-75.187969924812,3,2,1,40,0,0
66235,-100,3,2,1,50,0,0
69488,361.44578313253,4,2,1,80,1,1
70572,-100,4,2,2,80,0,1
75090,-100,4,2,1,80,0,1
75271,-33.3333333333333,4,2,1,80,0,1
75994,-50,3,2,1,80,0,1
76355,-50,3,2,2,80,0,1
79247,-25,3,2,2,80,0,1
80692,-25,3,2,1,80,0,1
81054,-100,3,2,1,70,0,1
82138,-100,3,2,2,70,0,1
83403,-66.6666666666667,3,2,2,70,0,1
83945,-100,3,2,2,70,0,1
86656,-100,3,2,1,70,0,1
86837,-66.6666666666667,3,2,1,80,0,1
87921,-66.6666666666667,3,2,2,80,0,1
92259,-66.6666666666667,3,2,1,80,0,1
92620,-100,3,2,1,70,0,0
98403,-100,3,2,1,80,0,0
104186,-100,4,2,1,50,0,0
105632,-100,4,2,1,40,0,0
108524,-100,4,2,1,50,0,0
109969,-81.3008130081301,4,2,1,50,0,0
115753,-100,4,2,1,50,0,0
118644,-81.3008130081301,3,2,1,80,0,0
119909,392.156862745098,4,2,1,60,1,0
120117,392.156862745098,4,2,1,40,1,0

[Colours]
Combo1 : 63,109,156
Combo2 : 222,213,99
Combo3 : 169,40,37
Combo4 : 151,82,36

[HitObjects]
447,113,1175,5,2,1:2:0:0:
447,113,1536,1,0,0:0:0:0:
357,212,1717,1,0,0:0:0:0:
178,246,1897,2,0,L|151:247,1,22.5,2|0,0:0|0:0,0:0:0:0:
155,246,2259,2,0,P|300:218|349:47,1,337.5,2|0,0:0|0:0,0:0:0:0:
434,20,2982,2,0,L|461:21,1,22.5,2|0,0:0|0:0,0:0:0:0:
0,0,3343,5,6,1:3:0:0:
180,47,3524,2,0,L|161:126,1,78.75
104,155,3705,2,0,L|27:169,1,78.75
81,281,3885,2,0,L|95:204,1,78.75
153,354,4066,2,0,L|167:277,1,78.75,2|0,0:0|0:0,0:0:0:0:
169,266,4247,2,0,L|183:189,1,78.75
252,154,4428,6,0,L|329:140,1,78.75,2|0,0:0|0:0,0:0:0:0:
340,125,4608,2,0,L|263:111,1,78.75
205,97,4789,2,0,L|131:146,1,78.75,2|0,0:0|0:0,0:0:0:0:
128,150,4970,2,0,L|114:227,1,78.75
180,357,5150,2,0,L|194:280,1,78.75,2|0,0:0|0:0,0:0:0:0:
196,269,5331,2,0,L|210:192,1,78.75
279,169,5512,5,2,1:2:0:0:
341,116,5693,1,0,0:0:0:0:
296,42,5873,1,0,0:0:0:0:
206,27,6054,1,0,0:0:0:0:
26,53,6235,2,0,L|-1:54,1,22.5,2|0,0:0|0:0,0:0:0:0:
3,53,6596,2,0,L|161:353,1,337.5,2|0,0:0|0:0,0:0:0:0:
77,51,7319,2,0,L|50:52,1,22.5,2|0,0:0|0:0,0:0:0:0:
512,0,7681,5,6,1:3:0:0:
332,42,7862,2,0,L|252:52,1,78.75
196,61,8043,2,0,L|180:145,1,78.75
236,179,8223,2,0,L|156:189,1,78.75
101,193,8404,2,0,L|87:270,1,78.75,2|0,0:0|0:0,0:0:0:0:
141,277,8584,2,0,L|155:354,1,78.75,2|0,0:0|0:0,0:0:0:0:
214,351,8765,6,0,L|291:337,1,78.75,2|0,0:0|0:0,0:0:0:0:
302,322,8945,2,0,L|225:308,1,78.75
166,271,9126,2,0,L|180:194,1,78.75,2|0,0:0|0:0,0:0:0:0:
191,184,9307,2,0,L|256:140,1,78.75
325,205,9488,2,0,L|339:128,1,78.75,2|0,0:0|0:0,0:0:0:0:
341,117,9669,2,0,L|355:40,1,78.75
209,13,9849,5,6,1:2:0:0:
158,13,9872,2,0,L|45:16,1,99.9000024389649
216,48,10211,1,2,0:0:0:0:
185,59,10233,2,0,L|72:62,1,99.9000024389649
243,114,10572,1,2,0:0:0:0:
275,127,10595,2,0,L|162:130,1,99.9000024389649
333,189,10934,5,2,0:0:0:0:
382,196,10956,2,0,L|271:200,1,99.9000024389649
123,188,11296,1,2,0:0:0:0:
74,195,11318,2,0,L|185:199,1,99.9000024389649
333,189,11656,1,2,0:0:0:0:
382,196,11678,2,0,L|271:200,1,99.9000024389649
202,189,11928,1,8,0:3:0:0:
303,13,12018,5,14,0:3:0:0:
354,13,12041,2,0,L|467:16,1,99.9000024389649
296,48,12380,1,2,0:0:0:0:
327,59,12402,2,0,L|440:62,1,99.9000024389649
269,114,12741,1,2,0:0:0:0:
237,127,12764,2,0,L|350:130,1,99.9000024389649
179,189,13103,5,2,0:0:0:0:
130,196,13125,2,0,L|107:300,1,99.9000024389649
267,292,13464,1,2,0:0:0:0:
317,222,13644,1,2,0:0:0:0:
267,159,13825,1,2,0:0:0:0:
17,136,14006,1,10,0:0:0:0:
317,12,14187,6,0,P|327:54|326:127,1,90,14|0,1:2|0:0,0:0:0:0:
149,212,14548,2,0,P|186:184|185:114,1,90,2|0,0:0|0:0,0:0:0:0:
15,36,14909,1,2,1:2:0:0:
196,7,15090,1,2,0:0:0:0:
430,0,15271,6,0,P|475:62|246:387,1,553.50000844574,10|2,1:2|0:0,0:0:0:0:
146,377,16265,1,2,0:0:0:0:
303,377,16355,6,0,P|421:311|297:180,1,360,2|8,1:2|0:0,0:0:0:0:
216,195,17259,1,0,0:0:0:0:
487,23,17440,6,0,L|494:113,1,90,10|0,1:2|0:0,0:0:0:0:
314,128,17801,2,0,L|307:218,1,90,2|0,0:2|0:0,0:0:0:0:
37,277,18162,2,0,L|144:281,1,90,10|0,1:2|0:0,0:0:0:0:
408,287,18524,6,0,L|301:291,1,90,14|0,1:2|0:0,0:0:0:0:
138,275,18885,2,0,L|128:176,1,90,2|0,0:2|0:0,0:0:0:0:
301,136,19247,1,2,1:2:0:0:
472,110,19428,1,2,0:2:0:0:
222,385,19608,6,0,P|105:256|231:173,1,360,2|2,1:2|0:2,0:0:0:0:
311,174,20512,1,0,0:0:0:0:
41,182,20693,6,0,P|81:107|328:14,1,360,10|2,1:2|0:2,0:0:0:0:
334,120,21596,1,0,0:0:0:0:
64,267,21777,6,0,L|430:276,1,360,2|2,1:2|0:2,0:0:0:0:
492,278,22522,2,0,P|489:207|419:153,1,157.5
288,147,22861,5,6,1:2:0:0:
221,143,22906,1,0,0:0:0:0:
214,226,23042,1,0,0:0:0:0:
304,257,23223,1,10,0:3:0:0:
125,272,23268,1,0,0:0:0:0:
44,269,23403,1,0,0:0:0:0:
125,259,23584,1,10,1:3:0:0:
304,274,23629,1,0,0:0:0:0:
385,274,23765,1,0,0:0:0:0:
134,122,23945,5,6,1:2:0:0:
179,158,23990,1,0,0:0:0:0:
186,241,24126,1,0,0:0:0:0:
96,280,24307,1,10,0:3:0:0:
275,295,24352,1,0,0:0:0:0:
356,294,24487,1,0,0:0:0:0:
275,282,24668,1,10,1:3:0:0:
96,297,24713,1,0,0:0:0:0:
15,296,24849,1,0,0:0:0:0:
282,193,25030,5,2,1:2:0:0:
384,144,25211,1,2,0:2:0:0:
304,96,25301,1,2,0:2:0:0:
416,64,25391,1,2,0:2:0:0:
459,144,25572,1,2,0:2:0:0:
416,224,25753,1,2,1:2:0:0:
320,256,25934,1,2,0:2:0:0:
48,240,26114,6,0,L|244:234,2,180,2|0|2,1:2|0:0|1:2,0:0:0:0:
136,220,27018,1,2,0:0:0:0:
316,222,27199,6,0,P|384:188|351:61,1,227.812500869036,2|0,0:0|0:0,0:0:0:0:
336,56,27560,2,0,B|307:45|252:53|213:90|220:143|220:143|233:108|266:102,1,227.812500869036,2|0,0:0|0:0,0:0:0:0:
274,104,27921,2,0,P|314:135|373:159,1,106.31250040555
381,153,28102,2,0,P|332:173|290:205,1,106.31250040555,2|0,0:2|0:0,0:0:0:0:
222,234,28283,6,0,B|125:264|110:374|110:374|166:265|290:271|290:271|298:243|282:208,1,470.812501796007,2|0,0:2|0:0,0:0:0:0:
268,196,29006,2,0,P|184:257|262:314,1,227.812500869036,2|0,0:2|0:0,0:0:0:0:
324,250,29367,6,0,B|429:221|424:73|329:41|329:41|291:115|237:125|237:125|230:132|230:132|211:109|177:100,1,470.812501796007,2|0,0:2|0:0,0:0:0:0:
168,94,30090,2,0,P|133:125|145:298,1,227.812500869036,2|0,0:2|0:0,0:0:0:0:
210,293,30452,5,2,0:2:0:0:
295,293,30542,1,2,0:2:0:0:
422,291,30813,1,2,0:2:0:0:
313,292,30903,1,2,0:2:0:0:
477,224,31174,1,2,0:2:0:0:
356,222,31264,1,2,0:2:0:0:
173,366,31536,6,0,P|73:289|189:7,1,486.000001853943,2|2,0:2|0:2,0:0:0:0:
281,8,32440,1,2,0:2:0:0:
463,112,32620,2,0,B|443:112|443:112|398:157|398:157|395:153|395:153|344:206|344:206|328:216|328:216|311:252|311:252|263:281,2,243.000000926971,2|2|2,0:2|0:2|0:2,0:0:0:0:
133,22,33705,6,0,P|39:160|261:342,1,486.000001853943,2|2,0:2|0:2,0:0:0:0:
144,365,34608,1,2,0:2:0:0:
326,377,34789,2,0,P|470:230|433:-67,1,486.000001853943,2|2,0:2|0:2,0:0:0:0:
127,19,35873,6,0,B|95:35|95:35|79:163|79:163|191:163|191:163|223:243|223:243|167:361,1,486.000001853943,2|2,0:2|0:2,0:0:0:0:
78,350,36777,1,2,0:2:0:0:
261,5,36958,2,0,B|292:21|292:21|318:107|318:107|225:181|225:181|213:243|244:301|244:301|351:356,1,486.000001853943,2|2,0:2|0:2,0:0:0:0:
21,223,38042,6,0,B|117:161|117:161|125:176|125:176|192:177|204:119|204:119|137:115|121:168|121:168|192:180|237:245,1,486.000001853943,6|2,0:3|0:2,0:0:0:0:
328,364,38946,1,2,0:2:0:0:
146,352,39126,2,0,B|82:352|82:352|50:304|50:304|82:256|82:256|146:256,2,243.000000926971,2|2|2,0:2|0:2|0:2,0:0:0:0:
475,209,40211,6,0,L|183:209,1,270.000010299683,14|2,1:2|0:0,0:0:0:0:
182,143,40482,1,0,0:0:0:0:
294,103,40572,1,2,1:2:0:0:
348,100,40662,1,0,0:0:0:0:
294,103,40753,1,2,0:2:0:0:
271,33,40843,1,0,0:0:0:0:
385,123,40934,1,2,1:2:0:0:
439,120,41024,1,0,0:0:0:0:
327,214,41114,1,2,1:2:0:0:
305,148,41205,1,0,0:0:0:0:
126,221,41295,5,2,1:2:0:0:
117,222,41476,1,0,0:0:0:0:
296,214,41656,2,0,B|206:205|206:205|203:141,1,135,10|0,1:3|0:0,0:0:0:0:
318,121,42018,1,14,1:3:0:0:
48,135,42199,1,10,0:2:0:0:
362,28,42379,6,0,L|343:107,1,78.75,14|0,1:2|0:0,0:0:0:0:
332,117,42560,2,0,L|255:131,1,78.75
326,186,42741,2,0,L|249:200,1,78.75,2|0,1:0|0:0,0:0:0:0:
238,207,42921,2,0,L|224:284,1,78.75
295,292,43102,2,0,L|309:215,1,78.75,2|0,1:0|0:0,0:0:0:0:
238,207,43283,2,0,L|157:215,1,78.75,0|0,1:0|0:0,0:0:0:0:
311,198,43464,6,0,P|361:154|316:124,1,135,2|0,1:0|0:0,0:0:0:0:
142,192,43825,2,0,B|231:145|311:193|311:193|340:158|322:101,1,270,10|0,1:3|0:0,0:0:0:0:
437,83,44187,1,10,1:3:0:0:
450,210,44548,6,0,L|158:210,1,270.000010299683,6|2,1:2|0:0,0:0:0:0:
175,138,44819,1,0,0:0:0:0:
287,130,44909,1,2,1:2:0:0:
292,61,45000,1,0,0:0:0:0:
347,128,45090,1,2,0:0:0:0:
352,59,45181,1,0,0:0:0:0:
240,129,45271,1,2,1:2:0:0:
245,60,45362,1,0,0:0:0:0:
357,129,45452,1,2,1:2:0:0:
362,60,45543,1,0,0:0:0:0:
185,189,45632,5,2,1:2:0:0:
176,212,45813,1,0,0:0:0:0:
356,228,45994,2,0,B|257:224,1,90,10|2,1:3|0:2,0:0:0:0:
446,167,46355,1,14,1:3:0:0:
176,138,46536,1,10,0:2:0:0:
492,41,46717,6,0,L|473:120,1,78.75,14|0,1:2|0:0,0:0:0:0:
463,127,46897,2,0,L|386:141,1,78.75
314,148,47078,2,0,L|295:224,1,78.75,2|0,1:2|0:0,0:0:0:0:
315,259,47259,2,0,L|238:273,1,78.75
166,277,47440,2,0,L|152:200,1,78.75,2|0,1:2|0:0,0:0:0:0:
221,164,47620,2,0,L|247:80,1,78.75,0|0,1:0|0:0,0:0:0:0:
396,73,47801,6,0,L|486:72,1,90,2|0,1:2|0:0,0:0:0:0:
216,159,48162,1,10,1:3:0:0:
396,153,48343,1,0,0:0:0:0:
126,225,48524,1,10,1:3:0:0:
306,219,48705,1,0,0:0:0:0:
37,175,48885,6,0,L|329:175,1,270.000010299683,14|2,1:2|0:0,0:0:0:0:
330,241,49156,1,0,0:0:0:0:
218,281,49246,1,2,1:2:0:0:
164,284,49336,1,0,0:0:0:0:
218,281,49427,1,2,0:2:0:0:
241,351,49517,1,0,0:0:0:0:
127,261,49608,1,2,1:2:0:0:
73,264,49698,1,0,0:0:0:0:
185,170,49788,1,2,1:2:0:0:
207,236,49879,1,0,0:0:0:0:
386,163,49969,5,2,1:2:0:0:
395,162,50150,1,0,0:0:0:0:
216,170,50330,2,0,B|306:179|306:179|309:243,1,135,10|0,1:3|0:0,0:0:0:0:
194,263,50692,1,14,1:3:0:0:
464,249,50873,1,10,0:2:0:0:
150,356,51053,6,0,L|169:277,1,78.75,14|0,1:2|0:0,0:0:0:0:
180,267,51234,2,0,L|257:253,1,78.75
186,198,51415,2,0,L|263:184,1,78.75,2|0,1:0|0:0,0:0:0:0:
274,177,51595,2,0,L|288:100,1,78.75
217,92,51776,2,0,L|203:169,1,78.75,2|0,1:0|0:0,0:0:0:0:
274,177,51957,2,0,L|355:169,1,78.75,0|0,1:0|0:0,0:0:0:0:
201,186,52138,6,0,P|151:230|196:260,1,135,2|0,1:0|0:0,0:0:0:0:
370,192,52500,2,0,B|281:239|201:191|201:191|172:226|190:283,1,270,10|0,1:3|0:0,0:0:0:0:
75,301,52861,1,10,1:3:0:0:
62,174,53223,6,0,L|354:174,1,270.000010299683,6|2,1:2|0:0,0:0:0:0:
337,246,53493,1,0,0:0:0:0:
225,254,53583,1,2,1:2:0:0:
220,323,53674,1,0,0:0:0:0:
165,256,53764,1,2,0:0:0:0:
160,325,53855,1,0,0:0:0:0:
272,255,53945,1,2,1:2:0:0:
267,324,54036,1,0,0:0:0:0:
155,255,54126,1,2,1:2:0:0:
150,324,54217,1,0,0:0:0:0:
327,195,54306,5,2,1:2:0:0:
336,172,54487,1,0,0:0:0:0:
156,156,54668,2,0,B|255:160,1,90,10|2,1:3|0:2,0:0:0:0:
66,217,55029,1,14,1:3:0:0:
336,246,55210,1,10,0:2:0:0:
20,343,55391,6,0,L|39:264,1,78.75,14|0,1:2|0:0,0:0:0:0:
49,257,55571,2,0,L|126:243,1,78.75
198,236,55752,2,0,L|217:160,1,78.75,2|0,1:2|0:0,0:0:0:0:
197,125,55933,2,0,L|274:111,1,78.75
346,107,56114,2,0,L|360:184,1,78.75,2|0,1:2|0:0,0:0:0:0:
291,220,56294,2,0,L|265:304,1,78.75,0|0,1:0|0:0,0:0:0:0:
116,311,56475,6,0,L|26:312,1,90,2|0,1:2|0:0,0:0:0:0:
296,225,56836,1,10,1:3:0:0:
116,231,57017,1,0,0:0:0:0:
386,159,57198,1,10,1:3:0:0:
206,165,57379,1,0,0:0:0:0:
375,162,57560,6,0,B|480:203|486:364|486:364|461:204|284:181,1,540.000020599366,2|2,1:0|0:0,0:0:0:0:
375,162,58464,1,2,0:0:0:0:
196,112,58644,2,0,L|16:112,2,180,2|2|2,0:0|0:0|0:0,0:0:0:0:
496,0,59729,6,0,P|374:88|256:384,1,478.799980274049,2|2,0:0|0:0,0:0:0:0:
352,377,60632,1,2,0:0:0:0:
172,286,60813,2,0,L|352:286,2,180,2|2|2,0:0|0:0|0:0,0:0:0:0:
487,93,61897,5,2,0:0:0:0:
306,95,62259,1,2,0:0:0:0:
126,96,62620,1,2,0:0:0:0:
426,0,62982,2,0,P|297:181|411:382,1,478.799980274049,2|2,0:0|0:0,0:0:0:0:
78,280,64066,6,0,L|446:232,1,360,2|2,0:0|0:0,0:0:0:0:
101,1,65150,2,0,P|192:190|19:373,1,478.799980274049,2|2,0:0|0:0,0:0:0:0:
495,190,66235,5,2,0:0:0:0:
316,187,66415,1,0,0:0:0:0:
415,185,66596,1,2,0:0:0:0:
316,187,66777,1,0,0:0:0:0:
271,186,66958,1,2,0:0:0:0:
316,187,67138,1,0,0:0:0:0:
46,188,67319,5,2,0:0:0:0:
136,182,67500,1,0,0:0:0:0:
55,166,67681,1,2,0:0:0:0:
127,142,67861,1,0,0:0:0:0:
190,125,68042,1,2,0:0:0:0:
136,107,68223,1,0,0:0:0:0:
405,234,68403,5,2,0:0:0:0:
495,178,68584,1,0,0:0:0:0:
450,94,68765,1,2,0:0:0:0:
360,76,68946,1,0,0:0:0:0:
181,69,69126,1,8,0:0:0:0:
164,167,69307,1,0,0:0:0:0:
308,248,69397,1,0,0:0:0:0:
452,274,69488,6,0,P|477:233|452:195,1,90,12|2,1:2|0:2,0:0:0:0:
278,197,69759,1,2,0:2:0:0:
373,180,69849,1,2,1:2:0:0:
373,180,70030,1,2,0:2:0:0:
194,256,70210,2,0,P|222:223|296:205,1,90,2|0,1:2|0:0,0:0:0:0:
373,180,70481,1,2,0:2:0:0:
186,146,70572,1,8,1:2:0:0:
96,99,70753,1,2,0:2:0:0:
101,130,70843,1,2,0:2:0:0:
269,168,70933,5,2,1:2:0:0:
219,195,71054,1,2,0:2:0:0:
336,238,71174,1,2,0:2:0:0:
140,269,71295,1,2,1:2:0:0:
382,330,71415,1,2,0:2:0:0:
370,259,71536,1,2,0:2:0:0:
313,205,71656,1,2,1:2:0:0:
190,175,71777,1,2,0:2:0:0:
368,113,71897,1,2,0:2:0:0:
108,71,72018,1,2,1:2:0:0:
160,95,72138,1,2,0:2:0:0:
25,134,72259,1,2,0:2:0:0:
145,150,72319,1,0,0:0:0:0:
265,182,72379,5,6,1:2:0:0:
325,239,72500,1,0,0:0:0:0:
265,293,72620,1,0,0:0:0:0:
84,186,72741,1,2,1:2:0:0:
42,240,72862,1,0,0:0:0:0:
84,297,72982,1,0,0:0:0:0:
265,182,73102,1,2,1:2:0:0:
289,236,73223,1,0,0:0:0:0:
265,293,73343,1,0,0:0:0:0:
56,301,73463,2,0,B|19:274|19:274|114:253,1,120,10|0,1:2|0:0,0:0:0:0:
322,176,73825,5,0,1:2:0:0:
274,114,73945,1,2,0:2:0:0:
151,83,74066,1,2,0:2:0:0:
283,39,74186,1,2,1:2:0:0:
74,125,74307,1,2,0:2:0:0:
63,198,74427,1,2,0:2:0:0:
255,235,74548,1,2,1:2:0:0:
195,235,74668,1,0,0:0:0:0:
180,292,74789,1,0,0:0:0:0:
312,321,74909,1,2,1:2:0:0:
41,319,75090,1,8,0:2:0:0:
226,338,75180,1,0,0:0:0:0:
421,349,75271,6,0,B|511:340|511:340|519:160|413:96,1,360.000013732911,12|2,1:2|0:2,0:0:0:0:
288,91,75632,1,2,1:2:0:0:
480,43,75753,1,2,0:2:0:0:
355,32,75873,1,2,0:2:0:0:
307,38,75994,2,0,P|372:139|487:164,1,240,2|2,1:2|0:2,0:0:0:0:
261,144,76355,2,0,P|217:245|299:355,1,240,8|2,1:2|0:2,0:0:0:0:
62,254,76716,6,0,P|150:254|283:10,1,360,2|2,1:2|1:2,0:0:0:0:
170,28,77319,1,2,0:2:0:0:
366,46,77439,1,2,1:2:0:0:
109,118,77560,1,2,0:2:0:0:
230,141,77680,1,2,0:2:0:0:
112,184,77801,1,2,1:2:0:0:
162,214,77921,1,2,0:2:0:0:
40,249,78042,1,2,0:2:0:0:
160,273,78102,1,0,0:0:0:0:
280,287,78162,5,6,1:2:0:0:
348,289,78252,1,0,1:2:0:0:
379,249,78342,1,0,1:2:0:0:
359,203,78433,1,0,1:2:0:0:
212,194,78524,2,0,B|100:148|100:148|106:77|161:44,1,240,2|0,1:2|0:0,0:0:0:0:
25,222,78885,1,2,1:2:0:0:
97,298,79005,1,0,0:0:0:0:
25,222,79126,1,0,0:0:0:0:
241,307,79247,2,0,B|365:277|410:125|410:125|374:197|306:236,1,360,10|0,1:2|0:0,0:0:0:0:
302,225,79518,1,0,0:0:0:0:
122,234,79608,5,2,1:2:0:0:
212,194,79789,1,10,0:2:0:0:
33,211,79969,1,8,1:2:0:0:
320,143,80150,1,2,0:2:0:0:
143,84,80331,1,0,1:2:0:0:
181,51,80421,1,0,0:0:0:0:
17,32,80512,1,2,0:2:0:0:
190,137,80692,1,8,1:2:0:0:
145,219,80873,1,0,0:0:0:0:
313,220,80963,1,0,0:0:0:0:
483,223,81054,6,0,L|486:122,1,90,6|0,1:2|0:0,0:0:0:0:
309,205,81415,2,0,L|317:105,1,90,0|0,1:2|0:0,0:0:0:0:
135,206,81777,2,0,L|130:105,1,90,2|0,1:2|0:0,0:0:0:0:
389,282,82138,2,0,L|490:287,1,90,8|0,1:2|0:0,0:0:0:0:
210,243,82500,5,2,1:2:0:0:
383,213,82680,1,0,0:0:0:0:
210,243,82861,2,0,L|202:343,1,90,2|0,1:2|0:0,0:0:0:0:
383,228,83222,1,0,1:2:0:0:
192,108,83403,2,0,P|76:168|131:268,1,270.000010299683,2|8,0:2|0:2,0:0:0:0:
296,271,83855,1,0,0:0:0:0:
477,224,83945,6,0,L|365:216,1,90,6|0,1:2|0:0,0:0:0:0:
208,161,84307,2,0,L|320:153,1,90,0|0,1:2|0:0,0:0:0:0:
113,80,84668,2,0,L|225:72,1,90,2|0,1:2|0:2,0:0:0:0:
476,67,85030,2,0,L|364:59,1,90,8|0,1:2|0:2,0:0:0:0:
113,231,85391,5,2,1:2:0:0:
287,215,85572,1,0,0:2:0:0:
31,191,85753,2,0,L|23:91,1,90,2|0,1:2|0:2,0:0:0:0:
294,113,86114,1,2,1:2:0:0:
120,97,86295,1,0,0:2:0:0:
302,228,86475,1,2,1:2:0:0:
31,238,86656,1,8,0:2:0:0:
210,228,86747,1,0,0:0:0:0:
386,219,86837,6,0,P|467:203|420:118,1,202.500007724762,14|0,1:2|0:0,0:0:0:0:
251,155,87198,2,0,B|269:11|305:179|373:27,1,202.500007724762,2|0,1:2|0:0,0:0:0:0:
187,178,87560,1,2,1:2:0:0:
225,290,87741,1,0,0:0:0:0:
489,313,87921,1,10,1:2:0:0:
315,319,88102,1,2,0:2:0:0:
53,335,88283,6,0,P|103:264|16:209,1,202.500007724762,2|0,1:2|0:0,0:0:0:0:
209,216,88644,2,0,B|133:27|191:197|84:49,1,202.500007724762,2|0,1:2|0:0,0:0:0:0:
273,248,89006,1,2,1:2:0:0:
235,360,89187,1,0,0:0:0:0:
62,357,89367,1,2,1:2:0:0:
333,279,89548,1,10,0:2:0:0:
167,253,89638,1,0,0:0:0:0:
349,209,89728,6,0,P|427:189|459:130,1,135.000005149842,6|0,1:2|0:0,0:0:0:0:
275,52,90000,1,2,0:2:0:0:
328,92,90090,1,0,1:0:0:0:
275,52,90180,1,0,0:0:0:0:
105,57,90271,1,2,0:2:0:0:
409,106,90451,1,2,1:2:0:0:
234,125,90632,1,2,0:2:0:0:
491,189,90813,2,0,P|449:240|384:251,1,135.000005149842,10|2,1:2|0:2,0:0:0:0:
109,237,91174,5,2,1:2:0:0:
283,225,91355,1,2,0:2:0:0:
23,198,91536,2,0,L|17:60,1,135.000005149842,10|2,1:2|0:2,0:0:0:0:
98,29,91897,1,2,1:2:0:0:
272,47,92078,1,10,0:2:0:0:
17,63,92259,1,10,1:2:0:0:
191,159,92439,1,2,0:2:0:0:
21,169,92530,1,2,0:2:0:0:
191,159,92620,5,14,1:2:0:0:
236,226,92801,1,0,0:0:0:0:
191,286,92981,1,2,0:0:0:0:
96,307,93162,1,2,0:0:0:0:
276,322,93343,1,0,0:2:0:0:
231,256,93524,1,2,0:0:0:0:
141,217,93704,1,2,0:0:0:0:
231,170,93885,1,0,0:0:0:0:
415,139,94066,5,0,0:2:0:0:
324,118,94247,1,2,0:0:0:0:
416,78,94427,1,2,0:0:0:0:
461,31,94608,1,0,0:0:0:0:
280,30,94789,1,0,0:2:0:0:
371,50,94969,2,0,P|355:116|241:148,1,180,2|8,0:0|0:2,0:0:0:0:
76,137,95421,1,8,0:2:0:0:
257,153,95512,6,0,L|463:149,1,180,12|0,1:2|0:0,0:0:0:0:
393,225,96054,1,0,0:0:0:0:
214,254,96234,1,2,0:2:0:0:
304,245,96415,1,2,0:2:0:0:
349,178,96596,1,2,0:2:0:0:
303,119,96777,1,2,0:2:0:0:
124,107,96957,5,2,0:2:0:0:
214,88,97138,1,0,0:2:0:0:
124,107,97319,1,2,0:2:0:0:
214,88,97500,1,0,0:2:0:0:
124,107,97680,1,2,0:2:0:0:
214,88,97861,1,0,0:2:0:0:
35,142,98042,1,10,0:2:0:0:
23,222,98222,1,0,0:2:0:0:
303,295,98403,6,0,B|395:282|395:282|425:252|399:203,1,168.75,14|0,0:2|0:0,0:0:0:0:
329,193,98765,1,0,1:2:0:0:
320,110,98945,1,0,0:2:0:0:
140,121,99126,1,0,1:0:0:0:
185,57,99306,1,0,0:2:0:0:
365,42,99487,1,0,1:2:0:0:
185,57,99668,1,2,0:2:0:0:
285,48,99759,1,2,0:2:0:0:
185,57,99849,5,2,1:2:0:0:
140,119,100030,1,0,0:2:0:0:
319,139,100210,1,0,1:2:0:0:
229,150,100391,1,0,0:0:0:0:
49,185,100572,1,0,1:2:0:0:
40,261,100753,1,0,0:2:0:0:
129,265,100933,1,0,1:2:0:0:
219,270,101114,1,10,0:2:0:0:
383,280,101204,1,2,0:2:0:0:
209,295,101295,6,0,B|117:282|117:282|87:252|113:203,1,168.75,14|0,1:2|0:0,0:0:0:0:
180,193,101656,1,0,1:2:0:0:
189,110,101836,1,0,0:2:0:0:
369,121,102017,1,0,1:2:0:0:
279,61,102197,1,0,0:2:0:0:
459,53,102378,1,0,1:2:0:0:
279,61,102560,1,2,0:2:0:0:
459,53,102650,1,2,0:2:0:0:
279,61,102741,5,14,1:2:0:0:
369,71,102921,1,0,0:2:0:0:
188,125,103102,1,0,1:2:0:0:
278,135,103282,1,0,0:2:0:0:
98,189,103463,1,0,1:2:0:0:
188,199,103643,1,0,0:2:0:0:
369,215,103825,1,0,1:2:0:0:
459,205,104005,1,0,0:0:0:0:
279,314,104186,5,2,0:2:0:0:
166,305,104367,1,0,0:0:0:0:
121,240,104548,1,0,0:0:0:0:
233,199,104728,1,2,0:2:0:0:
53,177,104909,1,2,0:2:0:0:
154,168,105090,1,0,0:0:0:0:
195,110,105271,1,0,0:0:0:0:
94,73,105451,1,2,0:2:0:0:
274,264,105632,5,2,0:2:0:0:
184,231,105812,1,0,0:0:0:0:
220,179,105993,1,0,0:0:0:0:
310,172,106174,1,2,0:2:0:0:
130,135,106355,1,2,0:2:0:0:
208,164,106535,1,0,0:0:0:0:
177,209,106716,1,0,0:0:0:0:
98,216,106897,1,2,0:2:0:0:
174,237,106987,1,2,0:2:0:0:
279,232,107078,5,2,0:2:0:0:
189,266,107259,1,0,0:0:0:0:
279,232,107439,1,0,0:0:0:0:
288,161,107620,1,2,0:2:0:0:
468,177,107801,1,2,0:2:0:0:
378,211,107982,1,0,0:0:0:0:
468,177,108162,1,0,0:0:0:0:
477,106,108343,1,2,0:2:0:0:
297,132,108524,5,2,0:2:0:0:
306,61,108705,1,2,0:2:0:0:
127,155,108885,1,2,0:2:0:0:
217,163,109066,1,2,0:2:0:0:
212,213,109156,1,2,0:2:0:0:
317,243,109247,1,2,0:2:0:0:
312,293,109337,1,2,0:2:0:0:
417,289,109427,1,2,0:2:0:0:
422,339,109517,1,2,0:2:0:0:
317,321,109608,1,2,0:2:0:0:
371,317,109698,1,2,0:2:0:0:
263,247,109789,1,2,0:2:0:0:
317,243,109879,1,2,0:2:0:0:
204,198,109969,6,0,B|94:181|94:181|192:128|192:128|194:18|194:18|304:25|304:25|312:134|312:134|425:143|425:143|431:17,1,774.900011824036,2|2,0:2|0:2,0:0:0:0:
380,28,111325,1,0,0:0:0:0:
270,317,111415,6,0,B|190:328|166:254|191:203|271:201|271:201|343:198|379:131|339:64|272:72|272:72|174:124|174:124|284:136|284:136|287:248,1,774.900011824036,2|0,0:2|0:0,0:0:0:0:
80,330,112861,6,0,B|191:333|353:312|401:179|401:99|401:99|326:181|203:99|203:99|229:43|301:48,1,774.900011824036,2|2,0:2|0:2,0:0:0:0:
343,55,114216,1,2,0:2:0:0:
230,60,114307,6,0,P|120:137|254:222,1,332.100005067444,2|0,0:2|0:0,0:0:0:0:
340,149,115030,2,0,P|292:222|75:370,1,332.100005067444,2|0,0:2|0:0,0:0:0:0:
303,314,115753,6,0,L|112:283,1,180,2|0,0:2|0:0,0:0:0:0:
171,208,116295,1,0,0:0:0:0:
126,164,116385,1,0,0:0:0:0:
35,146,116475,1,2,0:2:0:0:
124,80,116656,1,0,0:0:0:0:
229,70,116747,1,0,0:0:0:0:
303,50,116837,1,0,0:0:0:0:
212,174,117018,1,2,0:2:0:0:
315,158,117108,1,2,0:2:0:0:
212,174,117198,6,0,P|150:224|213:289,1,180,2|0,0:2|0:0,0:0:0:0:
383,290,117741,1,0,0:0:0:0:
201,288,117921,2,0,L|174:5,1,270,2|2,0:2|1:2,0:0:0:0:
357,16,118554,1,2,0:2:0:0:
175,19,118644,6,0,P|86:120|475:352,1,774.900011824036,6|2,1:2|1:2,0:0:0:0:
358,317,120007,1,2,0:2:0:0:
470,366,120117,6,0,P|369:337|260:152,1,330,2|0,1:2|0:0,0:0:0:0:
