osu file format v14

[General]
AudioFilename: audio.ogg
AudioLeadIn: 0
PreviewTime: 66235
Countdown: 0
SampleSet: Soft
StackLeniency: 0.7
Mode: 2
LetterboxInBreaks: 0
WidescreenStoryboard: 1

[Editor]
Bookmarks: 14187,27199,40211,48885,57560,69488,80963,92620,104186
DistanceSpacing: 0.8
BeatDivisor: 4
GridSize: 32
TimelineZoom: 1.200001

[Metadata]
Title:Vulnerability
TitleUnicode:Vulnerability
Artist:Mili
ArtistUnicode:Mili
Creator:Mniam
Version:Benita's Rain
Source:
Tags:fa featured artist instrumental violin miracle milk electronic piano mpg mappers' guild Benita bennybananas benny- Stardust Prism bighzonda zonda bigh 050 momocashew cassie wei yamato kasai indie projectmili
BeatmapID:4091376
BeatmapSetID:1971788

[Difficulty]
HPDrainRate:5
CircleSize:4
OverallDifficulty:9
ApproachRate:9
SliderMultiplier:1.8
SliderTickRate:2

[Events]
//Background and Video events
0,0,"violintypebeat.jpg",0,0
//Break Periods
//Storyboard Layer 0 (Background)
//Storyboard Layer 1 (Fail)
//Storyboard Layer 2 (Pass)
//Storyboard Layer 3 (Foreground)
//Storyboard Layer 4 (Overlay)
//Storyboard Sound Samples

[TimingPoints]
1175,361.44578313253,3,2,1,40,1,0
14187,-100,3,2,1,50,0,0
15271,-100,3,2,2,50,0,0
22861,-100,3,2,1,70,0,0
25030,-100,3,2,1,60,0,0
26114,-100,3,2,1,50,0,0
27199,-100,3,2,1,40,0,0
30452,-100,3,2,1,30,0,0
31536,-100,3,2,1,40,0,0
40211,-100,3,2,1,60,0,0
57560,-100,3,2,1,40,0,0
69488,361.44578313253,4,2,1,80,1,1
70572,-100,4,2,2,80,0,1
75090,-100,4,2,1,80,0,1
76355,-100,4,2,2,80,0,1
80692,-100,4,2,1,80,0,1
81054,-100,4,2,1,70,0,1
82138,-100,4,2,2,70,0,1
86656,-100,4,2,1,70,0,1
86837,-100,4,2,1,80,0,1
87921,-100,4,2,2,80,0,1
92259,-100,4,2,1,80,0,1
92620,-100,4,2,1,70,0,0
98403,-100,4,2,1,80,0,0
104186,-100,4,2,1,50,0,0
105632,-100,4,2,1,40,0,0
108524,-100,4,2,1,50,0,0
114307,-125,4,2,1,50,0,0
115753,-100,4,2,1,50,0,0
118644,-166.666666666667,4,2,1,80,0,0
119909,392.156862745098,4,2,1,60,1,0
120117,392.156862745098,4,2,1,40,1,0
120901,-100,4,2,1,5,0,0

[Colours]
Combo1 : 63,109,156
Combo2 : 222,213,99
Combo3 : 169,40,37
Combo4 : 151,82,36

[HitObjects]
460,321,1175,5,2,1:2:0:0:
278,271,1536,2,0,L|367:271,1,90
105,151,1897,1,2,0:0:0:0:
411,143,2259,5,2,0:0:0:0:
320,185,2440,2,0,L|320:280,1,90
411,304,2801,1,0,0:0:0:0:
164,240,2982,1,2,0:0:0:0:
438,192,3343,6,0,L|348:191,1,90,6|0,1:3|0:0,0:0:0:0:
184,190,3704,2,0,L|274:190,1,90
441,148,4065,1,2,0:0:0:0:
96,64,4428,5,2,0:0:0:0:
288,64,4789,2,0,L|288:160,1,90,2|0,0:0|0:0,0:0:0:0:
96,160,5150,1,2,0:0:0:0:
365,194,5512,6,0,L|366:298,1,90,2|0,1:2|0:0,0:0:0:0:
230,294,5873,1,0,0:0:0:0:
365,283,6054,1,0,0:0:0:0:
44,311,6235,1,2,0:0:0:0:
346,275,6596,5,2,0:0:0:0:
249,240,6777,1,0,0:0:0:0:
247,154,6958,1,0,0:0:0:0:
351,85,7138,1,0,0:0:0:0:
195,79,7319,1,2,0:0:0:0:
480,166,7681,6,0,L|481:273,1,90,6|0,1:3|0:0,0:0:0:0:
391,260,8042,1,0,0:0:0:0:
480,255,8223,1,0,0:0:0:0:
316,334,8403,2,0,L|195:330,1,90,2|2,0:0|0:0,0:0:0:0:
491,195,8765,6,0,L|273:182,2,180,2|2|2,0:0|0:0|0:0,0:0:0:0:
32,206,9849,6,0,L|33:307,1,90,6|0,1:2|0:0,0:0:0:0:
179,326,10211,1,2,0:0:0:0:
58,301,10391,1,0,0:0:0:0:
179,326,10572,2,0,L|285:322,1,90,2|0,0:0|0:0,0:0:0:0:
24,172,10934,6,0,L|126:174,1,90,2|0,0:0|0:0,0:0:0:0:
280,297,11295,2,0,L|157:298,1,90,2|0,0:0|0:0,0:0:0:0:
336,184,11656,2,0,L|435:182,1,90,2|8,0:0|0:3,0:0:0:0:
430,176,11928,1,8,0:3:0:0:
202,178,12018,6,0,L|203:279,1,90,14|0,0:3|0:0,0:0:0:0:
349,298,12380,1,2,0:0:0:0:
224,271,12560,1,0,0:0:0:0:
349,298,12741,2,0,L|455:294,1,90,2|0,0:0|0:0,0:0:0:0:
154,331,13103,6,0,L|150:233,1,90,2|0,0:0|0:0,0:0:0:0:
392,236,13464,2,0,L|481:235,2,90,2|2|2,0:0|0:0|0:0,0:0:0:0:
71,239,14006,1,10,0:0:0:0:
390,227,14187,6,0,L|400:328,1,90,14|0,1:2|0:0,0:0:0:0:
256,356,14548,2,0,L|363:355,1,90,2|0,0:0|0:0,0:0:0:0:
100,203,14909,2,0,L|102:308,1,90,2|2,1:2|0:0,0:0:0:0:
383,340,15271,2,0,P|314:326|405:133,1,360,10|0,1:2|0:0,0:0:0:0:
486,130,16174,2,0,L|492:198,1,45,2|2,0:0|0:0,0:0:0:0:
254,299,16355,6,0,P|264:177|279:297,1,360,2|8,1:2|0:0,0:0:0:0:
28,126,17440,2,0,L|22:312,1,180,10|2,1:2|0:2,0:0:0:0:
481,299,18162,1,10,1:2:0:0:
28,311,18524,6,0,L|226:306,1,180,14|2,1:2|0:2,0:0:0:0:
300,305,19066,1,0,0:0:0:0:
32,224,19247,2,0,L|139:226,1,90,2|2,1:2|0:2,0:0:0:0:
392,290,19608,2,0,L|3:271,1,360,2|2,1:2|0:2,0:0:0:0:
471,37,20693,6,0,P|401:82|520:273,1,360,10|2,1:2|0:2,0:0:0:0:
75,296,21777,2,0,L|448:295,1,360,2|2,1:2|0:2,0:0:0:0:
16,197,22861,6,0,L|18:298,1,90,6|0,1:2|0:0,0:0:0:0:
307,313,23223,2,0,L|105:310,1,180,10|10,0:3|1:3,0:0:0:0:
127,310,23765,1,0,0:0:0:0:
399,289,23946,6,0,L|439:209,1,90,6|0,1:2|0:0,0:0:0:0:
195,197,24307,2,0,L|3:190,1,180,10|10,0:3|1:3,0:0:0:0:
482,227,25030,5,2,1:2:0:0:
337,132,25211,1,2,0:2:0:0:
382,132,25301,1,2,0:2:0:0:
427,132,25391,1,2,0:2:0:0:
282,185,25572,2,0,L|170:179,2,90,2|2|2,0:2|1:2|0:2,0:0:0:0:
31,287,26114,6,0,B|33:162|33:162|179:157|218:181|211:271|181:301,1,360,2|2,1:2|1:2,0:0:0:0:
107,265,27018,1,2,0:0:0:0:
254,308,27199,6,0,L|50:310,1,180,2|2,0:0|0:0,0:0:0:0:
74,309,27741,1,0,0:0:0:0:
217,304,27921,2,0,L|226:198,1,90,2|2,0:2|0:2,0:0:0:0:
80,209,28283,6,0,L|299:201,2,180,2|0|2,0:2|0:0|0:2,0:0:0:0:
371,111,29367,2,0,P|409:147|350:261,1,180,2|0,0:2|0:0,0:0:0:0:
179,299,30090,1,2,0:2:0:0:
470,320,30452,6,0,L|472:300,1,11.25,2|0,0:2|0:0,0:0:0:0:
301,315,30813,2,0,L|300:295,1,11.25,2|0,0:2|0:0,0:0:0:0:
467,277,31174,2,0,L|471:260,1,11.25,2|0,0:2|0:0,0:0:0:0:
383,206,31355,1,0,0:0:0:0:
55,202,31536,6,0,L|261:192,1,180,2|0,0:2|0:0,0:0:0:0:
328,186,32078,1,0,0:0:0:0:
179,210,32259,2,0,L|180:311,1,90,2|2,0:2|0:2,0:0:0:0:
361,324,32620,1,2,0:2:0:0:
97,317,32982,2,0,L|100:216,1,90,2|0,0:2|0:0,0:0:0:0:
237,231,33343,2,0,L|239:132,1,90,2|0,0:2|0:0,0:0:0:0:
80,141,33705,6,0,L|266:137,1,180,2|0,0:2|0:0,0:0:0:0:
36,127,34428,2,0,L|32:234,1,90,2|2,0:2|0:2,0:0:0:0:
203,289,34789,2,0,L|401:282,1,180,2|0,0:2|0:0,0:0:0:0:
382,282,35331,1,0,0:0:0:0:
234,264,35512,2,0,L|234:158,1,90,2|0,0:2|0:0,0:0:0:0:
414,156,35873,6,0,L|227:156,1,180,2|0,0:2|0:0,0:0:0:0:
143,153,36415,1,0,0:0:0:0:
296,102,36596,1,2,0:2:0:0:
143,153,36777,1,2,0:2:0:0:
296,102,36958,6,0,L|488:102,1,180,2|0,0:2|0:0,0:0:0:0:
128,287,37681,1,2,0:2:0:0:
442,287,38042,6,0,L|442:178,1,90,6|0,0:3|0:0,0:0:0:0:
291,199,38403,2,0,L|180:198,1,90
345,111,38765,1,2,0:2:0:0:
176,108,38946,1,2,0:2:0:0:
345,111,39126,6,0,L|349:217,1,90,2|0,0:2|0:0,0:0:0:0:
198,249,39488,2,0,L|84:254,1,90,2|0,0:2|0:0,0:0:0:0:
259,298,39849,2,0,L|364:308,1,90,2|0,0:2|0:0,0:0:0:0:
57,337,40211,6,0,L|51:225,1,90,14|2,1:2|0:0,0:0:0:0:
111,235,40482,1,0,0:0:0:0:
270,235,40572,2,0,L|331:234,1,45,2|0,1:2|0:0,0:0:0:0:
311,180,40753,2,0,L|266:180,1,45,2|0,0:2|0:0,0:0:0:0:
92,177,40934,2,0,L|45:177,1,45,2|0,1:2|0:0,0:0:0:0:
271,169,41114,2,0,L|349:168,1,45,2|0,1:2|0:0,0:0:0:0:
107,153,41295,6,0,L|0:152,1,90,2|0,1:2|0:0,0:0:0:0:
298,129,41656,2,0,L|299:243,1,90,10|0,1:3|0:0,0:0:0:0:
49,270,42018,1,14,1:3:0:0:
298,280,42199,1,10,0:2:0:0:
49,270,42379,6,0,L|48:160,1,90,14|0,1:2|0:0,0:0:0:0:
309,182,42741,2,0,L|200:181,1,90,2|0,1:0|0:0,0:0:0:0:
459,121,43102,2,0,L|464:234,1,90,2|0,1:0|1:0,0:0:0:0:
197,298,43464,6,0,P|159:229|199:200,1,135,2|0,1:0|0:0,0:0:0:0:
358,206,43825,2,0,P|365:130|310:92,1,135,10|0,1:3|0:0,0:0:0:0:
154,94,44187,2,0,L|322:90,1,135,10|0,1:3|0:0,0:0:0:0:
103,189,44548,6,0,L|99:122,1,45,6|0,1:2|0:0,0:0:0:0:
251,147,44729,2,0,L|297:146,1,45,2|0,0:0|0:0,0:0:0:0:
345,144,44909,2,0,L|348:76,1,45,2|0,1:2|0:0,0:0:0:0:
154,75,45090,2,0,L|101:75,1,45,2|0,0:0|0:0,0:0:0:0:
258,123,45271,2,0,L|258:184,1,45,2|0,1:2|0:0,0:0:0:0:
216,196,45452,2,0,L|170:196,1,45,2|0,1:2|0:0,0:0:0:0:
356,277,45632,6,0,L|471:279,1,90,2|0,1:2|0:0,0:0:0:0:
192,335,45994,1,10,1:3:0:0:
344,324,46174,1,2,0:2:0:0:
192,335,46355,1,14,1:3:0:0:
470,324,46536,1,10,0:2:0:0:
192,335,46717,6,0,L|185:223,1,90,14|0,1:2|0:0,0:0:0:0:
338,221,47078,1,2,1:2:0:0:
185,211,47259,1,0,0:0:0:0:
332,207,47440,2,0,L|449:198,1,90,2|0,1:2|1:0,0:0:0:0:
132,167,47801,6,0,P|93:223|134:274,1,135,2|0,1:2|0:0,0:0:0:0:
297,302,48162,2,0,P|325:242|293:181,1,135,10|0,1:3|0:0,0:0:0:0:
81,194,48524,2,0,L|227:188,1,135,10|0,1:3|0:0,0:0:0:0:
455,337,48885,6,0,L|461:225,1,90,14|2,1:2|0:0,0:0:0:0:
401,235,49156,1,0,0:0:0:0:
242,235,49246,2,0,L|181:234,1,45,2|0,1:2|0:0,0:0:0:0:
242,235,49427,2,0,L|287:235,1,45,2|0,0:2|0:0,0:0:0:0:
137,206,49608,2,0,L|90:206,1,45,2|0,1:2|0:0,0:0:0:0:
251,206,49788,2,0,L|329:205,1,45,2|0,1:2|0:0,0:0:0:0:
107,153,49969,6,0,L|0:152,1,90,2|0,1:2|0:0,0:0:0:0:
290,141,50330,2,0,L|384:141,1,90,10|0,1:3|0:0,0:0:0:0:
131,131,50692,1,14,1:3:0:0:
380,141,50873,1,10,0:2:0:0:
131,131,51053,6,0,L|130:21,1,90,14|0,1:2|0:0,0:0:0:0:
379,195,51415,2,0,L|488:194,1,90,2|0,1:0|0:0,0:0:0:0:
226,193,51776,2,0,L|111:188,1,90,2|0,1:0|1:0,0:0:0:0:
432,191,52138,6,0,P|441:124|381:86,1,135,2|0,1:0|0:0,0:0:0:0:
163,333,52499,2,0,P|163:260|223:237,1,135,10|0,1:3|0:0,0:0:0:0:
374,307,52861,2,0,L|206:303,1,135,10|0,1:3|0:0,0:0:0:0:
451,262,53222,6,0,L|451:198,1,45,6|0,1:2|0:0,0:0:0:0:
273,209,53403,2,0,L|227:208,1,45,2|0,0:0|0:0,0:0:0:0:
232,150,53583,2,0,L|301:153,1,45,2|0,1:2|0:0,0:0:0:0:
442,148,53764,2,0,L|452:226,1,45,2|0,0:0|0:0,0:0:0:0:
299,269,53945,2,0,L|240:271,1,45,2|0,1:2|0:0,0:0:0:0:
299,269,54126,2,0,L|345:269,1,45,2|0,1:2|0:0,0:0:0:0:
156,277,54306,6,0,L|41:279,1,90,2|0,1:2|0:0,0:0:0:0:
320,335,54668,1,10,1:3:0:0:
168,324,54848,1,2,0:2:0:0:
320,335,55029,1,14,1:3:0:0:
42,324,55210,1,10,0:2:0:0:
320,335,55391,6,0,L|327:223,1,90,14|0,1:2|0:0,0:0:0:0:
174,221,55752,1,2,1:2:0:0:
327,211,55933,1,0,0:0:0:0:
180,207,56114,2,0,L|63:198,1,90,2|0,1:2|1:0,0:0:0:0:
380,167,56475,6,0,P|419:223|378:274,1,135,2|0,1:2|0:0,0:0:0:0:
215,302,56836,2,0,L|378:301,1,135,10|0,1:3|0:0,0:0:0:0:
169,225,57198,2,0,P|140:290|173:340,1,135,10|0,1:3|0:0,0:0:0:0:
391,338,57560,5,2,1:0:0:0:
464,293,57740,1,0,0:0:0:0:
458,208,57921,1,0,0:0:0:0:
380,173,58102,1,0,0:0:0:0:
234,171,58283,1,2,0:0:0:0:
380,173,58464,1,2,0:0:0:0:
234,171,58644,6,0,L|233:272,1,90,2|0,0:0|0:0,0:0:0:0:
387,308,59006,2,0,L|285:304,1,90,2|0,0:0|0:0,0:0:0:0:
444,165,59367,2,0,L|452:262,1,90,2|0,0:0|0:0,0:0:0:0:
293,323,59729,5,2,0:0:0:0:
225,268,59909,1,0,0:0:0:0:
224,181,60090,1,0,0:0:0:0:
291,125,60271,1,0,0:0:0:0:
147,125,60452,1,2,0:0:0:0:
291,125,60632,1,2,0:0:0:0:
147,125,60813,6,0,L|47:126,1,90,2|0,0:0|0:0,0:0:0:0:
201,232,61174,2,0,L|308:241,1,90,2|0,0:0|0:0,0:0:0:0:
138,311,61536,2,0,L|42:318,1,90,2|0,0:0|0:0,0:0:0:0:
201,353,61897,6,0,L|404:349,2,180,2|2|2,0:0|0:0|0:0,0:0:0:0:
444,366,62982,6,0,P|484:323|426:215,1,180,2|0,0:0|0:0,0:0:0:0:
347,208,63524,1,0,0:0:0:0:
278,151,63705,1,2,0:0:0:0:
266,73,63885,1,0,0:0:0:0:
412,69,64066,5,2,0:0:0:0:
482,120,64246,1,0,0:0:0:0:
484,207,64427,1,0,0:0:0:0:
417,262,64608,1,0,0:0:0:0:
272,271,64789,2,0,L|158:264,1,90,2|0,0:0|0:0,0:0:0:0:
330,227,65150,5,2,0:0:0:0:
395,169,65330,1,0,0:0:0:0:
392,82,65511,1,0,0:0:0:0:
323,29,65692,1,0,0:0:0:0:
174,124,65873,2,0,L|270:124,1,90,2|0,0:0|0:0,0:0:0:0:
18,182,66235,6,0,L|16:282,1,90,2|0,0:0|0:0,0:0:0:0:
168,293,66596,1,2,0:0:0:0:
26,302,66777,1,0,0:0:0:0:
168,293,66958,2,0,L|277:293,1,90,2|0,0:0|0:0,0:0:0:0:
16,227,67319,5,2,0:0:0:0:
162,218,67500,1,0,0:0:0:0:
16,227,67681,2,0,L|14:125,1,90,2|0,0:0|0:0,0:0:0:0:
163,121,68042,2,0,L|64:114,1,90,2|0,0:0|0:0,0:0:0:0:
350,108,68403,6,0,L|356:220,1,90,2|0,0:0|0:0,0:0:0:0:
208,216,68765,2,0,L|211:322,1,90,2|0,0:0|0:0,0:0:0:0:
470,203,69126,2,0,L|481:321,1,90,8|0,0:0|0:0,0:0:0:0:
124,293,69488,6,0,L|121:185,1,90,12|2,1:2|0:2,0:0:0:0:
181,185,69759,1,2,0:2:0:0:
379,123,69849,2,0,L|502:127,1,90,2|2,1:2|0:2,0:0:0:0:
137,227,70210,1,2,1:2:0:0:
137,227,70331,2,0,L|218:227,1,60
298,177,70572,1,8,1:2:0:0:
298,177,70692,2,0,L|221:178,1,60
426,171,70933,6,0,L|501:173,2,60,2|2|2,1:2|0:2|0:2,0:0:0:0:
214,168,71295,1,2,1:2:0:0:
274,168,71415,1,2,0:2:0:0:
334,168,71535,1,2,0:2:0:0:
136,248,71656,2,0,L|50:248,2,60,2|2|2,1:2|0:2|0:2,0:0:0:0:
343,329,72018,1,2,1:2:0:0:
283,329,72138,1,2,0:2:0:0:
223,329,72258,1,2,0:2:0:0:
412,120,72379,5,6,1:2:0:0:
412,120,72500,2,0,L|324:119,1,60
239,99,72741,1,2,1:2:0:0:
239,99,72862,2,0,L|327:98,1,60
94,193,73102,2,0,L|23:192,2,60,2|0|0,1:2|0:0|0:0,0:0:0:0:
199,192,73463,1,10,1:2:0:0:
139,190,73583,1,0,0:0:0:0:
79,189,73703,1,0,0:0:0:0:
379,165,73825,6,0,L|450:164,2,60,0|2|2,1:2|0:2|0:2,0:0:0:0:
281,166,74186,1,2,1:2:0:0:
340,164,74306,1,2,0:2:0:0:
400,162,74426,1,2,0:2:0:0:
294,275,74548,1,2,1:2:0:0:
243,248,74668,1,0,0:0:0:0:
239,191,74788,1,0,0:0:0:0:
286,158,74909,1,2,1:2:0:0:
31,231,75090,1,8,0:2:0:0:
286,158,75271,6,0,P|323:117|281:73,1,120,12|2,1:2|0:2,0:0:0:0:
201,56,75632,1,2,1:2:0:0:
288,73,75753,1,2,0:2:0:0:
201,56,75873,1,2,0:2:0:0:
384,131,75994,2,0,P|415:194|383:225,1,120,2|2,1:2|0:2,0:0:0:0:
285,270,76355,1,8,1:2:0:0:
285,270,76475,2,0,L|365:269,1,60,0|2,0:0|0:2,0:0:0:0:
143,275,76716,6,0,L|72:274,2,60,2|0|0,1:2|0:0|0:0,0:0:0:0:
251,224,77078,2,0,L|111:213,1,120,2|2,1:2|0:2,0:0:0:0:
218,169,77439,1,2,1:2:0:0:
131,214,77560,1,2,0:2:0:0:
218,169,77680,1,2,0:2:0:0:
131,214,77801,1,2,1:2:0:0:
398,272,77981,1,8,0:0:0:0:
131,214,78162,6,0,P|94:173|126:124,1,120,6|0,1:2|0:0,0:0:0:0:
231,108,78524,2,0,L|111:106,1,120,2|0,1:2|0:0,0:0:0:0:
362,218,78885,2,0,L|435:224,2,60,2|0|0,1:2|0:0|0:0,0:0:0:0:
254,218,79247,1,10,1:2:0:0:
254,218,79367,2,0,L|341:216,1,60
115,213,79608,5,2,1:2:0:0:
262,164,79789,2,0,L|262:55,1,90,10|8,0:2|1:2,0:0:0:0:
18,238,80150,2,0,L|23:141,1,90,2|0,0:2|1:2,0:0:0:0:
81,137,80421,1,0,0:0:0:0:
256,139,80512,2,0,L|257:242,1,90,2|8,0:2|1:2,0:0:0:0:
111,291,80873,1,0,0:0:0:0:
399,335,81054,5,6,1:2:0:0:
466,280,81234,1,0,0:0:0:0:
462,194,81415,1,0,1:2:0:0:
389,146,81596,1,0,0:0:0:0:
243,158,81777,2,0,L|236:259,1,90,2|0,1:2|0:0,0:0:0:0:
480,246,82138,2,0,L|481:150,1,90,8|0,1:2|0:0,0:0:0:0:
209,252,82500,5,2,1:2:0:0:
298,250,82680,1,0,0:0:0:0:
388,248,82861,1,2,1:2:0:0:
478,247,83042,1,0,0:0:0:0:
176,334,83222,2,0,L|65:329,2,90,0|2|0,1:2|0:2|1:0,0:0:0:0:
466,331,83765,1,8,0:2:0:0:
177,334,83945,6,0,L|171:214,1,90,6|0,1:2|0:0,0:0:0:0:
318,251,84307,2,0,L|321:145,1,90,0|0,1:2|0:0,0:0:0:0:
167,162,84668,2,0,L|61:154,1,90,2|0,1:2|0:2,0:0:0:0:
342,163,85030,2,0,L|441:161,1,90,8|0,1:2|0:2,0:0:0:0:
171,253,85391,6,0,L|167:152,1,90,2|0,1:2|0:2,0:0:0:0:
316,156,85753,1,2,1:2:0:0:
173,152,85933,1,0,0:2:0:0:
436,84,86114,2,0,L|441:185,1,90,2|0,1:2|0:2,0:0:0:0:
289,227,86475,1,2,1:2:0:0:
447,238,86656,1,8,0:2:0:0:
152,291,86837,6,0,L|40:281,1,90,14|0,1:2|0:0,0:0:0:0:
340,209,87198,2,0,L|460:208,1,90,2|0,1:2|0:0,0:0:0:0:
184,200,87560,2,0,L|182:305,1,90,2|0,1:2|0:0,0:0:0:0:
428,318,87921,1,10,1:2:0:0:
182,289,88102,1,2,0:2:0:0:
428,318,88283,6,0,L|430:207,1,90,2|0,1:2|0:0,0:0:0:0:
379,217,88554,1,0,0:0:0:0:
201,211,88644,2,0,L|102:217,1,90,2|0,1:2|0:0,0:0:0:0:
265,159,89006,2,0,L|265:56,1,90,2|0,1:2|0:0,0:0:0:0:
20,65,89367,1,2,1:2:0:0:
265,69,89548,1,10,0:2:0:0:
20,65,89728,6,0,L|21:171,1,90,6|0,1:2|0:0,0:0:0:0:
202,212,90000,2,0,L|268:227,2,45,2|0|0,0:2|1:0|0:0,0:0:0:0:
28,275,90271,2,0,L|26:338,1,45,2|0,0:2|0:0,0:0:0:0:
189,353,90451,2,0,L|191:237,1,90,2|2,1:2|0:2,0:0:0:0:
36,225,90813,1,10,1:2:0:0:
190,214,90994,1,2,0:2:0:0:
434,242,91174,6,0,L|431:130,1,90,2|2,1:2|0:2,0:0:0:0:
364,144,91445,1,0,0:0:0:0:
162,143,91536,2,0,L|42:142,1,90,10|2,1:2|0:2,0:0:0:0:
360,211,91897,1,2,1:2:0:0:
116,217,92078,1,10,0:2:0:0:
360,211,92259,2,0,L|360:328,1,90,10|2,1:2|0:2,0:0:0:0:
54,305,92620,6,0,L|54:197,1,90,14|0,1:2|0:0,0:0:0:0:
212,192,92981,1,2,0:0:0:0:
56,170,93162,1,2,0:0:0:0:
214,171,93343,2,0,L|347:165,1,90,0|2,0:2|0:0,0:0:0:0:
158,138,93704,2,0,L|61:132,1,90,2|0,0:0|0:0,0:0:0:0:
216,79,94066,5,0,0:2:0:0:
284,133,94246,1,2,0:0:0:0:
288,220,94427,1,2,0:0:0:0:
224,280,94608,1,0,0:0:0:0:
74,293,94789,1,0,0:2:0:0:
163,291,94969,1,2,0:0:0:0:
253,290,95150,1,0,0:0:0:0:
343,289,95331,1,8,0:2:0:0:
298,292,95421,1,8,0:2:0:0:
140,291,95512,6,0,L|138:183,1,90,12|0,1:2|0:0,0:0:0:0:
284,203,95873,2,0,L|283:94,1,90
136,112,96234,2,0,L|235:112,1,90,2|2,0:2|0:2,0:0:0:0:
371,212,96596,2,0,L|268:221,1,90,2|2,0:2|0:2,0:0:0:0:
127,320,96957,5,2,0:2:0:0:
67,258,97137,1,0,0:2:0:0:
98,178,97318,1,2,0:2:0:0:
183,171,97499,1,0,0:2:0:0:
225,245,97679,1,2,0:2:0:0:
177,315,97860,1,0,0:2:0:0:
426,326,98042,2,0,L|436:222,1,90,10|0,0:2|0:2,0:0:0:0:
178,233,98403,6,0,L|58:222,1,90,14|0,0:2|0:0,0:0:0:0:
244,171,98765,2,0,L|362:170,1,90,0|0,1:2|0:2,0:0:0:0:
178,200,99126,2,0,L|178:314,1,90,0|0,1:0|0:2,0:0:0:0:
331,311,99487,1,0,1:2:0:0:
177,306,99668,2,0,L|172:256,1,45,2|2,0:2|0:2,0:0:0:0:
342,257,99849,6,0,L|452:254,1,90,2|0,1:2|0:2,0:0:0:0:
281,206,100210,2,0,L|169:198,1,90,0|0,1:2|0:0,0:0:0:0:
352,108,100572,2,0,L|356:236,1,90,0|0,1:2|0:2,0:0:0:0:
197,275,100933,1,0,1:2:0:0:
445,232,101114,2,0,L|449:298,1,45,10|2,0:2|0:2,0:0:0:0:
257,323,101295,6,0,L|145:322,1,90,14|0,1:2|0:0,0:0:0:0:
314,270,101656,2,0,L|421:264,1,90,0|0,1:2|0:2,0:0:0:0:
251,194,102018,2,0,L|362:189,1,90,0|0,1:2|0:2,0:0:0:0:
193,152,102379,2,0,L|76:153,1,90,0|2,1:2|0:2,0:0:0:0:
103,152,102650,1,2,0:2:0:0:
317,328,102741,5,14,1:2:0:0:
374,261,102921,1,0,0:2:0:0:
370,173,103102,1,0,1:2:0:0:
307,112,103283,1,0,0:2:0:0:
220,111,103463,1,0,1:2:0:0:
155,171,103644,1,0,0:2:0:0:
149,259,103825,1,0,1:2:0:0:
206,326,104006,1,0,0:0:0:0:
352,326,104186,6,0,L|453:319,2,90,2|0|0,0:2|0:0|0:0,0:0:0:0:
197,211,104728,1,2,0:2:0:0:
352,326,104909,1,2,0:2:0:0:
262,320,105089,1,0,0:0:0:0:
172,315,105270,1,0,0:0:0:0:
326,213,105451,1,2,0:2:0:0:
174,211,105632,6,0,L|76:211,2,90,2|0|0,0:2|0:0|0:0,0:0:0:0:
329,183,106174,1,2,0:2:0:0:
179,209,106355,1,2,0:2:0:0:
89,204,106535,1,0,0:0:0:0:
0,199,106716,1,0,0:0:0:0:
155,153,106897,2,0,L|210:152,1,45,2|2,0:2|0:2,0:0:0:0:
99,123,107078,6,0,L|20:60,2,90,2|0|0,0:2|0:0|0:0,0:0:0:0:
253,169,107620,1,2,0:2:0:0:
98,245,107801,1,2,0:2:0:0:
187,243,107981,1,0,0:0:0:0:
277,241,108162,1,0,0:0:0:0:
124,146,108343,1,2,0:2:0:0:
279,141,108524,6,0,L|286:251,1,90,2|2,0:2|0:2,0:0:0:0:
130,244,108885,2,0,L|124:340,1,90,2|2,0:2|0:2,0:0:0:0:
170,348,109156,1,2,0:2:0:0:
261,349,109247,2,0,L|312:349,1,45,2|2,0:2|0:2,0:0:0:0:
261,349,109427,2,0,L|203:351,1,45,2|2,0:2|0:2,0:0:0:0:
309,304,109608,2,0,L|366:300,1,45,2|2,0:2|0:2,0:0:0:0:
352,236,109789,2,0,L|301:237,1,45,2|2,0:2|0:2,0:0:0:0:
216,302,109969,5,2,0:2:0:0:
149,245,110149,1,0,0:0:0:0:
144,157,110330,1,0,0:0:0:0:
204,94,110511,1,0,0:0:0:0:
292,93,110691,1,0,0:0:0:0:
352,157,110872,1,0,0:0:0:0:
348,244,111053,1,0,0:0:0:0:
194,245,111234,1,2,0:2:0:0:
348,79,111415,5,2,0:2:0:0:
414,136,111595,1,0,0:0:0:0:
419,223,111776,1,0,0:0:0:0:
360,288,111957,1,0,0:0:0:0:
273,291,112137,1,0,0:0:0:0:
209,230,112318,1,0,0:0:0:0:
209,143,112499,1,0,0:0:0:0:
271,81,112680,1,0,0:0:0:0:
425,200,112861,5,2,0:2:0:0:
335,198,113041,1,0,0:0:0:0:
245,197,113222,1,0,0:0:0:0:
155,196,113403,1,0,0:0:0:0:
245,167,113584,1,0,0:0:0:0:
334,167,113764,1,0,0:0:0:0:
424,168,113945,1,0,0:0:0:0:
287,190,114126,2,0,L|289:245,1,45,2|2,0:2|0:2,0:0:0:0:
384,285,114307,6,0,L|132:288,1,252,2|0,0:2|0:0,0:0:0:0:
231,283,115030,2,0,P|316:204|253:106,1,252,2|0,0:2|0:0,0:0:0:0:
162,97,115753,6,0,L|341:110,1,180,2|0,0:2|0:0,0:0:0:0:
239,178,116295,2,0,L|245:253,1,45
346,241,116475,2,0,L|435:243,1,90,2|0,0:2|0:0,0:0:0:0:
443,218,116747,1,0,0:0:0:0:
338,206,116837,2,0,L|248:204,1,90,0|2,0:0|0:2,0:0:0:0:
255,173,117108,1,2,0:2:0:0:
428,131,117198,6,0,P|485:189|429:249,1,180,2|0,0:2|0:0,0:0:0:0:
338,247,117741,1,0,0:0:0:0:
184,318,117921,2,0,P|139:287|216:131,1,270,2|2,0:2|1:2,0:0:0:0:
465,163,118644,6,0,L|75:162,1,377.999988464356,6|2,1:2|1:2,0:0:0:0:
166,223,120007,1,2,0:2:0:0:
255,222,120117,5,2,1:2:0:0:
256,192,120313,12,0,120901,0:0:0:0:
