osu file format v14

[General]
AudioFilename: audio.mp3
AudioLeadIn: 0
PreviewTime: 66235
Countdown: 0
SampleSet: Soft
StackLeniency: 0.4
Mode: 0
LetterboxInBreaks: 0
WidescreenStoryboard: 0

[Editor]
DistanceSpacing: 1
BeatDivisor: 4
GridSize: 8
TimelineZoom: 3.999998

[Metadata]
Title:Vulnerability
TitleUnicode:Vulnerability
Artist:Mili
ArtistUnicode:Mili
Creator:IceKalt
Version:Upcoming Storm
Source:
Tags:miracle milk electronic saihate records hamo hamoloid yamato kasai Xenok Saturnalize Myxomatosis desperate-kun pandahero
BeatmapID:1749294
BeatmapSetID:835194

[Difficulty]
HPDrainRate:6
CircleSize:3.4
OverallDifficulty:8.8
ApproachRate:9.4
SliderMultiplier:1.8
SliderTickRate:1

[Events]
//Background and Video events
0,0,"falling.jpg",0,0
//Break Periods
//Storyboard Layer 0 (Background)
//Storyboard Layer 1 (Fail)
//Storyboard Layer 2 (Pass)
//Storyboard Layer 3 (Foreground)
//Storyboard Sound Samples
Sample,57560,0,"drum-hitfinish.wav",45
Sample,69488,0,"drum-hitfinish.wav",65

[TimingPoints]
1175,361.44578313253,3,2,0,40,1,0
1175,-100,3,2,0,40,0,0
3343,-83.3333333333333,3,2,0,40,0,0
5512,-83.3333333333333,3,2,0,35,0,0
6596,-200,3,2,0,28,0,0
7681,-83.3333333333333,3,2,0,40,0,0
9849,-83.3333333333333,3,2,1,55,0,0
10030,-83.3333333333333,3,2,0,55,0,0
11837,-83.3333333333333,3,2,1,75,0,0
12199,-83.3333333333333,3,2,0,55,0,0
13102,-125,3,2,1,55,0,0
13193,-125,3,2,1,15,0,0
13283,-125,3,2,1,25,0,0
13373,-125,3,2,1,35,0,0
13464,-125,3,2,1,60,0,0
13644,-125,3,2,1,70,0,0
13825,-125,3,2,1,80,0,0
14006,-125,3,2,1,55,0,0
14187,-111.111111111111,3,2,1,65,0,0
14548,-111.111111111111,3,2,0,65,0,0
14909,-111.111111111111,3,2,1,65,0,0
16174,-111.111111111111,3,2,0,65,0,0
16355,-111.111111111111,3,2,1,70,0,0
17078,-111.111111111111,3,2,0,45,0,0
17440,-111.111111111111,3,2,1,70,0,0
18524,-111.111111111111,3,2,1,65,0,0
18885,-111.111111111111,3,2,0,45,0,0
19247,-111.111111111111,3,2,1,65,0,0
19428,-111.111111111111,3,2,0,50,0,0
19608,-111.111111111111,3,2,1,65,0,0
20331,-111.111111111111,3,2,0,55,0,0
20693,-111.111111111111,3,2,1,65,0,0
21415,-111.111111111111,3,2,0,70,0,0
21777,-111.111111111111,3,2,1,70,0,0
22500,-111.111111111111,3,2,0,70,0,0
22861,-71.4285714285714,3,2,1,75,0,0
25211,-71.4285714285714,3,2,0,75,0,0
25753,-71.4285714285714,3,2,1,75,0,0
26114,-90.9090909090909,3,2,1,65,0,0
26476,-90.9090909090909,3,2,0,65,0,0
26837,-90.9090909090909,3,2,1,65,0,0
27199,-76.9230769230769,3,2,1,65,0,0
27560,-100,3,2,0,60,0,0
27921,-166.666666666667,3,2,0,55,0,0
28283,-142.857142857143,3,2,1,60,0,0
29006,-142.857142857143,3,2,0,45,0,0
29367,-142.857142857143,3,2,1,50,0,0
30090,-142.857142857143,3,2,0,35,0,0
30452,-142.857142857143,3,2,1,35,0,0
30813,-142.857142857143,3,2,1,25,0,0
31536,-166.666666666667,3,2,0,45,0,0
32620,-166.666666666667,3,2,0,65,0,0
33705,-166.666666666667,3,2,0,50,0,0
34789,-166.666666666667,3,2,0,40,0,0
35873,-166.666666666667,3,2,0,35,0,0
36958,-166.666666666667,3,2,1,30,0,0
38042,-166.666666666667,3,2,1,40,0,0
39126,-166.666666666667,3,2,1,50,0,0
39488,-166.666666666667,3,2,1,60,0,0
39849,-166.666666666667,3,2,1,70,0,0
40028,-166.666666666667,3,2,1,5,0,0
40211,-66.6666666666667,3,2,1,70,0,0
40391,-66.6666666666667,3,2,2,70,0,0
41656,-66.6666666666667,3,2,1,70,0,0
41837,-66.6666666666667,3,2,2,70,0,0
42018,-66.6666666666667,3,2,1,70,0,0
42199,-66.6666666666667,3,2,2,70,0,0
42741,-66.6666666666667,3,2,0,65,0,0
43464,-200,3,2,2,60,0,0
43735,-200,3,2,0,40,0,0
43825,-66.6666666666667,3,2,1,70,0,0
44548,-66.6666666666667,3,2,2,70,0,0
45994,-66.6666666666667,3,2,1,65,0,0
46536,-66.6666666666667,3,2,2,65,0,0
48162,-66.6666666666667,3,2,1,70,0,0
48343,-66.6666666666667,3,2,0,70,0,0
48524,-66.6666666666667,3,2,1,70,0,0
48705,-66.6666666666667,3,2,0,70,0,0
48885,-66.6666666666667,3,2,2,70,0,0
49156,-66.6666666666667,3,2,0,45,0,0
49247,-66.6666666666667,3,2,2,70,0,0
49970,-66.6666666666667,3,2,2,55,0,0
50331,-66.6666666666667,3,2,1,65,0,0
50873,-66.6666666666667,3,2,2,70,0,0
51415,-100,3,2,1,75,0,0
51687,-100,3,2,0,45,0,0
51777,-100,3,2,1,75,0,0
51958,-100,3,2,1,70,0,0
52138,-100,3,2,1,55,0,0
52500,-66.6666666666667,3,2,1,70,0,0
53223,-66.6666666666667,3,2,2,70,0,0
54307,-66.6666666666667,3,2,1,65,0,0
55211,-66.6666666666667,3,2,2,70,0,0
55662,-66.6666666666667,3,2,0,45,0,0
55753,-66.6666666666667,3,2,2,60,0,0
56295,-66.6666666666667,3,2,1,70,0,0
56476,-66.6666666666667,3,2,1,55,0,0
56656,-66.6666666666667,3,2,2,55,0,0
56837,-66.6666666666667,3,2,1,68,0,0
57018,-66.6666666666667,3,2,0,68,0,0
57199,-66.6666666666667,3,2,1,68,0,0
57379,-66.6666666666667,3,2,0,68,0,0
57560,-142.857142857143,3,2,0,45,0,0
58644,-142.857142857143,3,2,0,65,0,0
59729,-142.857142857143,3,2,0,35,0,0
67319,-142.857142857143,3,2,0,50,0,0
68403,-66.6666666666667,3,2,1,70,0,0
68584,-66.6666666666667,3,2,0,50,0,0
68765,-60.6060606060606,3,2,1,70,0,0
68946,-60.6060606060606,3,2,0,50,0,0
69126,-55.5555555555556,3,2,1,70,0,0
69307,-55.5555555555556,3,2,0,50,0,0
69488,361.44578313253,4,1,1,70,1,1
69488,-71.4285714285714,4,1,1,70,0,1
72379,-52.6315789473684,4,1,1,70,0,1
73102,-76.9230769230769,4,1,1,70,0,1
74548,-76.9230769230769,4,1,1,65,0,1
74668,-76.9230769230769,4,1,1,70,0,1
75271,-58.8235294117647,4,1,1,70,0,1
75994,-50,4,1,1,70,0,1
78162,-58.8235294117647,4,1,1,70,0,1
78524,-66.6666666666667,4,1,1,70,0,1
78885,-76.9230769230769,4,1,1,70,0,1
79247,-90.9090909090909,4,1,1,70,0,1
80150,-50,4,1,0,70,0,1
80331,-100,4,1,0,70,0,1
80512,-50,4,1,0,70,0,1
80632,-50,4,1,0,5,0,1
80692,-50,4,1,1,70,0,1
81054,-55.5555555555556,4,2,2,60,0,0
85391,-55.5555555555556,4,2,2,65,0,0
86475,-76.9230769230769,4,2,2,65,0,0
86837,-50,4,1,2,70,0,1
89728,-45.4545454545455,4,1,0,65,0,1
90271,-37.037037037037,4,1,0,65,0,1
90632,-37.037037037037,4,1,2,60,0,1
92620,-100,4,1,1,60,0,0
96867,-100,4,1,1,5,0,0
96957,-100,4,2,1,60,0,0
97138,-100,4,2,0,60,0,0
98042,-76.9230769230769,4,2,1,60,0,0
98222,-76.9230769230769,4,2,0,60,0,0
98403,-76.9230769230769,4,2,1,60,0,0
99849,-76.9230769230769,4,2,1,65,0,0
101295,-76.9230769230769,4,2,1,70,0,0
102921,-76.9230769230769,4,2,2,70,0,0
104186,-76.9230769230769,4,2,2,35,0,0
105632,-76.9230769230769,4,2,2,28,0,0
106355,-76.9230769230769,4,2,2,25,0,0
107078,-76.9230769230769,4,2,2,35,0,0
108524,-76.9230769230769,4,2,2,40,0,0
108885,-76.9230769230769,4,2,2,45,0,0
109247,-76.9230769230769,4,2,2,50,0,0
109608,-76.9230769230769,4,2,1,55,0,0
109969,-166.666666666667,4,2,2,30,0,0
111234,-100,4,2,2,45,0,0
111415,-125,4,2,2,40,0,0
112861,-166.666666666667,4,2,2,25,0,0
114126,-100,4,2,2,40,0,0
114307,-125,4,2,2,35,0,0
115753,-100,4,2,2,45,0,0
115843,-100,4,2,0,45,0,0
116475,-100,4,2,0,25,0,0
116656,-100,4,2,0,45,0,0
116837,-100,4,2,0,25,0,0
117018,-100,4,2,0,45,0,0
117560,-100,4,2,0,25,0,0
117741,-100,4,2,0,40,0,0
118463,-66.6666666666667,4,2,0,60,0,0
118644,-66.6666666666667,4,2,0,70,0,0
119006,-66.6666666666667,4,2,0,50,0,0
119367,-66.6666666666667,4,2,0,30,0,0
119728,-66.6666666666667,4,2,0,10,0,0
119909,392.156862745098,4,2,0,60,1,0
120117,392.156862745098,4,1,0,55,1,0
120117,-100,4,1,0,55,0,0
120313,-100,4,1,0,50,0,0
120509,-100,4,2,0,30,0,0
120705,-100,4,2,0,20,0,0
120901,-100,4,2,0,10,0,0

[Colours]
Combo1 : 79,109,232
Combo2 : 145,219,255
Combo3 : 200,200,200
Combo4 : 183,183,255

[HitObjects]
158,80,1175,5,2,1:2:0:0:
167,98,1536,1,0,0:0:0:0:
262,117,1717,1,2,0:0:0:0:
374,220,1897,2,0,P|357:179|355:135,1,90,2|0,1:0|0:0,0:0:0:0:
246,238,2259,2,2,B|320:225|361:271|361:271|312:356|219:352|159:309,1,360,2|2,1:0|1:2,0:1:0:0:
159,309,3343,6,0,P|134:248|132:188,1,107.999996704102,2|2,1:2|0:0,0:0:0:0:
319,132,3705,2,0,P|321:185|308:237,1,107.999996704102,0|2,1:0|0:0,0:0:0:0:
133,94,4066,2,0,L|330:104,1,161.999995056153,0|0,1:0|0:0,0:0:0:0:
319,132,4428,6,0,P|361:112|429:112,1,107.999996704102,2|0,1:2|0:0,0:0:0:0:
292,378,4789,1,2,0:0:0:0:
158,180,5150,1,2,1:2:0:0:
414,274,5512,5,0,1:0:0:0:
326,249,5693,1,2,0:0:0:0:
243,286,5873,1,2,0:0:0:0:
155,261,6054,1,0,0:0:0:0:
368,168,6235,1,2,0:1:0:0:
368,168,6596,2,2,P|325:136|403:88,1,180,2|2,1:0|0:1,0:1:0:0:
400,86,7681,5,2,1:2:0:0:
453,154,7861,1,2,1:0:0:0:
315,236,8042,1,0,0:0:0:0:
368,168,8222,1,2,1:2:0:0:
438,346,8403,2,0,L|420:226,1,107.999996704102,2|2,1:0|0:0,0:0:0:0:
310,364,8765,6,0,P|257:341|143:353,1,161.999995056153,2|0,1:0|0:0,0:0:0:0:
129,326,9126,2,0,P|142:274|137:220,1,107.999996704102,2|0,1:0|0:0,0:0:0:0:
46,62,9488,1,2,1:0:0:0:
56,77,9849,5,12,1:0:0:0:
132,35,10030,1,0,0:0:0:0:
251,40,10211,1,2,0:0:0:0:
351,148,10391,1,0,0:0:0:0:
181,214,10572,5,2,0:0:0:0:
350,169,10753,1,0,0:0:0:0:
162,365,10934,5,0,1:0:0:0:
83,249,11114,1,0,0:0:0:0:
103,109,11295,1,2,0:0:0:0:
227,43,11476,1,0,0:0:0:0:
316,89,11656,1,2,0:0:0:0:
321,172,11837,1,2,0:0:0:0:
315,62,12018,5,2,0:0:0:0:
400,25,12199,1,0,0:0:0:0:
497,86,12379,1,2,0:0:0:0:
487,219,12560,1,0,0:0:0:0:
336,273,12741,5,2,0:0:0:0:
494,234,12921,1,0,0:0:0:0:
279,366,13102,6,2,B|238:281|109:298|117:395|0:330,1,288,4|0,1:0|0:0,0:0:0:0:
332,127,14006,5,8,1:1:0:0:
59,109,14187,6,0,L|48:14,1,80.9999975280763,12|0,1:0|0:0,0:0:0:0:
143,238,14548,2,0,L|132:143,1,80.9999975280763,2|0,0:0|0:0,0:0:0:0:
42,134,14909,1,0,1:0:0:0:
0,219,15090,1,0,0:0:0:0:
187,352,15271,6,0,B|174:291|104:258|104:258|204:271|167:220|262:242|262:242|292:296|366:281,1,404.999987640381,8|2,1:2|0:0,0:0:0:0:
438,234,16265,1,0,0:0:0:0:
438,234,16355,2,0,B|409:154|451:111|451:111|366:121|367:57|253:92,1,323.999990112305,4|0,1:0|3:0,0:0:0:0:
160,231,17440,2,0,P|167:130|143:52,2,161.999995056153,8|0|2,1:2|0:0|1:2,0:0:0:0:
35,46,18524,6,0,L|196:51,1,161.999995056153,8|2,1:0|0:0,0:0:0:0:
337,270,19247,1,0,1:0:0:0:
371,145,19428,1,2,0:0:0:0:
404,350,19608,2,0,B|316:278|196:326|196:326|234:374|304:370,1,323.999990112305,0|2,1:0|0:0,0:0:0:0:
378,224,20693,2,0,B|347:176|380:132|380:132|328:108|275:117|275:117|245:83|245:83|209:97|174:81,1,323.999990112305,8|2,1:2|0:0,0:0:0:0:
123,261,21777,2,0,B|139:151|75:113|75:113|39:146|24:191|24:191|35:229|20:281,1,323.999990112305,4|2,1:0|0:0,0:0:0:0:
331,289,22861,6,0,L|483:307,1,125.999996154785,4|0,1:0|0:0,0:0:0:0:
251,86,23223,2,0,L|403:68,1,125.999996154785,2|0,0:0|0:0,0:0:0:0:
216,370,23584,2,0,L|368:388,1,125.999996154785,2|0,1:2|0:0,0:0:0:0:
136,167,23946,6,0,L|-16:149,1,125.999996154785,4|0,1:0|0:0,0:0:0:0:
216,370,24308,2,0,L|64:388,1,125.999996154785,2|0,0:1|0:0,0:0:0:0:
251,86,24669,2,0,L|99:68,1,125.999996154785,2|0,1:0|0:0,0:0:0:0:
252,347,25030,5,4,1:0:0:0:
215,184,25211,1,2,0:0:0:0:
187,207,25301,1,0,0:0:0:0:
184,265,25391,1,2,0:0:0:0:
343,370,25572,1,0,0:0:0:0:
472,274,25753,1,0,1:0:0:0:
466,148,25934,1,0,0:0:0:0:
380,98,26114,6,0,B|300:143|217:105|219:25|219:25|295:62|263:189,1,396.000012084961,4|0,1:0|0:1,0:0:0:0:
122,281,27018,1,0,0:0:0:0:
49,234,27199,6,0,P|34:174|46:116,1,116.999994644165,4|0,1:0|0:0,0:0:0:0:
178,347,27560,6,0,P|122:319|102:296,1,90,2|0,0:0|0:0,0:0:0:0:
314,313,27921,6,0,P|281:334|256:337,1,53.9999983520508,2|0,0:0|0:0,0:0:0:0:
390,216,28283,6,0,B|330:181|261:209|261:209|311:169|293:113|255:101,1,251.999992309571,4|2,1:0|0:0,0:0:0:0:
69,91,29367,2,0,B|125:131|113:219|113:219|143:165|189:190|186:123,1,251.999992309571,4|2,1:0|0:0,0:0:0:0:
191,317,30452,6,0,L|194:268,1,31.4999990386963,0|0,1:0|0:0,0:0:0:0:
315,203,30813,2,0,L|285:157,1,31.4999990386963,2|0,1:2|0:0,0:0:0:0:
351,41,31174,2,0,L|307:29,1,31.4999990386963,2|0,0:0|0:0,0:0:0:0:
190,187,31536,6,0,P|112:193|155:104,1,215.999993408203,4|2,1:2|0:0,0:0:0:0:
152,103,32440,1,0,0:0:0:0:
356,97,32620,2,0,B|301:94|244:119|244:119|293:161|275:222,1,215.999993408203,2|2,1:2|0:0,0:0:0:0:
442,333,33705,6,0,B|385:285|322:333|322:333|298:295|237:298,1,215.999993408203,4|2,1:2|0:0,0:0:0:0:
249,297,34608,1,0,0:0:0:0:
122,367,34789,2,0,B|162:325|173:240|173:240|137:281|89:272,1,215.999993408203,4|2,1:2|0:0,0:0:0:0:
31,89,35873,6,0,B|86:59|140:78|140:78|183:113|238:86,1,215.999993408203,4|2,1:2|0:0,0:0:0:0:
236,86,36777,1,0,0:0:0:0:
358,18,36958,2,0,P|337:71|342:139,2,107.999996704102,4|0|0,1:2|0:0|0:0,0:0:0:0:
256,192,38042,5,4,1:0:0:0:
256,192,38132,12,0,40030,0:0:0:0:
359,318,40211,5,12,1:0:0:0:
416,241,40391,1,0,0:0:0:0:
430,121,40572,1,2,1:2:0:0:
320,33,40752,1,0,0:0:0:0:
256,315,40934,5,2,1:2:0:0:
317,119,41114,1,0,1:0:0:0:
253,191,41295,5,0,1:0:0:0:
158,198,41476,1,0,0:0:0:0:
42,9,41656,5,2,1:0:0:0:
84,286,41837,1,0,0:0:0:0:
317,119,42018,5,2,1:2:0:0:
3,100,42199,1,2,0:3:0:0:
210,29,42379,5,2,1:3:0:0:
185,114,42560,1,0,0:0:0:0:
210,220,42741,1,2,1:2:0:0:
334,283,42921,1,0,0:0:0:0:
62,328,43102,5,2,1:2:0:0:
269,341,43283,1,0,1:3:0:0:
413,200,43464,6,0,P|414:164|405:121,1,67.5,2|0,1:3|0:0,0:0:0:0:
416,113,43825,6,0,L|288:97,1,67.5000025749208,2|0,1:0|0:0,0:0:0:0:
3,382,44187,2,0,L|131:366,1,67.5000025749208,2|0,1:2|0:0,0:0:0:0:
448,245,44548,5,4,1:0:0:0:
150,221,44729,1,2,0:0:0:0:
269,85,44909,5,2,1:2:0:0:
259,165,45090,1,2,0:3:0:0:
288,240,45271,1,2,1:2:0:0:
241,306,45452,1,2,1:2:0:0:
60,210,45632,5,0,1:0:0:0:
29,42,45994,6,0,L|37:125,1,67.5000025749208,2|0,1:0|0:0,0:0:0:0:
412,22,46355,2,0,L|404:105,1,67.5000025749208,2|0,1:2|0:0,0:0:0:0:
455,189,46536,1,2,0:3:0:0:
336,384,46717,6,0,P|274:309|272:194,1,202.500007724762,4|0,1:0|0:0,0:0:0:0:
267,207,47078,1,0,1:0:0:0:
306,95,47259,1,0,0:0:0:0:
234,26,47440,1,0,1:0:0:0:
151,21,47620,1,2,1:3:0:0:
40,148,47801,5,4,1:0:0:0:
176,114,47982,1,0,0:0:0:0:
422,278,48162,5,2,1:0:0:0:
136,236,48343,1,2,0:0:0:0:
320,57,48524,5,2,1:2:0:0:
356,353,48705,1,2,0:0:0:0:
223,257,48885,6,0,P|120:261|36:362,1,202.500007724762,4|0,1:0|0:0,0:0:0:0:
58,355,49247,6,0,L|132:354,1,67.5000025749208,2|0,1:2|0:0,0:0:0:0:
232,56,49608,2,0,L|157:55,1,67.5000025749208,2|0,1:2|0:0,0:0:0:0:
124,274,49970,5,4,1:0:0:0:
103,257,50331,6,0,L|177:256,1,67.5000025749208,2|0,1:0|0:0,0:0:0:0:
253,141,50693,2,0,L|178:140,1,67.5000025749208,2|0,1:2|0:0,0:0:0:0:
118,86,50873,1,2,0:3:0:0:
393,153,51054,5,4,1:0:0:0:
441,277,51415,6,0,P|401:256|356:254,1,90,2|0,1:2|0:0,0:0:0:0:
284,318,51777,2,0,P|231:328|181:314,1,90,2|0,1:0|1:0,0:0:0:0:
87,136,52138,5,4,1:0:0:0:
70,24,52500,6,0,L|163:15,1,67.5000025749208,2|0,1:0|0:0,0:0:0:0:
454,343,52861,2,0,L|361:334,1,67.5000025749208,2|0,1:2|0:0,0:0:0:0:
249,115,53223,5,4,1:0:0:0:
224,254,53403,1,2,0:0:0:0:
340,92,53584,5,2,1:2:0:0:
224,19,53765,1,2,0:3:0:0:
112,38,53946,1,2,1:2:0:0:
65,113,54126,1,0,1:0:0:0:
121,238,54307,5,4,1:0:0:0:
48,349,54668,6,0,L|31:268,1,67.5000025749208,2|0,1:0|0:0,0:0:0:0:
312,384,55030,2,0,L|329:303,1,67.5000025749208,2|0,1:2|0:0,0:0:0:0:
269,236,55211,1,2,0:3:0:0:
435,108,55391,6,0,P|352:110|237:58,1,202.500007724762,4|0,1:0|0:0,0:0:0:0:
243,63,55753,1,0,1:0:0:0:
127,26,55934,1,0,0:0:0:0:
36,77,56114,1,0,1:0:0:0:
24,166,56295,1,2,1:0:0:0:
166,242,56476,5,6,1:0:0:0:
113,128,56656,1,0,0:0:0:0:
20,345,56837,5,2,1:0:0:0:
292,323,57018,1,2,0:0:0:0:
205,48,57199,5,2,1:2:0:0:
71,266,57379,1,2,0:0:0:0:
153,207,57560,6,0,B|190:155|240:145|240:145|228:207|283:256|346:205,1,251.999992309571,4|2,1:2|0:0,0:0:0:0:
323,219,58464,1,0,0:0:0:0:
411,69,58644,2,0,P|408:120|429:211,2,125.999996154785,0|0|2,1:0|0:0|0:0,0:0:0:0:
443,285,59729,6,0,B|374:289|338:241|338:241|302:254|285:291|285:291|278:262|252:241,1,251.999992309571,4|2,1:2|0:0,0:0:0:0:
254,242,60632,1,0,0:0:0:0:
115,344,60813,2,0,P|194:365|262:361,2,125.999996154785,0|2|0,1:0|0:0|0:0,0:0:0:0:
41,83,61897,6,0,P|33:46|35:11,1,62.9999980773926,4|0,1:2|0:0,0:0:0:0:
115,188,62259,2,0,P|128:151|118:123,1,62.9999980773926,2|0,0:0|0:0,0:0:0:0:
34,270,62620,2,0,P|17:241|40:207,1,62.9999980773926,2|0,1:2|0:0,0:0:0:0:
166,278,62982,2,0,B|217:229|306:264|306:264|313:243|313:243|346:266|416:252,1,251.999992309571,4|2,1:2|0:0,0:0:0:0:
442,152,64066,6,0,P|471:71|379:129,1,251.999992309571,4|2,1:2|0:0,0:0:0:0:
269,28,65150,2,0,B|206:61|149:17|149:17|112:28|61:20|61:20|95:27|111:54,1,251.999992309571,0|2,1:0|0:0,0:0:0:0:
92,33,66235,5,2,1:0:0:0:
192,139,66415,1,2,0:0:0:0:
183,267,66596,1,0,1:0:0:0:
80,303,66777,1,0,0:0:0:0:
7,248,66958,1,0,1:0:0:0:
24,170,67138,1,2,0:0:0:0:
165,360,67319,5,4,1:2:0:0:
309,285,67500,1,2,0:0:0:0:
431,348,67681,1,0,1:0:0:0:
512,266,67861,1,0,0:0:0:0:
488,177,68042,1,0,1:0:0:0:
418,139,68223,1,2,0:0:0:0:
256,185,68403,6,0,P|263:133|262:105,1,67.5000025749208,4|0,1:0|0:0,0:0:0:0:
282,115,68584,2,0,P|297:65|301:37,1,67.5000025749208,2|0,0:0|0:0,0:0:0:0:
137,270,68765,6,0,P|130:218|132:187,1,74.2500007081032,4|0,1:0|0:0,0:0:0:0:
93,184,68946,2,0,P|77:134|73:99,1,74.2500007081032,2|0,0:0|0:0,0:0:0:0:
309,337,69126,6,0,P|316:285|311:254,1,80.9999975280763,8|0,1:2|0:0,0:0:0:0:
360,233,69307,2,0,P|375:183|376:153,1,80.9999975280763,2|0,0:0|0:0,0:0:0:0:
107,17,69488,6,0,P|202:29|255:7,1,125.999996154785,12|0,0:0|2:0,0:0:0:0:
144,232,69789,1,0,0:0:0:0:
123,246,69849,2,0,P|62:195|48:149,1,125.999996154785,2|0,0:0|0:0,0:0:0:0:
186,335,70120,1,0,0:0:0:0:
233,266,70210,6,0,P|294:265|336:227,1,83.9999974365235,2|0,0:0|0:0,0:0:0:0:
387,380,70481,1,2,0:0:0:0:
286,368,70572,2,0,P|258:312|207:275,1,125.999996154785,2|0,0:2|2:0,0:0:0:0:
134,335,70843,1,2,0:0:0:0:
27,293,70933,6,0,P|39:253|43:212,2,83.9999974365235,14|0|0,0:0|0:0|0:0,0:0:0:0:
18,86,71295,5,2,0:0:0:0:
165,9,71415,1,2,0:0:0:0:
296,65,71536,1,2,0:0:0:0:
326,167,71656,5,0,0:0:0:0:
269,237,71777,1,0,0:0:0:0:
217,227,71897,1,0,0:0:0:0:
289,121,72018,5,2,0:2:0:0:
386,223,72138,1,2,0:0:0:0:
273,381,72259,1,2,0:0:0:0:
60,312,72379,6,0,P|51:230|116:172,1,170.999995433807,14|0,0:0|2:0,0:0:0:0:
51,12,72741,2,0,P|43:102|185:114,1,227.999993911743,2|0,0:0|2:0,0:0:0:0:
195,329,73042,5,0,0:0:0:0:
176,318,73102,2,0,P|160:258|204:217,1,116.999994644165,2|0,0:0|2:0,0:0:0:0:
404,127,73373,1,0,0:0:0:0:
366,198,73463,2,0,P|304:202|271:151,1,116.999994644165,2|0,0:2|2:0,0:0:0:0:
124,175,73825,6,0,P|77:196|35:184,2,77.9999964294435,12|2|2,0:0|0:0|0:0,0:0:0:0:
70,76,74186,2,0,P|19:65|-8:30,2,77.9999964294435,2|2|2,0:0|0:0|0:0,0:0:0:0:
240,35,74548,5,6,0:0:0:0:
346,20,74668,1,0,0:0:0:0:
323,53,74789,1,2,0:0:0:0:
207,10,74909,2,0,P|188:68|205:154,1,116.999994644165,2|2,0:2|0:0,0:0:0:0:
371,214,75271,6,0,P|321:210|320:345,1,204.000003890991,12|2,0:0|0:0,0:0:0:0:
420,288,75632,5,2,0:0:0:0:
286,165,75753,1,2,0:0:0:0:
88,224,75873,1,2,0:0:0:0:
136,298,75994,6,0,P|140:236|115:184,1,120,0|0,0:0|0:0,0:0:0:0:
19,134,76234,1,2,0:0:0:0:
134,19,76355,5,10,0:2:0:0:
291,25,76475,1,0,0:0:0:0:
353,132,76596,1,2,0:0:0:0:
439,0,76716,6,0,P|399:89|423:271,1,240,14|0,0:0|0:0,0:0:0:0:
238,105,77078,2,0,P|313:113|389:161,1,120,2|0,0:0|0:0,0:0:0:0:
419,215,77319,1,2,0:0:0:0:
216,358,77439,5,2,0:0:0:0:
320,235,77560,1,0,0:0:0:0:
451,375,77680,1,0,0:0:0:0:
293,319,77801,5,2,0:2:0:0:
286,211,77921,1,0,0:0:0:0:
348,141,78042,1,2,0:0:0:0:
459,255,78162,6,0,B|491:130|491:130|446:62,1,204.000003890991,14|0,0:0|2:0,0:0:0:0:
274,28,78463,5,0,0:0:0:0:
289,18,78524,2,0,P|370:95|324:158,1,180.000006866455,2|0,0:0|2:0,0:0:0:0:
165,158,78885,2,0,P|232:119|320:133,1,155.999992858887,2|0,0:0|2:0,0:0:0:0:
245,314,79247,6,0,P|241:243|193:253,1,132.00000402832,2|0,0:0|0:0,0:0:0:0:
89,1,79608,5,4,0:0:0:0:
300,77,79789,1,2,0:0:0:0:
1,121,79969,1,8,0:2:0:0:
55,317,80150,6,0,P|90:277|104:191,1,120,2|0,0:0|2:0,0:0:0:0:
190,219,80331,2,0,P|163:231|133:234,1,60,0|0,0:0|2:0,0:0:0:0:
344,341,80512,2,0,P|304:306|218:292,1,120,2|0,0:0|0:0,0:0:0:0:
231,372,80693,2,0,P|233:342|244:314,1,60,0|0,0:0|0:0,0:0:0:0:
357,241,80873,1,8,0:2:0:0:
175,62,81054,6,0,P|266:128|407:95,1,242.999992584229,6|0,1:0|0:0,0:0:0:0:
490,275,81415,2,0,P|503:218|463:107,1,161.999995056153,0|0,1:0|0:0,0:0:0:0:
281,8,81777,1,0,1:0:0:0:
115,72,81957,1,0,0:0:0:0:
100,210,82138,1,10,1:0:0:0:
174,301,82319,1,2,0:3:0:0:
396,342,82500,6,0,P|337:316|279:231,1,161.999995056153,6|0,1:0|0:0,0:0:0:0:
299,93,82861,1,0,1:0:0:0:
445,17,83042,1,0,0:3:0:0:
264,195,83222,6,0,P|219:171|153:167,1,80.9999975280763,0|0,1:0|0:0,0:0:0:0:
127,296,83403,2,0,B|165:192|129:125|129:125|92:151|102:199,1,242.999992584229,0|0,1:0|0:0,0:0:0:0:
237,303,83765,1,2,1:3:0:0:
501,107,83945,6,0,B|376:124|376:124|258:59,1,242.999992584229,6|0,1:0|0:0,0:0:0:0:
318,282,84307,2,0,P|351:215|331:124,1,161.999995056153,0|0,1:0|0:0,0:0:0:0:
109,40,84668,1,2,1:0:0:0:
61,215,84849,1,0,0:0:0:0:
151,350,85030,1,8,1:0:0:0:
296,366,85210,1,0,0:0:0:0:
451,193,85391,5,6,1:0:0:0:
243,266,85572,1,0,0:0:0:0:
94,113,85753,5,2,1:0:0:0:
289,160,85934,1,0,0:0:0:0:
373,48,86114,5,2,1:0:0:0:
245,76,86295,1,0,0:0:0:0:
187,156,86475,6,0,B|190:23|190:23|136:64,1,175.499991966248,6|0,1:0|0:0,0:0:0:0:
56,240,86837,6,0,P|165:205|265:272,1,180,6|0,0:0|2:0,0:0:0:0:
358,363,87107,1,0,0:0:0:0:
317,281,87198,2,0,P|227:276|142:341,1,180,2|0,0:0|2:0,0:0:0:0:
460,120,87560,2,0,P|464:208|415:282,1,180,2|0,0:0|2:0,0:0:0:0:
191,241,87921,1,8,0:0:0:0:
80,34,88102,1,2,0:0:0:0:
376,127,88283,6,0,L|177:131,1,180,6|0,0:0|2:0,0:0:0:0:
35,293,88554,1,0,0:0:0:0:
108,221,88644,2,0,P|112:158|46:51,1,180,2|0,0:0|2:0,0:0:0:0:
194,374,89006,2,0,P|190:311|256:204,1,180,0|0,0:0|2:0,0:0:0:0:
481,125,89367,1,2,0:0:0:0:
166,55,89548,1,2,0:0:0:0:
125,145,89668,1,2,0:0:0:0:
127,164,89728,6,0,P|220:198|322:176,1,198.000006042481,6|0,0:0|2:0,0:0:0:0:
491,282,90000,2,0,P|398:316|296:294,1,198.000006042481,2|0,0:0|2:0,0:0:0:0:
127,164,90271,6,0,B|97:205|97:205|106:290,1,121.500000463486,2|0,0:0|2:0,0:0:0:0:
395,116,90451,2,0,B|425:157|425:157|415:242,1,121.500000463486,2|0,0:0|2:0,0:0:0:0:
226,324,90632,1,2,0:3:0:0:
58,268,90813,1,10,0:0:0:0:
17,131,90994,1,2,0:0:0:0:
394,362,91174,5,6,0:0:0:0:
455,139,91355,1,2,0:3:0:0:
293,8,91536,1,10,0:0:0:0:
126,49,91716,1,2,0:3:0:0:
337,272,91897,5,2,0:0:0:0:
342,171,92078,1,8,0:0:0:0:
241,87,92259,1,10,0:0:0:0:
67,116,92439,5,2,0:0:0:0:
111,34,92530,1,2,0:0:0:0:
153,152,92620,1,12,0:0:0:0:
256,192,92710,12,0,95241,0:0:0:0:
366,276,95331,5,8,0:0:0:0:
322,194,95422,1,8,0:0:0:0:
280,312,95512,1,4,0:0:0:0:
256,192,95692,12,0,96867,0:0:0:0:
142,315,96957,5,4,1:0:0:0:
260,288,97138,1,0,0:0:0:0:
415,228,97319,5,2,0:0:0:0:
309,206,97500,1,0,0:0:0:0:
154,152,97680,5,2,0:0:0:0:
248,126,97861,1,0,0:0:0:0:
381,312,98042,5,8,1:0:0:0:
381,312,98222,1,2,0:0:0:0:
107,319,98403,5,12,1:0:0:0:
64,291,98583,1,2,3:0:0:0:
33,218,98764,1,0,1:0:0:0:
45,129,98945,1,2,3:0:0:0:
122,59,99125,1,0,1:0:0:0:
246,36,99306,1,2,3:0:0:0:
373,104,99487,1,0,1:0:0:0:
359,252,99668,5,10,1:2:0:0:
291,196,99759,1,2,1:2:0:0:
226,142,99849,5,12,1:0:0:0:
187,165,100029,1,2,3:0:0:0:
162,238,100210,1,0,1:0:0:0:
191,323,100391,1,2,3:0:0:0:
275,384,100572,1,0,1:0:0:0:
401,374,100752,1,2,3:0:0:0:
506,262,100933,1,0,1:0:0:0:
490,93,101114,5,10,1:2:0:0:
403,53,101204,1,2,1:2:0:0:
331,110,101295,6,0,P|379:98|426:30,1,116.999994644165,12|2,1:0|3:0,0:0:0:0:
282,221,101656,1,0,1:0:0:0:
147,234,101837,1,2,3:0:0:0:
49,135,102018,1,0,1:0:0:0:
203,150,102199,1,2,3:0:0:0:
354,76,102379,1,0,1:0:0:0:
164,57,102560,5,10,1:2:0:0:
203,150,102650,1,2,1:2:0:0:
275,215,102741,6,0,L|219:86,1,116.999994644165,12|0,1:0|1:0,0:0:0:0:
103,323,103102,5,0,1:0:0:0:
272,257,103283,1,2,3:0:0:0:
275,17,103463,5,2,3:0:0:0:
159,207,103644,1,0,1:0:0:0:
453,264,103825,5,0,1:0:0:0:
173,90,104006,1,2,3:0:0:0:
379,38,104186,5,0,1:0:0:0:
307,117,104367,1,0,0:0:0:0:
282,202,104548,1,2,0:0:0:0:
328,113,104728,1,0,1:0:0:0:
356,317,104909,5,0,1:0:0:0:
241,327,105090,1,2,0:0:0:0:
155,292,105271,1,0,0:0:0:0:
245,355,105451,1,0,1:0:0:0:
53,199,105632,5,0,1:0:0:0:
136,200,105813,1,0,0:0:0:0:
186,176,105994,1,2,0:0:0:0:
205,136,106174,1,0,1:0:0:0:
409,111,106355,5,0,1:0:0:0:
329,112,106536,1,2,0:0:0:0:
279,88,106717,1,0,0:0:0:0:
260,48,106897,1,2,1:3:0:0:
249,39,106987,1,2,1:3:0:0:
239,30,107078,5,0,1:0:0:0:
145,46,107259,1,0,0:0:0:0:
96,114,107439,1,2,0:0:0:0:
94,165,107620,1,0,1:0:0:0:
274,168,107801,5,0,1:0:0:0:
368,184,107982,1,2,0:0:0:0:
417,252,108162,1,0,0:0:0:0:
419,303,108343,1,0,1:0:0:0:
194,351,108524,5,0,1:0:0:0:
165,244,108704,1,2,0:0:0:0:
303,376,108885,5,0,1:0:0:0:
332,191,109066,1,2,0:0:0:0:
298,180,109156,1,2,0:0:0:0:
262,184,109247,5,0,1:0:0:0:
220,143,109337,1,2,0:3:0:0:
163,130,109427,1,2,0:3:0:0:
106,145,109518,1,2,0:3:0:0:
66,188,109608,5,2,1:2:0:0:
24,117,109698,1,0,1:0:0:0:
52,39,109789,1,2,1:2:0:0:
127,7,109879,1,0,1:0:0:0:
206,33,109969,6,2,B|290:74|363:33|363:33|342:90|365:125|423:148|460:96,1,323.999990112305,6|0,1:0|0:0,0:1:0:0:
252,282,111234,2,0,P|246:243|258:220,1,45,0|0,1:0|0:0,0:0:0:0:
328,204,111415,6,2,B|229:223|146:145|146:145|159:192|159:192|104:162|47:203|47:263|47:263|74:310|142:300,1,504,6|0,0:0|0:0,0:1:0:0:
302,375,112861,6,2,B|262:268|351:209|351:209|302:166|330:94|386:111,1,323.999990112305,6|0,1:0|0:0,0:1:0:0:
214,143,114126,2,0,P|195:162|169:165,1,45,0|0,1:0|0:0,0:0:0:0:
126,62,114307,6,2,B|155:236|96:183|130:348|130:348|103:257|18:295|32:169,1,504,2|0,1:0|0:0,0:1:0:0:
211,262,115753,6,0,P|297:275|384:359,1,180,6|2,1:0|0:0,0:0:0:0:
428,183,116295,5,0,0:0:0:0:
435,160,116385,1,2,0:0:0:0:
425,109,116475,1,2,1:0:0:0:
231,111,116656,5,0,0:0:0:0:
299,156,116746,1,2,0:0:0:0:
341,148,116836,1,0,1:0:0:0:
261,10,117018,5,2,0:0:0:0:
183,0,117108,1,2,0:0:0:0:
103,42,117198,2,0,P|73:84|131:130,1,135,2|0,1:0|0:0,0:0:0:0:
125,130,117560,1,2,1:0:0:0:
214,223,117741,1,2,0:0:0:0:
81,326,117921,6,0,B|176:289|168:360|262:320,1,180,2|0,1:2|0:0,0:0:0:0:
448,137,118463,2,0,L|381:125,1,67.5000025749208,0|0,1:0|0:0,0:0:0:0:
321,199,118644,6,0,B|367:122|344:-1|344:-1|155:28|167:235|167:235|301:162|259:4,1,810.000030899049,6|0,0:0|0:0,0:0:0:0:
11,138,119909,6,0,P|2:175|9:203,1,45,0|0,1:0|1:0,0:0:0:0:
7,308,120117,2,2,B|0:347|53:368|93:362|120:308|105:238|32:216|32:216|63:177|40:113,1,360,6|0,1:0|0:0,0:0:0:0:
