osu file format v14

[General]
AudioFilename: audio.mp3
AudioLeadIn: 0
PreviewTime: 66235
Countdown: 0
SampleSet: Soft
StackLeniency: 0.4
Mode: 0
LetterboxInBreaks: 0
WidescreenStoryboard: 0

[Editor]
DistanceSpacing: 0.6
BeatDivisor: 8
GridSize: 16
TimelineZoom: 2.799999

[Metadata]
Title:Vulnerability
TitleUnicode:Vulnerability
Artist:Mili
ArtistUnicode:Mili
Creator:IceKalt
Version:Extra
Source:
Tags:miracle milk electronic saihate records hamo hamoloid yamato kasai Xenok Saturnalize Myxomatosis desperate-kun pandahero
BeatmapID:1759106
BeatmapSetID:835194

[Difficulty]
HPDrainRate:6
CircleSize:5
OverallDifficulty:8.2
ApproachRate:8
SliderMultiplier:1.5
SliderTickRate:1

[Events]
//Background and Video events
0,0,"falling.jpg",0,0
//Break Periods
//Storyboard Layer 0 (Background)
//Storyboard Layer 1 (Fail)
//Storyboard Layer 2 (Pass)
//Storyboard Layer 3 (Foreground)
//Storyboard Sound Samples
Sample,57560,0,"drum-hitfinish.wav",45
Sample,69488,0,"drum-hitfinish.wav",65

[TimingPoints]
1175,361.44578313253,3,2,0,40,1,0
2259,-166.666666666667,3,2,0,40,0,0
3343,-100,3,2,0,40,0,0
5512,-100,3,2,0,35,0,0
6596,-200,3,2,0,28,0,0
7681,-100,4,2,0,40,0,0
9849,-100,4,2,1,55,0,0
10030,-100,4,2,0,55,0,0
11837,-100,4,2,1,75,0,0
12199,-100,4,2,0,55,0,0
13102,-100,4,2,1,55,0,0
13193,-100,4,2,1,15,0,0
13283,-100,4,2,1,25,0,0
13373,-100,4,2,1,35,0,0
13464,-100,4,2,0,60,0,0
13644,-100,4,2,1,70,0,0
13825,-100,4,2,0,80,0,0
14006,-100,4,2,1,55,0,0
14187,-100,4,2,1,65,0,0
14548,-100,4,2,0,65,0,0
14909,-100,4,2,1,65,0,0
16174,-100,4,2,0,65,0,0
16355,-100,4,2,1,70,0,0
16717,-100,4,2,0,70,0,0
16897,-100,4,2,1,70,0,0
17078,-100,4,2,0,45,0,0
17440,-100,4,2,1,70,0,0
17801,-100,4,2,0,70,0,0
17982,-100,4,2,1,70,0,0
18524,-100,4,2,1,65,0,0
18885,-100,4,2,0,45,0,0
19247,-100,4,2,1,65,0,0
19428,-100,4,2,0,50,0,0
19608,-100,4,2,1,65,0,0
20331,-100,4,2,0,55,0,0
20693,-100,4,2,1,65,0,0
21415,-100,4,2,0,70,0,0
21777,-100,4,2,1,70,0,0
22500,-100,4,2,0,70,0,0
22861,-83.3333333333333,4,2,1,75,0,0
25211,-83.3333333333333,4,2,0,75,0,0
25753,-83.3333333333333,4,2,1,75,0,0
26114,-111.111111111111,4,2,1,65,0,0
26476,-111.111111111111,4,2,0,65,0,0
26837,-111.111111111111,4,2,1,65,0,0
27199,-90.9090909090909,4,2,1,65,0,0
27560,-125,4,2,0,60,0,0
27921,-200,4,2,0,55,0,0
28283,-200,4,2,1,60,0,0
29006,-200,4,2,0,45,0,0
29367,-285.714285714286,4,2,1,50,0,0
30090,-285.714285714286,4,2,0,35,0,0
30452,-285.714285714286,4,2,1,35,0,0
30813,-285.714285714286,4,2,1,25,0,0
31536,-142.857142857143,4,2,0,45,0,0
32620,-142.857142857143,4,2,0,65,0,0
33705,-142.857142857143,4,2,0,50,0,0
34789,-142.857142857143,4,2,0,40,0,0
35873,-142.857142857143,4,2,0,35,0,0
36958,-142.857142857143,4,2,1,30,0,0
38042,-142.857142857143,4,2,1,40,0,0
39126,-142.857142857143,4,2,1,50,0,0
39488,-142.857142857143,4,2,0,60,0,0
39849,-142.857142857143,4,2,0,70,0,0
40211,-76.923076923077,4,2,1,70,0,0
40391,-76.923076923077,4,2,2,70,0,0
41656,-76.923076923077,4,2,1,70,0,0
41837,-76.923076923077,4,2,2,70,0,0
42018,-76.923076923077,4,2,1,70,0,0
42199,-76.923076923077,4,2,2,70,0,0
42741,-76.923076923077,4,2,0,65,0,0
43464,-76.923076923077,4,2,2,60,0,0
43735,-76.923076923077,4,2,0,40,0,0
43825,-76.923076923077,4,2,1,70,0,0
44548,-76.923076923077,4,2,2,70,0,0
45994,-76.923076923077,4,2,1,65,0,0
46536,-76.923076923077,4,2,2,65,0,0
48162,-76.923076923077,4,2,1,70,0,0
48343,-76.923076923077,4,2,0,70,0,0
48524,-76.923076923077,4,2,1,70,0,0
48705,-76.923076923077,4,2,0,70,0,0
48885,-76.923076923077,4,2,2,70,0,0
49156,-76.923076923077,4,2,0,45,0,0
49247,-76.923076923077,4,2,2,70,0,0
49970,-76.923076923077,4,2,2,55,0,0
50331,-76.923076923077,4,2,1,65,0,0
50873,-76.923076923077,4,2,2,70,0,0
51415,-76.923076923077,4,2,1,75,0,0
51687,-76.923076923077,4,2,0,45,0,0
51777,-76.923076923077,4,2,1,75,0,0
51958,-76.923076923077,4,2,1,70,0,0
52138,-76.923076923077,4,2,1,55,0,0
52500,-76.923076923077,4,2,1,70,0,0
53223,-76.923076923077,4,2,2,70,0,0
54307,-76.923076923077,4,2,1,65,0,0
55211,-76.923076923077,4,2,2,70,0,0
55662,-76.923076923077,4,2,0,45,0,0
55753,-76.923076923077,4,2,2,60,0,0
56295,-76.923076923077,4,2,1,70,0,0
56476,-76.923076923077,4,2,1,55,0,0
56656,-76.923076923077,4,2,2,55,0,0
56837,-76.923076923077,4,2,1,68,0,0
57018,-76.923076923077,4,2,0,68,0,0
57199,-76.923076923077,4,2,1,68,0,0
57379,-76.923076923077,4,2,0,68,0,0
57560,-142.857142857143,4,2,0,45,0,0
58644,-142.857142857143,4,2,0,65,0,0
59729,-142.857142857143,4,2,0,35,0,0
66235,-100,4,2,0,35,0,0
67319,-76.9230769230769,4,2,0,50,0,0
68403,-76.9230769230769,4,2,1,70,0,0
68584,-76.9230769230769,4,2,0,50,0,0
68765,-76.9230769230769,4,2,1,70,0,0
68946,-76.9230769230769,4,2,0,50,0,0
69126,-76.9230769230769,4,2,1,70,0,0
69307,-76.9230769230769,4,2,0,50,0,0
69488,361.44578313253,4,1,1,70,1,1
72379,-62.5,4,1,1,70,0,1
74548,-62.5,4,1,1,65,0,1
74668,-62.5,4,1,1,70,0,1
76716,-55.5555555555556,4,1,1,70,0,1
78524,-62.5,4,1,1,70,0,1
78885,-71.4285714285714,4,1,1,70,0,1
79247,-83.3333333333333,4,1,1,70,0,1
79608,-55.5555555555556,4,1,1,70,0,1
80150,-55.5555555555556,4,1,0,70,0,1
80286,-55.5555555555556,4,1,0,5,0,1
80331,-55.5555555555556,4,1,0,70,0,1
80647,-55.5555555555556,4,1,1,5,0,1
80692,-55.5555555555556,4,1,1,70,0,1
81054,-62.5,4,2,2,60,0,1
85391,-62.5,4,2,2,65,0,1
86837,-62.5,4,1,2,70,0,1
89728,-55.5555555555556,4,1,0,65,0,1
90632,-55.5555555555556,4,1,2,60,0,1
92620,-100,4,1,1,60,0,0
96867,-100,4,1,1,5,0,0
96957,-100,4,2,1,60,0,0
97138,-100,4,2,0,60,0,0
98042,-100,4,2,1,60,0,0
98222,-100,4,2,0,60,0,0
98403,-66.6666666666667,4,2,1,60,0,0
99849,-66.6666666666667,4,2,1,65,0,0
101295,-66.6666666666667,4,2,1,70,0,0
102921,-66.6666666666667,4,2,2,70,0,0
104186,-66.6666666666667,4,2,2,35,0,0
105632,-66.6666666666667,4,2,2,28,0,0
106355,-66.6666666666667,4,2,2,25,0,0
107078,-66.6666666666667,4,2,2,35,0,0
108524,-66.6666666666667,4,2,2,40,0,0
108885,-66.6666666666667,4,2,2,45,0,0
109247,-66.6666666666667,4,2,2,50,0,0
109608,-66.6666666666667,4,2,1,55,0,0
109969,-142.857142857143,4,2,2,30,0,0
111234,-142.857142857143,4,2,2,45,0,0
111415,-117.647058823529,4,2,2,40,0,0
112861,-166.666666666667,4,2,2,25,0,0
114126,-166.666666666667,4,2,2,40,0,0
114307,-166.666666666667,4,2,2,35,0,0
115753,-111.111111111111,4,2,2,45,0,0
115843,-111.111111111111,4,2,0,45,0,0
116475,-111.111111111111,4,2,0,25,0,0
116656,-111.111111111111,4,2,0,45,0,0
116837,-111.111111111111,4,2,0,25,0,0
117018,-111.111111111111,4,2,0,45,0,0
117560,-111.111111111111,4,2,0,25,0,0
117741,-111.111111111111,4,2,0,40,0,0
118463,-111.111111111111,4,2,0,60,0,0
118644,-111.111111111111,4,2,0,70,0,0
119006,-111.111111111111,4,2,0,50,0,0
119367,-111.111111111111,4,2,0,30,0,0
119728,-111.111111111111,4,2,0,10,0,0
119909,392.156862745098,4,2,0,60,1,0
119909,-125,4,2,0,60,0,0
120117,392.156862745098,4,1,0,55,1,0
120117,-105.263157894737,4,1,0,55,0,0
120313,-105.263157894737,4,1,0,50,0,0
120509,-105.263157894737,4,2,0,30,0,0
120705,-105.263157894737,4,2,0,20,0,0
120901,-105.263157894737,4,2,0,10,0,0

[Colours]
Combo1 : 79,109,232
Combo2 : 145,219,255
Combo3 : 200,200,200
Combo4 : 183,183,255

[HitObjects]
227,46,1175,5,2,1:2:0:0:
227,57,1536,1,0,0:0:0:0:
315,37,1717,1,2,0:0:0:0:
385,92,1897,1,2,1:0:0:0:
390,110,2259,2,2,P|414:67|449:148,1,179.999994506836,2|2,1:0|1:2,0:1:0:0:
406,180,3343,5,2,1:2:0:0:
321,212,3524,1,2,0:0:0:0:
236,180,3705,1,0,1:0:0:0:
151,212,3886,1,2,0:0:0:0:
57,140,4066,1,0,1:0:0:0:
222,261,4428,5,2,1:2:0:0:
195,37,4789,1,2,0:0:0:0:
65,228,5150,1,2,1:2:0:0:
193,113,5512,5,0,1:0:0:0:
212,132,5693,1,2,0:0:0:0:
251,149,5873,1,2,0:0:0:0:
307,154,6054,1,0,0:0:0:0:
378,130,6235,1,2,0:1:0:0:
436,63,6596,6,2,B|424:104|458:128|514:119|502:41,1,150,2|2,1:0|0:1,0:1:0:0:
497,172,7681,5,2,1:2:0:0:
432,234,7861,1,2,1:0:0:0:
366,172,8042,1,0,0:0:0:0:
301,234,8222,1,2,1:2:0:0:
367,295,8403,1,2,1:0:0:0:
367,295,8584,1,2,0:0:0:0:
221,372,8765,6,0,L|233:212,2,150,2|2|2,1:0|1:0|1:0,0:0:0:0:
54,194,9849,5,12,1:0:0:0:
30,99,10030,1,0,0:0:0:0:
125,76,10211,1,2,0:0:0:0:
149,171,10392,1,0,0:0:0:0:
63,33,10572,5,2,0:0:0:0:
63,33,10753,1,0,0:0:0:0:
194,108,10934,5,0,1:0:0:0:
256,33,11114,1,0,0:0:0:0:
353,25,11295,1,2,0:0:0:0:
431,83,11476,1,0,0:0:0:0:
313,109,11656,5,2,0:0:0:0:
313,109,11837,1,2,0:0:0:0:
442,169,12018,5,2,0:0:0:0:
464,264,12199,1,0,0:0:0:0:
368,285,12380,1,2,0:0:0:0:
346,190,12561,1,0,0:0:0:0:
389,365,12741,5,2,0:0:0:0:
389,365,12921,1,0,0:0:0:0:
226,335,13102,5,4,1:0:0:0:
205,239,13283,1,0,0:0:0:0:
184,142,13464,1,2,0:0:0:0:
139,69,13644,1,0,0:0:0:0:
71,46,13825,1,2,0:0:0:0:
249,181,14006,5,8,1:1:0:0:
100,234,14187,6,0,P|58:220|13:225,1,75,12|0,1:0|0:0,0:0:0:0:
256,150,14548,2,0,P|214:164|169:159,1,75,2|0,0:0|0:0,0:0:0:0:
262,288,14909,1,0,1:0:0:0:
262,288,15090,1,0,0:0:0:0:
349,264,15271,2,0,P|398:209|269:224,1,300,8|0,1:2|0:0,0:0:0:0:
403,139,16174,1,2,0:0:0:0:
415,117,16265,1,0,0:0:0:0:
420,93,16355,5,4,1:0:0:0:
355,71,16536,1,0,0:0:0:0:
290,50,16717,1,2,0:0:0:0:
225,28,16898,1,0,0:0:0:0:
145,120,17078,5,2,0:0:0:0:
210,98,17259,1,0,0:0:0:0:
300,244,17440,6,0,P|300:195|282:164,1,75,8|0,1:2|0:0,0:0:0:0:
169,330,17801,2,0,P|169:281|187:250,1,75,2|0,0:0|0:0,0:0:0:0:
353,377,18162,2,0,P|353:328|335:297,1,75,2|0,1:2|0:0,0:0:0:0:
117,377,18524,6,0,L|19:387,1,75,8|0,1:0|0:0,0:0:0:0:
0,276,18885,2,0,L|98:286,1,75,2|0,0:0|0:0,0:0:0:0:
130,172,19247,1,0,1:0:0:0:
130,172,19428,1,2,0:0:0:0:
57,120,19608,6,0,B|98:62|193:73|216:146|216:146|265:124|309:160,1,300,0|2,1:0|0:0,0:0:0:0:
389,315,20693,2,0,P|341:261|443:86,1,300,8|2,1:2|0:0,0:0:0:0:
459,252,21777,2,0,B|397:277|349:252|349:252|351:283|351:283|291:265|238:287|238:287|260:266|256:227,1,300,4|2,1:0|0:0,0:0:0:0:
105,124,22861,6,0,L|65:27,1,89.9999972534181,4|0,1:0|0:0,0:0:0:0:
203,109,23223,2,0,L|227:12,1,89.9999972534181,2|0,0:0|0:0,0:0:0:0:
168,196,23584,1,2,1:2:0:0:
168,196,23765,1,0,0:0:0:0:
314,153,23946,6,0,L|399:92,1,89.9999972534181,4|0,1:0|0:0,0:0:0:0:
350,245,24308,2,0,L|449:246,1,89.9999972534181,2|0,0:1|0:0,0:0:0:0:
258,230,24669,1,2,1:0:0:0:
258,230,24850,1,0,0:0:0:0:
346,359,25030,5,4,1:0:0:0:
205,342,25211,1,2,0:0:0:0:
221,354,25301,1,0,0:0:0:0:
244,355,25391,1,2,0:0:0:0:
330,294,25572,1,0,0:0:0:0:
329,197,25753,1,0,1:0:0:0:
265,147,25934,1,0,0:0:0:0:
191,151,26114,6,0,B|118:144|80:101|80:101|131:104|172:71|172:71|121:64,1,269.999991760254,4|0,1:0|1:0,0:0:0:0:
10,122,27018,1,0,0:0:0:0:
10,122,27199,6,0,P|7:169|17:211,1,82.5000025177003,4|0,1:0|0:0,0:0:0:0:
23,277,27560,2,0,P|62:292|87:290,1,60,2|0,0:0|0:0,0:0:0:0:
136,342,27921,2,0,P|161:333|175:321,1,37.5,2|0,0:0|0:0,0:0:0:0:
233,384,28283,6,0,P|213:330|238:237,1,150,4|2,1:0|0:0,0:0:0:0:
374,241,29367,2,0,P|319:260|288:298,1,104.999996795654,4|2,1:0|0:0,0:0:0:0:
282,187,30452,6,0,L|302:194,1,13.1249995994568,0|0,1:0|0:0,0:0:0:0:
421,141,30813,2,0,L|401:148,1,13.1249995994568,2|0,1:2|0:0,0:0:0:0:
286,80,31174,2,0,L|306:87,1,13.1249995994568,2|0,0:0|0:0,0:0:0:0:
211,130,31536,6,0,B|149:153|70:125|70:125|107:149|110:186,1,209.999993591309,4|2,1:2|0:0,0:0:0:0:
90,242,32440,1,0,0:0:0:0:
130,296,32620,2,0,P|169:307|218:360,2,104.999996795654,2|0|2,1:2|0:0|0:0,0:0:0:0:
263,270,33705,6,0,B|296:227|343:216|343:216|312:159|247:148,1,209.999993591309,4|2,1:2|0:0,0:0:0:0:
213,96,34608,1,0,0:0:0:0:
236,30,34789,2,0,B|346:-7|340:68|440:29,1,209.999993591309,4|2,1:2|0:0,0:0:0:0:
504,168,35873,6,0,P|505:132|443:191,1,209.999993591309,4|2,1:2|0:0,0:0:0:0:
486,234,36777,1,0,0:0:0:0:
461,297,36958,2,0,B|400:275|351:323|351:323|313:294|261:317,1,209.999993591309,4|0,1:2|0:0,0:0:0:0:
142,373,38042,6,0,B|178:247|178:247|151:155,1,209.999993591309,4|0,1:0|0:0,0:0:0:0:
100,130,38946,1,0,0:0:0:0:
123,66,39126,2,0,L|241:42,1,104.999996795654,0|2,0:0|0:0,0:0:0:0:
270,133,39849,1,2,0:0:0:0:
395,5,40211,5,12,1:0:0:0:
406,91,40391,1,0,0:0:0:0:
477,225,40572,1,2,1:2:0:0:
489,129,40752,1,0,0:0:0:0:
339,176,40934,1,2,1:2:0:0:
354,291,41114,1,0,1:0:0:0:
466,342,41295,6,0,P|416:318|314:332,1,146.249993305207,0|0,1:0|0:0,0:0:0:0:
262,364,41656,1,2,1:0:0:0:
91,115,42018,1,2,1:2:0:0:
392,129,42379,5,2,1:3:0:0:
476,150,42560,1,0,0:0:0:0:
324,246,42741,1,2,1:2:0:0:
420,224,42922,1,0,0:0:0:0:
270,85,43102,1,2,1:2:0:0:
377,111,43283,1,0,1:3:0:0:
303,269,43464,6,0,L|149:302,1,146.249993305207,2|0,1:3|0:0,0:0:0:0:
103,251,43825,1,2,1:0:0:0:
453,370,44187,1,2,1:2:0:0:
334,83,44548,5,4,1:0:0:0:
246,90,44729,1,2,0:0:0:0:
307,180,44909,1,2,1:2:0:0:
403,189,45090,1,2,0:3:0:0:
341,60,45271,1,2,1:2:0:0:
229,75,45452,1,2,1:2:0:0:
202,230,45632,6,0,P|286:224|335:156,1,146.249993305207,0|0,1:0|0:0,0:0:0:0:
344,108,45994,1,2,1:0:0:0:
85,78,46355,1,2,1:2:0:0:
104,183,46536,1,2,0:3:0:0:
123,288,46717,2,0,B|221:328|213:260|316:288,1,194.999991073609,4|0,1:0|1:0,0:0:0:0:
407,312,47259,1,0,0:0:0:0:
476,243,47440,1,0,1:0:0:0:
441,152,47620,1,2,1:3:0:0:
241,146,47801,5,4,1:0:0:0:
342,111,47982,1,0,0:0:0:0:
136,126,48162,1,2,1:0:0:0:
104,13,48343,1,2,0:0:0:0:
220,225,48524,1,2,1:2:0:0:
42,291,48705,1,2,0:0:0:0:
132,109,48885,5,4,1:0:0:0:
209,115,49247,1,2,1:2:0:0:
286,120,49608,1,2,1:2:0:0:
125,127,49970,5,4,1:0:0:0:
308,311,50331,1,2,1:0:0:0:
338,73,50693,1,2,1:2:0:0:
360,167,50873,1,2,0:3:0:0:
383,261,51054,5,4,1:0:0:0:
96,228,51415,1,2,1:2:0:0:
60,95,51777,1,2,1:0:0:0:
176,24,52138,5,4,1:0:0:0:
191,329,52500,1,2,1:0:0:0:
417,121,52861,1,2,1:2:0:0:
35,206,53223,5,4,1:0:0:0:
90,166,53403,1,2,0:0:0:0:
158,159,53584,1,2,1:2:0:0:
218,191,53765,1,2,0:3:0:0:
328,130,53946,1,2,1:2:0:0:
285,182,54126,1,0,1:0:0:0:
262,246,54307,5,4,1:0:0:0:
464,360,54668,1,2,1:0:0:0:
377,346,54849,1,0,0:0:0:0:
273,384,55030,1,2,1:2:0:0:
186,370,55211,1,2,0:3:0:0:
161,186,55391,6,0,P|119:261|137:328,1,146.249993305207,4|0,1:0|0:0,0:0:0:0:
186,370,55753,1,0,1:0:0:0:
241,207,55934,1,0,0:0:0:0:
403,321,56114,1,0,1:0:0:0:
247,314,56295,1,2,1:0:0:0:
321,120,56476,5,6,1:0:0:0:
343,218,56656,1,0,0:0:0:0:
197,58,56837,1,2,1:0:0:0:
175,156,57017,1,2,0:0:0:0:
322,12,57199,1,2,1:2:0:0:
344,110,57379,1,2,0:0:0:0:
354,100,57560,6,0,B|401:89|433:133|433:133|436:251,1,209.999993591309,4|2,1:2|0:0,0:0:0:0:
468,311,58464,1,0,0:0:0:0:
411,348,58644,2,0,P|344:344|303:358,2,104.999996795654,0|0|2,1:0|0:0|0:0,0:0:0:0:
294,261,59729,6,0,B|268:184|299:147|299:147|250:159|238:124|209:143,1,209.999993591309,4|2,1:2|0:0,0:0:0:0:
163,190,60632,1,0,0:0:0:0:
100,161,60813,2,0,P|53:161|-9:190,2,104.999996795654,0|2|0,1:0|0:0|0:0,0:0:0:0:
93,318,61897,6,0,B|99:231|99:231|73:239,2,104.999996795654,4|2|2,1:2|0:0|1:2,0:0:0:0:
210,379,62982,2,0,B|172:322|198:244|198:244|203:284|238:301,1,209.999993591309,4|2,1:2|0:0,0:0:0:0:
317,218,64066,6,0,B|355:161|329:83|329:83|287:88|274:130,1,209.999993591309,4|2,1:2|0:0,0:0:0:0:
164,161,65150,2,0,B|160:98|112:47|112:47|111:84|75:97|81:136,1,209.999993591309,0|2,1:0|0:0,0:0:0:0:
174,328,66235,6,0,L|188:232,5,75,2|2|0|0|0|2,1:0|0:0|1:0|0:0|1:0|0:0,0:0:0:0:
385,275,67319,2,0,L|369:153,5,97.4999955368044,4|2|0|0|0|2,1:2|0:0|1:0|0:0|1:0|0:0,0:0:0:0:
246,79,68403,5,4,1:0:0:0:
343,71,68584,1,2,0:0:0:0:
150,109,68765,1,4,1:0:0:0:
247,101,68946,1,2,0:0:0:0:
235,260,69126,5,8,1:2:0:0:
150,130,69307,1,2,0:0:0:0:
109,358,69488,5,12,0:0:0:0:
269,326,69668,1,0,2:0:0:0:
265,344,69759,1,0,0:0:0:0:
261,362,69849,1,2,0:0:0:0:
203,176,70030,1,0,0:0:0:0:
326,261,70210,1,2,0:0:0:0:
119,239,70391,1,0,0:0:0:0:
143,244,70481,1,2,0:0:0:0:
167,249,70572,1,2,0:2:0:0:
294,74,70753,6,0,P|272:72|257:76,1,37.5,0|2,2:0|0:0,0:0:0:0:
235,97,70933,1,14,0:0:0:0:
177,57,71054,1,0,0:0:0:0:
113,86,71174,1,0,0:0:0:0:
76,166,71295,5,2,0:0:0:0:
82,179,71415,1,2,0:0:0:0:
88,192,71536,1,2,0:0:0:0:
98,278,71656,5,0,0:0:0:0:
157,238,71777,1,0,0:0:0:0:
221,267,71897,1,0,0:0:0:0:
159,344,72018,5,2,0:2:0:0:
161,329,72138,1,2,0:0:0:0:
163,315,72259,1,2,0:0:0:0:
260,383,72379,6,0,P|294:340|304:219,1,160,14|0,0:0|0:0,0:0:0:0:
344,131,72741,2,0,P|336:209|369:281,1,160,2|0,0:0|2:0,0:0:0:0:
470,126,73102,6,0,L|300:117,1,160,2|0,0:0|0:0,0:0:0:0:
205,97,73463,2,0,L|364:105,1,160,2|0,0:2|0:0,0:0:0:0:
417,204,73825,5,12,0:0:0:0:
376,228,73945,1,2,0:0:0:0:
329,214,74066,1,2,0:0:0:0:
271,263,74186,5,2,0:0:0:0:
212,236,74307,1,2,0:0:0:0:
153,262,74427,1,2,0:0:0:0:
122,337,74548,6,0,B|134:259|48:222|88:103,1,240,6|2,0:0|0:2,0:0:0:0:
365,52,75090,1,2,0:0:0:0:
206,55,75271,6,0,B|274:51|274:51|292:69|292:69|377:66,1,160,12|2,0:0|0:0,0:0:0:0:
482,7,75632,1,2,0:0:0:0:
440,75,75753,1,2,0:0:0:0:
449,154,75873,1,2,0:0:0:0:
492,221,75994,2,0,P|395:192|364:231,1,160,0|2,0:0|0:0,0:0:0:0:
337,358,76355,2,0,P|344:319|331:196,1,160,10|2,0:2|0:0,0:0:0:0:
116,158,76716,6,0,B|197:117|197:117|285:158,1,179.999994506836,14|0,0:0|0:0,0:0:0:0:
118,264,77078,2,0,B|97:177|97:177|15:138,1,179.999994506836,2|2,0:0|0:0,0:0:0:0:
16,24,77439,5,2,0:0:0:0:
95,66,77560,1,0,0:0:0:0:
174,24,77680,1,0,0:0:0:0:
248,69,77801,5,2,0:2:0:0:
259,102,77921,1,0,0:0:0:0:
251,137,78042,1,2,0:0:0:0:
189,223,78162,6,0,B|157:188|157:188|297:221,1,179.999994506836,14|0,0:0|2:0,0:0:0:0:
377,184,78524,6,0,P|359:256|402:342,1,160,2|0,0:0|2:0,0:0:0:0:
270,308,78885,2,0,P|340:310|406:380,1,139.999995727539,2|0,0:0|2:0,0:0:0:0:
470,249,79247,2,0,P|427:277|406:346,1,119.999996337891,2|0,0:0|0:0,0:0:0:0:
313,384,79608,5,4,0:0:0:0:
286,218,79789,1,2,0:0:0:0:
124,173,79969,1,8,0:2:0:0:
127,296,80150,6,0,B|142:240|142:240|132:198,1,101.249996910095,2|0,0:0|2:0,0:0:0:0:
128,185,80331,1,0,0:0:0:0:
222,384,80512,2,0,B|209:328|209:328|218:286,1,101.249996910095,2|0,0:0|2:0,0:0:0:0:
223,273,80692,1,0,0:0:0:0:
114,371,80873,1,8,0:2:0:0:
19,181,81054,6,0,P|68:113|225:135,1,240,6|0,1:0|1:0,0:0:0:0:
313,206,81596,1,0,0:0:0:0:
444,197,81777,1,0,1:0:0:0:
397,359,81957,1,0,0:0:0:0:
366,111,82138,1,10,1:0:0:0:
413,273,82318,1,2,0:3:0:0:
245,349,82500,5,6,1:0:0:0:
230,242,82680,1,0,0:0:0:0:
153,165,82861,2,0,P|102:149|32:170,1,120,0|0,1:0|0:3,0:0:0:0:
321,194,83222,1,0,1:0:0:0:
230,242,83403,2,0,B|351:192|350:281|468:241,1,240,0|2,1:0|1:3,0:0:0:0:
433,3,83945,6,0,B|403:123|403:123|371:37,1,180,6|0,1:0|0:0,0:0:0:0:
379,57,84307,1,0,1:0:0:0:
255,24,84488,1,0,0:0:0:0:
264,191,84668,2,0,P|295:141|282:43,1,120,2|0,1:0|0:0,0:0:0:0:
164,261,85030,2,0,P|133:211|146:113,1,120,8|0,1:0|0:0,0:0:0:0:
366,347,85391,5,6,1:0:0:0:
259,327,85572,1,0,0:0:0:0:
156,362,85753,1,2,1:0:0:0:
49,342,85934,1,0,0:0:0:0:
0,215,86114,1,2,1:0:0:0:
124,238,86295,1,0,0:0:0:0:
228,142,86475,1,6,1:0:0:0:
154,125,86656,1,0,0:0:0:0:
317,251,86837,6,0,B|299:161|299:161|340:136|349:88,1,180,6|0,0:0|2:0,0:0:0:0:
294,20,87198,2,0,L|151:12,1,120,2|0,0:0|2:0,0:0:0:0:
12,154,87560,2,0,L|155:146,1,120,2|0,0:0|2:0,0:0:0:0:
248,292,87921,1,8,0:0:0:0:
223,91,88102,1,2,0:0:0:0:
148,348,88283,5,6,0:0:0:0:
355,234,88463,1,0,2:0:0:0:
317,205,88554,1,0,0:0:0:0:
269,199,88644,1,2,0:0:0:0:
244,384,88825,1,0,2:0:0:0:
282,355,88916,1,0,0:0:0:0:
330,349,89006,2,0,P|388:370|456:361,1,120,0|0,0:0|2:0,0:0:0:0:
495,229,89367,1,2,0:0:0:0:
421,104,89548,2,0,L|356:97,1,60,2|0,0:0|0:0,0:0:0:0:
313,155,89728,6,0,B|323:42|323:42|275:63,1,134.999995880127,6|0,0:0|2:0,0:0:0:0:
223,209,90000,2,0,B|213:96|213:96|261:117,1,134.999995880127,2|0,0:0|2:0,0:0:0:0:
313,259,90271,1,2,0:0:0:0:
92,383,90451,5,2,0:0:0:0:
209,280,90632,1,2,0:3:0:0:
145,176,90813,1,10,0:0:0:0:
129,258,90994,1,2,0:0:0:0:
310,147,91174,5,6,0:0:0:0:
170,67,91355,1,2,0:3:0:0:
57,97,91536,1,10,0:0:0:0:
11,176,91716,1,2,0:3:0:0:
251,69,91897,5,2,0:0:0:0:
332,216,92078,1,8,0:0:0:0:
331,178,92168,1,0,0:0:0:0:
310,147,92259,1,10,0:0:0:0:
187,297,92439,5,2,0:0:0:0:
188,247,92529,1,2,0:0:0:0:
232,190,92620,1,12,0:0:0:0:
256,192,92710,12,0,95241,0:0:0:0:
345,221,95331,5,8,0:0:0:0:
344,171,95421,1,8,0:0:0:0:
300,114,95512,1,4,0:0:0:0:
256,192,95602,12,0,96867,0:0:0:0:
157,66,96957,5,4,1:0:0:0:
157,66,97138,1,0,0:0:0:0:
170,155,97319,1,2,0:0:0:0:
170,155,97500,1,0,0:0:0:0:
188,242,97680,5,2,0:0:0:0:
188,242,97861,1,0,0:0:0:0:
201,331,98042,1,8,1:0:0:0:
201,331,98223,1,2,0:0:0:0:
258,162,98403,6,0,L|285:307,1,112.500004291535,12|2,1:0|3:0,0:0:0:0:
468,196,98765,1,0,1:0:0:0:
488,322,98945,1,2,3:0:0:0:
403,382,99126,1,0,1:0:0:0:
419,268,99306,1,2,3:0:0:0:
340,210,99487,1,0,1:0:0:0:
353,316,99667,1,10,1:2:0:0:
349,329,99759,1,2,1:2:0:0:
346,342,99849,6,0,P|270:361|220:352,1,112.500004291535,12|2,1:0|3:0,0:0:0:0:
139,183,100210,1,0,1:0:0:0:
158,325,100391,1,2,3:0:0:0:
266,131,100572,1,0,1:0:0:0:
252,258,100753,1,2,3:0:0:0:
110,67,100933,1,0,1:0:0:0:
122,177,101114,1,10,1:2:0:0:
140,164,101204,1,2,1:2:0:0:
158,151,101295,6,0,P|234:170|284:161,1,112.500004291535,12|2,1:0|3:0,0:0:0:0:
475,36,101656,1,0,1:0:0:0:
459,187,101837,1,2,3:0:0:0:
334,158,102018,1,0,1:0:0:0:
347,28,102199,1,2,3:0:0:0:
480,57,102379,1,0,1:0:0:0:
470,169,102560,1,10,1:2:0:0:
428,189,102650,1,2,1:2:0:0:
386,210,102741,5,12,1:0:0:0:
369,281,102921,1,0,1:0:0:0:
210,188,103102,1,0,1:0:0:0:
227,259,103282,1,2,3:0:0:0:
416,60,103463,1,2,3:0:0:0:
399,131,103643,1,0,1:0:0:0:
172,41,103825,1,0,1:0:0:0:
189,112,104005,1,2,3:0:0:0:
310,0,104186,5,0,1:0:0:0:
306,112,104367,1,0,0:0:0:0:
255,186,104548,1,2,0:0:0:0:
192,210,104728,1,0,1:0:0:0:
389,233,104909,5,0,1:0:0:0:
300,301,105090,1,2,0:0:0:0:
211,310,105271,1,0,0:0:0:0:
152,277,105451,1,0,1:0:0:0:
321,75,105632,5,0,1:0:0:0:
318,157,105813,1,0,0:0:0:0:
280,212,105994,1,2,0:0:0:0:
233,230,106174,1,0,1:0:0:0:
362,278,106355,5,0,1:0:0:0:
297,328,106536,1,2,0:0:0:0:
230,334,106717,1,0,0:0:0:0:
186,310,106897,1,2,1:3:0:0:
191,143,107078,5,0,1:0:0:0:
258,148,107259,1,0,0:0:0:0:
145,190,107439,1,2,0:0:0:0:
286,207,107620,1,0,1:0:0:0:
286,79,107801,5,0,1:0:0:0:
219,84,107982,1,2,0:0:0:0:
332,126,108162,1,0,0:0:0:0:
191,143,108343,1,0,1:0:0:0:
241,10,108524,5,0,1:0:0:0:
269,184,108704,1,2,0:0:0:0:
387,69,108885,1,0,1:0:0:0:
359,243,109066,2,0,P|358:274|371:307,1,56.2500021457673,2|2,0:0|0:0,0:0:0:0:
330,363,109247,5,0,1:0:0:0:
301,344,109337,1,2,0:3:0:0:
268,336,109427,1,2,0:3:0:0:
234,339,109518,1,2,0:3:0:0:
184,384,109608,5,2,1:2:0:0:
189,333,109698,1,0,1:0:0:0:
194,282,109789,1,2,1:2:0:0:
199,231,109879,1,0,1:0:0:0:
205,181,109969,6,2,B|165:129|169:55|216:23|216:23|187:70|209:106|209:106|251:123|250:92|311:119,1,367.49998878479,6|0,1:0|1:0,0:1:0:0:
361,203,111415,2,2,B|374:125|312:120|360:42|360:42|367:116|433:127|433:127|471:169|459:223|459:223|430:201|432:157,1,446.250008511543,6|0,0:0|0:0,0:1:0:0:
395,280,112861,2,2,B|329:261|339:311|265:309|265:309|291:329|294:368|278:385|246:400|216:376,1,269.999991760254,6|0,1:0|0:0,0:1:0:0:
121,289,114126,1,0,1:0:0:0:
103,302,114216,1,0,0:0:0:0:
90,321,114307,2,2,B|105:207|53:151|53:151|82:168|82:168|69:134|82:102|99:88|121:86,1,314.999990386963,2|0,1:0|0:0,0:1:0:0:
228,127,115753,6,0,P|224:173|215:203,1,67.4999979400635,6|0,1:0|0:0,0:0:0:0:
293,32,116114,2,0,P|297:78|306:108,1,67.4999979400635,2|0,0:0|0:0,0:0:0:0:
405,159,116475,1,2,1:0:0:0:
300,237,116656,5,0,0:0:0:0:
319,239,116747,1,2,0:0:0:0:
352,225,116837,1,0,1:0:0:0:
272,323,117018,5,2,0:0:0:0:
246,323,117109,1,2,0:0:0:0:
199,286,117199,1,2,1:0:0:0:
119,27,117560,5,2,1:0:0:0:
112,124,117741,1,2,0:0:0:0:
4,241,117921,1,2,1:2:0:0:
384,351,118463,6,0,L|374:301,1,33.7499989700318,0|0,1:0|0:0,0:0:0:0:
362,303,118644,2,0,B|349:248|405:227|405:227|363:210|352:166|369:128|412:117|412:117|329:131|342:64|266:89|258:113,1,404.999987640381,6|0,0:0|0:0,0:1:0:0:
141,351,119909,6,0,L|149:301,1,30,0|0,1:0|0:0,0:0:0:0:
163,303,120117,2,2,B|176:248|120:227|120:227|162:210|173:166|156:128|113:117|113:117|134:130|139:148,1,284.999992389679,6|0,1:0|0:0,0:0:0:0:
