osu file format v14

[General]
AudioFilename: audio.mp3
AudioLeadIn: 0
PreviewTime: 69475
Countdown: 0
SampleSet: Normal
StackLeniency: 0.7
Mode: 2
LetterboxInBreaks: 0
WidescreenStoryboard: 0

[Editor]
DistanceSpacing: 1.5
BeatDivisor: 4
GridSize: 4
TimelineZoom: 2.1

[Metadata]
Title:Vulnerability
TitleUnicode:Vulnerability
Artist:Mili
ArtistUnicode:Mili
Creator:Benita
Version:Salad
Source:
Tags:miracle milk violin Benny- BennyBananas Myle Piku P_i_k_u JeirYagtama
BeatmapID:1494079
BeatmapSetID:706599

[Difficulty]
HPDrainRate:4
CircleSize:3
OverallDifficulty:7
ApproachRate:7
SliderMultiplier:1.3
SliderTickRate:1

[Events]
//Background and Video events
0,0,"BETTERBGBENNY.jpg",0,0
//Break Periods
2,92835,94446
2,95726,97157
//Storyboard Layer 0 (Background)
//Storyboard Layer 1 (Fail)
//Storyboard Layer 2 (Pass)
//Storyboard Layer 3 (Foreground)
//Storyboard Sound Samples

[TimingPoints]
1190,361.44578313253,3,2,1,65,1,0
9864,-100,3,1,1,30,0,0
10226,-100,3,2,1,30,0,0
14021,-100,3,1,1,30,0,0
27214,-100,3,2,1,20,0,0
40226,-100,3,1,1,60,0,0
57575,-100,3,2,1,35,0,0
66250,-100,3,1,1,40,0,0
69503,361.44578313253,4,1,1,65,1,1
92635,-100,4,2,1,70,0,0
95527,-100,4,1,1,40,0,0
104201,-100,4,2,1,30,0,0
119924,392.156862745098,4,2,1,30,1,0
120132,392.156862745098,4,2,1,30,1,0

[Colours]
Combo1 : 79,109,232
Combo2 : 145,219,255
Combo3 : 200,200,200
Combo4 : 183,183,255

[HitObjects]
231,278,1190,6,0,P|163:234|239:106,1,260,2|2,0:0|0:0,0:0:0:0:
417,188,2274,2,0,L|141:240,1,260,2|2,0:0|0:0,0:0:0:0:
344,279,3358,6,0,L|360:191,1,65,2|0,0:0|0:0,0:0:0:0:
264,207,3720,2,0,L|192:203,2,65
446,205,4443,2,0,P|476:148|432:88,1,130,2|2,0:0|0:0,0:0:0:0:
321,84,5165,1,2,0:0:0:0:
139,225,5527,6,0,L|405:287,1,260,2|2,0:0|0:0,0:0:0:0:
210,314,6611,2,0,P|147:229|270:143,1,260,2|2,0:0|0:0,0:0:0:0:
424,200,7696,6,0,L|508:196,2,65,2|0|0,0:0|0:0|0:0,0:0:0:0:
323,208,8238,2,0,L|236:211,2,65,0|0|0,0:0|0:0|0:0,0:0:0:0:
424,200,8780,2,0,L|285:156,2,130,2|0|0,0:0|0:0|0:0,0:0:0:0:
137,226,9864,6,0,L|20:130,2,130,6|0|0,0:0|0:0|0:0,0:0:0:0:
268,275,10949,2,0,L|315:143,1,130,2|0,0:0|0:0,0:0:0:0:
173,152,11671,1,0,0:0:0:0:
355,300,12033,6,0,L|196:324,2,130,2|0|0,0:0|0:0|0:0,0:0:0:0:
173,168,13117,2,0,L|296:115,1,130,2|0,0:0|0:0,0:0:0:0:
110,161,13840,2,0,L|49:212,1,65,0|2,0:0|0:0,0:0:0:0:
237,210,14202,6,0,P|349:243|383:383,1,260,6|2,0:0|0:0,0:0:0:0:
88,336,15286,2,0,L|363:305,1,260,2|0,0:0|0:0,0:0:0:0:
140,280,16370,6,0,P|69:263|138:133,1,260,2|0,0:0|0:0,0:0:0:0:
324,192,17455,2,0,L|260:63,1,130,2|0,0:0|0:0,0:0:0:0:
120,108,18177,1,10,0:0:0:0:
420,140,18539,6,0,P|465:166|408:333,1,260,6|2,0:0|0:0,0:0:0:0:
224,316,19623,2,0,L|490:269,1,260,2|2,0:0|0:0,0:0:0:0:
180,256,20708,6,0,P|127:244|192:101,1,260,2|0,0:0|0:0,0:0:0:0:
368,202,21792,2,0,L|113:280,1,260,2|0,0:0|0:0,0:0:0:0:
420,292,22876,5,2,0:0:0:0:
250,223,23238,2,0,L|401:212,1,130,0|2,0:0|0:0,0:0:0:0:
81,160,23961,1,2,0:0:0:0:
249,114,24322,2,0,L|101:101,1,130,0|2,0:0|0:0,0:0:0:0:
420,152,25045,5,2,0:0:0:0:
239,213,25406,2,0,L|214:284,1,65,0|0,0:0|0:0,0:0:0:0:
300,322,25768,2,0,L|381:335,1,65,2|0,0:0|0:0,0:0:0:0:
482,351,26129,2,0,L|203:318,1,260,2|2,0:0|0:0,0:0:0:0:
76,296,27214,6,0,L|212:296,2,130,2|0|0,0:0|0:0|0:0,0:0:0:0:
244,224,28298,2,0,L|36:64,1,260,2|0,0:0|0:0,0:0:0:0:
208,184,29382,6,0,P|320:136|292:-4,1,260,2|0,0:0|0:0,0:0:0:0:
204,0,30467,1,2,0:0:0:0:
140,96,30828,1,0,0:0:0:0:
224,152,31189,1,0,0:0:0:0:
484,152,31551,6,0,L|204:152,1,260,2|0,0:0|0:0,0:0:0:0:
60,152,32635,1,2,0:0:0:0:
268,202,32997,2,0,L|336:314,1,130,0|0,0:0|0:0,0:0:0:0:
148,340,33720,6,0,P|60:264|152:200,1,260,2|0,0:0|0:0,0:0:0:0:
324,216,34804,2,0,P|392:151|300:43,1,260,2|0,0:0|0:0,0:0:0:0:
128,168,35888,6,0,L|392:168,1,260,2|0,0:0|0:0,0:0:0:0:
208,240,36973,2,0,L|64:244,2,130,2|0|0,0:0|0:0|0:0,0:0:0:0:
376,196,38057,6,0,P|418:157|349:-8,1,260,2|0,0:0|0:0,0:0:0:0:
208,271,39141,2,0,L|286:147,1,130,2|0,0:0|0:0,0:0:0:0:
431,156,39864,1,0,0:0:0:0:
144,148,40226,5,6,0:0:0:0:
112,200,40406,1,0,0:0:0:0:
156,252,40587,1,2,0:0:0:0:
232,268,40768,1,0,0:0:0:0:
308,256,40949,1,2,0:0:0:0:
368,140,41129,1,2,0:0:0:0:
196,220,41310,2,0,P|160:260|208:324,1,130,2|6,0:0|0:0,0:0:0:0:
372,320,42033,2,0,L|432:256,1,65,0|2,0:0|0:0,0:0:0:0:
248,264,42394,5,6,0:0:0:0:
180,232,42575,1,0,0:0:0:0:
172,160,42756,1,2,0:0:0:0:
216,96,42936,1,0,0:0:0:0:
294,77,43117,2,0,L|362:77,2,65,2|2|2,0:0|0:0|0:0,0:0:0:0:
40,124,43840,2,0,L|153:232,1,130,14|14,0:0|0:0,0:0:0:0:
447,128,44563,6,0,P|487:164|439:300,1,195,6|0,0:0|0:0,0:0:0:0:
388,312,45286,1,2,0:0:0:0:
120,312,45647,1,2,0:0:0:0:
252,276,46009,2,0,L|272:200,1,65,2|0,0:0|0:0,0:0:0:0:
172,184,46370,2,0,L|160:108,1,65,2|2,0:0|0:0,0:0:0:0:
332,116,46732,5,6,0:0:0:0:
404,144,46912,1,0,0:0:0:0:
444,212,47093,1,2,0:0:0:0:
440,288,47274,1,0,0:0:0:0:
368,328,47455,1,2,0:0:0:0:
272,339,47635,1,2,0:0:0:0:
176,328,47816,2,0,L|144:244,1,65,2|0,0:0|0:0,0:0:0:0:
257,203,48177,2,0,L|193:216,1,65,14|0,0:0|0:0,0:0:0:0:
88,152,48539,2,0,L|168:136,1,65,14|0,0:0|0:0,0:0:0:0:
308,116,48900,5,6,0:0:0:0:
380,152,49081,1,0,0:0:0:0:
424,220,49262,1,2,0:0:0:0:
416,304,49443,1,0,0:0:0:0:
364,352,49623,1,2,0:0:0:0:
288,372,49804,1,2,0:0:0:0:
456,360,49985,2,0,P|492:328|448:248,1,130,2|0,0:0|0:0,0:0:0:0:
312,256,50708,2,0,L|280:184,1,65,2|2,0:0|0:0,0:0:0:0:
456,184,51069,6,0,P|480:140|444:60,1,130,6|2,0:0|0:0,0:0:0:0:
316,60,51792,2,0,L|240:88,2,65,2|2|2,0:0|0:0|0:0,0:0:0:0:
54,209,52515,2,0,P|17:257|44:313,1,130,14|14,0:0|0:0,0:0:0:0:
306,301,53238,6,0,P|358:281|378:141,1,195,6|0,0:0|0:0,0:0:0:0:
324,104,53961,1,2,0:0:0:0:
148,100,54322,1,2,0:0:0:0:
284,148,54683,1,2,0:0:0:0:
344,180,54864,1,0,0:0:0:0:
376,252,55045,1,2,0:0:0:0:
352,332,55226,1,10,0:0:0:0:
180,336,55406,6,0,L|100:336,2,65,6|0|2,0:0|0:0|0:0,0:0:0:0:
240,336,55949,2,0,L|320:336,1,65,0|2,0:0|0:0,0:0:0:0:
230,285,56310,1,2,0:0:0:0:
160,240,56491,1,2,0:0:0:0:
416,236,56852,2,0,P|448:176|400:116,1,130,14|14,0:0|0:0,0:0:0:0:
148,148,57575,6,0,P|102:178|157:348,1,260,2|0,0:0|0:0,0:0:0:0:
251,345,58479,1,0,0:0:0:0:
354,267,58659,2,0,L|398:143,1,130,2|0,0:0|0:0,0:0:0:0:
213,134,59382,1,0,0:0:0:0:
408,114,59744,6,0,L|133:126,1,260,2|0,0:0|0:0,0:0:0:0:
67,126,60647,1,0,0:0:0:0:
182,213,60828,2,0,L|203:367,1,130,2|0,0:0|0:0,0:0:0:0:
67,354,61551,1,0,0:0:0:0:
230,355,61912,6,0,L|382:335,2,130,2|0|0,0:0|0:0|0:0,0:0:0:0:
59,310,62997,2,0,L|328:275,1,260,2|0,0:0|0:0,0:0:0:0:
142,258,64081,6,0,P|97:231|167:84,1,260,2|0,0:0|0:0,0:0:0:0:
335,93,65165,2,0,P|444:112|440:248,1,260,2|0,0:0|0:0,0:0:0:0:
160,156,66250,5,6,0:0:0:0:
96,104,66430,1,0,0:0:0:0:
145,44,66611,1,0,0:0:0:0:
240,24,66792,1,0,0:0:0:0:
300,88,66972,1,0,0:0:0:0:
264,164,67153,1,0,0:0:0:0:
96,236,67334,5,6,0:0:0:0:
40,184,67515,1,0,0:0:0:0:
56,112,67696,1,0,0:0:0:0:
136,84,67876,1,0,0:0:0:0:
216,108,68057,1,0,0:0:0:0:
268,172,68238,1,0,0:0:0:0:
108,232,68418,5,6,0:0:0:0:
84,172,68599,1,0,0:0:0:0:
120,108,68780,1,0,0:0:0:0:
204,80,68961,1,0,0:0:0:0:
368,120,69141,2,0,L|403:185,1,65,4|0,0:0|0:0,0:0:0:0:
222,246,69503,6,0,L|90:246,1,130,6|2,0:0|0:0,0:0:0:0:
174,169,70045,1,0,0:0:0:0:
256,168,70225,2,0,L|400:164,1,130,2|10,0:0|0:0,0:0:0:0:
216,192,70948,6,0,P|180:224|224:296,1,130,2|2,0:0|0:0,0:0:0:0:
376,292,71671,1,2,0:0:0:0:
207,291,72033,1,2,0:0:0:0:
468,212,72394,6,0,L|320:212,1,130,6|2,0:0|0:0,0:0:0:0:
160,208,73117,2,0,P|124:156|176:116,1,130,2|10,0:0|0:0,0:0:0:0:
336,120,73840,6,0,L|480:124,2,130,2|2|2,0:0|0:0|0:0,0:0:0:0:
176,176,74924,2,0,L|144:248,1,65,2|8,0:0|0:0,0:0:0:0:
328,244,75286,6,0,P|372:200|324:148,1,130,2|2,0:0|0:0,0:0:0:0:
184,156,76009,2,0,L|320:168,1,130,2|10,0:0|0:0,0:0:0:0:
148,212,76731,6,0,L|16:212,1,130,2|2,0:0|0:0,0:0:0:0:
288,232,77454,2,0,L|344:232,2,43.3333333333333,2|0|0,0:0|0:0|0:0,0:0:0:0:
224,232,77816,2,0,L|172:180,1,65,2|8,0:0|0:0,0:0:0:0:
355,192,78177,6,0,L|491:192,2,130,2|2|2,0:0|0:0|0:0,0:0:0:0:
188,192,79262,1,10,0:0:0:0:
360,188,79623,6,0,L|368:264,1,65,2|0,0:0|0:0,0:0:0:0:
284,264,79984,1,10,0:0:0:0:
105,212,80165,2,0,L|233:243,1,130,0|0,0:0|0:0,0:0:0:0:
361,243,80707,2,0,L|316:182,1,65,10|0,0:0|0:0,0:0:0:0:
142,196,81069,6,0,L|2:196,2,130,6|2|2,0:0|0:0|0:0,0:0:0:0:
328,196,82153,1,10,0:0:0:0:
60,240,82515,6,0,P|36:212|92:152,1,130,2|2,0:0|0:0,0:0:0:0:
232,144,83237,2,0,L|88:144,1,130,2|2,0:0|0:0,0:0:0:0:
168,144,83780,1,8,0:0:0:0:
360,156,83960,6,0,P|400:200|356:256,1,130,6|2,0:0|0:0,0:0:0:0:
220,260,84683,2,0,L|376:256,1,130,2|10,0:0|0:0,0:0:0:0:
84,264,85406,6,0,L|68:128,1,130,2|2,0:0|0:0,0:0:0:0:
232,128,86129,2,0,L|244:280,1,130,2|2,0:0|0:0,0:0:0:0:
176,292,86671,1,8,0:0:0:0:
356,312,86852,6,0,L|500:312,1,130,2|2,0:0|0:0,0:0:0:0:
332,276,87575,2,0,P|304:240|368:176,1,130,2|10,0:0|0:0,0:0:0:0:
433,171,88117,1,0,0:0:0:0:
256,160,88298,6,0,L|116:160,2,130,2|2|0,0:0|0:0|0:0,0:0:0:0:
400,180,89382,2,0,L|410:259,1,65,2|0,0:0|0:0,0:0:0:0:
229,277,89743,6,0,P|189:245|161:184,2,97.5,2|0|0,0:0|0:0|0:0,0:0:0:0:
330,285,90466,2,0,L|415:287,1,65,2|0,0:0|0:0,0:0:0:0:
267,214,90828,2,0,L|189:212,1,65,10|0,0:0|0:0,0:0:0:0:
396,200,91189,6,0,P|440:174|401:106,1,130,2|10,0:0|0:0,0:0:0:0:
324,92,91731,1,0,0:0:0:0:
230,128,91912,2,0,L|201:198,1,65,2|8,0:0|0:0,0:0:0:0:
304,209,92274,2,0,L|318:286,1,65,10|0,0:0|0:0,0:0:0:0:
120,296,92635,5,6,0:0:0:0:
196,224,95346,6,0,L|186:190,2,32.5,0|0|6,0:0|0:0|0:0,0:0:0:0:
139,284,98057,5,6,0:0:0:0:
406,272,98418,6,0,P|445:252|390:76,1,260,6|2,0:0|0:0,0:0:0:0:
246,76,99502,1,2,0:0:0:0:
83,229,99864,2,0,L|351:235,1,260,6|2,0:0|0:0,0:0:0:0:
486,241,100948,2,0,L|504:170,1,65,2|0,0:0|0:0,0:0:0:0:
326,186,101310,6,0,P|262:167|321:12,1,260,6|2,0:0|0:0,0:0:0:0:
434,21,102394,1,2,0:0:0:0:
108,235,102756,2,0,P|74:208|152:40,1,260,6|2,0:0|0:0,0:0:0:0:
262,35,103840,1,2,0:0:0:0:
455,141,104201,6,0,L|225:284,1,260,2|2,0:0|0:0,0:0:0:0:
482,326,105647,2,0,P|507:288|445:97,1,260,2|2,0:0|0:0,0:0:0:0:
160,205,107093,6,0,L|409:104,1,260,2|2,0:0|0:0,0:0:0:0:
172,182,108539,2,0,L|33:169,1,130,2|2,0:0|0:0,0:0:0:0:
212,130,109262,2,0,L|354:158,1,130,2|2,0:0|0:0,0:0:0:0:
149,141,109984,6,0,P|95:130|237:-14,1,455,2|2,0:0|0:0,0:0:0:0:
316,150,111430,2,0,P|296:212|51:82,1,455,2|0,0:0|0:0,0:0:0:0:
96,66,112876,6,0,P|287:53|489:235,1,455,2|2,0:0|0:0,0:0:0:0:
418,272,114322,2,0,P|354:302|215:278,1,195,2|0,0:0|0:0,0:0:0:0:
312,249,115045,2,0,P|338:207|274:84,1,195,2|0,0:0|0:0,0:0:0:0:
174,90,115768,6,0,P|129:106|114:193,1,130,2|0,0:0|0:0,0:0:0:0:
265,213,116490,2,0,L|133:236,1,130,2|0,0:0|0:0,0:0:0:0:
319,292,117213,2,0,P|367:275|339:190,1,130,2|0,0:0|0:0,0:0:0:0:
255,176,117756,1,0,0:0:0:0:
146,168,117936,2,0,P|119:137|185:20,1,195,2|2,0:0|0:0,0:0:0:0:
374,41,118659,5,2,0:0:0:0:
163,256,119924,6,0,L|157:193,1,32.5
163,256,120132,1,0,0:0:0:0:
