osu file format v14

[General]
AudioFilename: audio.mp3
AudioLeadIn: 0
PreviewTime: 69475
Countdown: 0
SampleSet: Normal
StackLeniency: 0.7
Mode: 2
LetterboxInBreaks: 0
WidescreenStoryboard: 0

[Editor]
Bookmarks: 12009,40202
DistanceSpacing: 1.5
BeatDivisor: 4
GridSize: 8
TimelineZoom: 3.799998

[Metadata]
Title:Vulnerability
TitleUnicode:Vulnerability
Artist:Mili
ArtistUnicode:Mili
Creator:Benita
Version:Jeir's Rain
Source:
Tags:miracle milk violin Benny- BennyBananas Myle Piku P_i_k_u JeirYagtama
BeatmapID:1494075
BeatmapSetID:706599

[Difficulty]
HPDrainRate:6
CircleSize:4.5
OverallDifficulty:9
ApproachRate:9
SliderMultiplier:1.7
SliderTickRate:2

[Events]
//Background and Video events
0,0,"BETTERBGBENNY.jpg",0,0
//Break Periods
//Storyboard Layer 0 (Background)
//Storyboard Layer 1 (Fail)
//Storyboard Layer 2 (Pass)
//Storyboard Layer 3 (Foreground)
//Storyboard Sound Samples

[TimingPoints]
1190,361.44578313253,3,2,1,65,1,0
9864,-100,3,1,1,65,0,0
10045,-100,3,2,1,65,0,0
14021,-100,3,1,1,65,0,0
27214,-100,3,2,1,65,0,0
40226,-100,3,1,1,65,0,0
57575,-100,3,2,1,65,0,0
66250,-100,3,1,1,65,0,0
69503,361.44578313253,4,1,1,65,1,1
92635,-100,4,2,1,65,0,0
95527,-100,4,1,1,65,0,0
95707,-100,4,2,1,65,0,0
98057,-100,4,1,1,65,0,0
104201,-100,4,2,1,65,0,0
119924,392.156862745098,4,2,1,65,1,0
120132,392.156862745098,4,2,1,65,1,0

[Colours]
Combo1 : 79,109,232
Combo2 : 145,219,255
Combo3 : 200,200,200
Combo4 : 183,183,255

[HitObjects]
209,281,1190,6,0,B|405:255,1,170,2|0,0:0|0:0,0:0:0:0:
198,256,1732,1,0,0:0:0:0:
456,306,1912,2,0,P|485:275|469:212,1,85,2|0,0:0|0:0,0:0:0:0:
222,299,2274,6,0,P|168:234|289:110,1,255,2|0,0:0|0:0,0:0:0:0:
403,108,2997,2,0,L|503:107,1,85,2|0,0:0|0:0,0:0:0:0:
224,118,3358,6,0,L|107:118,1,85,2|0,0:0|0:0,0:0:0:0:
301,101,3720,2,0,L|184:101,2,85,0|0|0,0:0|0:0|0:0,0:0:0:0:
403,97,4262,1,0,0:0:0:0:
76,120,4443,2,0,L|246:120,2,170,2|2|2,0:0|0:0|0:0,0:0:0:0:
200,120,5346,1,0,0:0:0:0:
457,117,5527,6,0,L|372:117,2,85,2|0|0,0:0|0:0|0:0,0:0:0:0:
196,119,6069,1,0,0:0:0:0:
449,135,6250,2,0,L|309:129,1,127.5,2|0,0:0|0:0,0:0:0:0:
113,253,6611,6,0,P|57:234|135:92,1,255,2|0,0:0|0:0,0:0:0:0:
264,91,7334,2,0,L|357:92,1,85,2|0,0:0|0:0,0:0:0:0:
88,82,7696,6,0,L|-22:81,1,85,2|0,0:0|0:0,0:0:0:0:
170,59,8057,2,0,L|60:58,1,85,0|0,0:0|0:0,0:0:0:0:
342,59,8418,2,0,L|452:58,1,85,0|0,0:0|0:0,0:0:0:0:
153,80,8780,2,0,L|343:79,2,170,2|0|0,0:0|0:0|0:0,0:0:0:0:
34,85,9683,1,0,0:0:0:0:
333,95,9864,5,6,0:0:0:0:
240,95,10045,1,0,0:0:0:0:
333,95,10226,1,0,0:0:0:0:
189,97,10407,1,0,0:0:0:0:
452,95,10587,2,0,L|343:92,1,85
128,88,10949,6,0,L|44:85,1,85,2|0,0:0|0:0,0:0:0:0:
377,90,11310,2,0,L|462:87,1,85,2|0,0:0|0:0,0:0:0:0:
189,90,11671,1,0,0:0:0:0:
311,94,11852,2,2,L|346:31,1,42.5
139,93,12033,5,2,0:0:0:0:
242,91,12214,1,0,0:0:0:0:
139,93,12395,1,0,0:0:0:0:
292,86,12576,1,0,0:0:0:0:
33,96,12756,2,0,L|142:93,1,85,0|0,0:0|0:0,0:0:0:0:
283,96,13117,6,0,L|367:93,1,85,2|0,0:0|0:0,0:0:0:0:
108,91,13479,2,0,L|23:88,1,85,2|0,0:0|0:0,0:0:0:0:
283,96,13840,1,0,0:0:0:0:
26,105,14021,1,2,0:0:0:0:
283,96,14202,6,0,L|388:95,1,85,6|0,0:0|0:0,0:0:0:0:
203,88,14563,2,0,L|101:87,2,85,0|0|2,0:0|0:0|0:0,0:0:0:0:
369,102,15105,1,0,0:0:0:0:
110,186,15286,6,0,P|51:148|108:87,1,170,2|0,0:0|0:0,0:0:0:0:
259,80,15828,2,0,L|160:79,1,85,0|0,0:0|0:0,0:0:0:0:
336,118,16189,2,0,L|327:64,1,42.5,0|0,0:0|0:0,0:0:0:0:
175,98,16370,6,0,L|69:99,1,85,2|0,0:0|0:0,0:0:0:0:
259,97,16732,2,0,L|365:98,1,85,0|0,0:0|0:0,0:0:0:0:
181,101,17093,2,0,L|97:100,1,85,0|0,0:0|0:0,0:0:0:0:
379,173,17455,6,0,L|403:73,1,85,2|0,0:0|0:0,0:0:0:0:
236,168,17816,2,0,L|320:169,1,85,0|0,0:0|0:0,0:0:0:0:
52,171,18177,1,10,0:0:0:0:
185,163,18358,1,0,0:0:0:0:
451,160,18539,6,0,L|271:164,2,170,6|0|2,0:0|0:0|0:0,0:0:0:0:
327,161,19443,1,0,0:0:0:0:
59,168,19623,6,0,L|331:157,1,255,2|0,0:0|0:0,0:0:0:0:
190,151,20346,1,2,0:0:0:0:
66,154,20527,1,0,0:0:0:0:
324,144,20708,6,0,L|127:153,2,170,2|0|0,0:0|0:0|0:0,0:0:0:0:
161,137,21611,1,0,0:0:0:0:
419,255,21792,5,2,0:0:0:0:
492,196,21972,1,0,0:0:0:0:
474,104,22153,1,0,0:0:0:0:
392,59,22334,1,0,0:0:0:0:
251,77,22515,2,0,L|154:74,1,85,0|0,0:0|0:0,0:0:0:0:
428,192,22876,6,0,P|468:139|424:106,1,127.5,2|0,0:0|0:0,0:0:0:0:
277,99,23238,2,0,L|179:100,1,85,0|0,0:0|0:0,0:0:0:0:
367,90,23599,2,0,L|452:89,1,85,2|0,0:0|0:0,0:0:0:0:
193,191,23961,6,0,P|153:138|195:103,1,127.5,2|0,0:0|0:0,0:0:0:0:
343,96,24323,2,0,L|441:97,1,85,0|0,0:0|0:0,0:0:0:0:
254,89,24684,2,0,L|170:88,1,85,2|0,0:0|0:0,0:0:0:0:
433,90,25045,5,2,0:0:0:0:
268,96,25226,2,0,L|229:69,2,42.5,0|0|0,0:0|0:0|0:0,0:0:0:0:
387,93,25587,1,0,0:0:0:0:
242,97,25768,2,0,L|138:99,1,85,2|0,0:0|0:0,0:0:0:0:
413,301,26129,5,2,0:0:0:0:
490,248,26309,1,0,0:0:0:0:
490,154,26490,1,0,0:0:0:0:
419,93,26671,1,0,0:0:0:0:
267,94,26851,1,2,0:0:0:0:
395,96,27033,1,0,0:0:0:0:
134,249,27214,6,0,L|319:243,2,170,2|0|0,0:0|0:0|0:0,0:0:0:0:
236,245,28117,1,0,0:0:0:0:
417,247,28298,2,0,B|517:187|469:102|469:102|397:265,1,340,2|0,0:0|0:0,0:0:0:0:
206,245,29382,6,0,P|99:225|189:70,1,340,2|0,0:0|0:0,0:0:0:0:
412,79,30467,1,2,0:0:0:0:
243,82,30828,1,0,0:0:0:0:
412,79,31189,1,0,0:0:0:0:
117,273,31551,6,0,P|63:244|199:95,1,340,2|0,0:0|0:0,0:0:0:0:
338,90,32455,1,0,0:0:0:0:
91,85,32635,6,0,L|273:91,2,170,2|0|0,0:0|0:0|0:0,0:0:0:0:
176,69,33539,1,0,0:0:0:0:
340,264,33720,6,0,P|380:221|228:53,1,340,2|0,0:0|0:0,0:0:0:0:
80,48,34623,1,0,0:0:0:0:
341,258,34804,6,0,P|371:214|197:52,1,340,2|0,0:0|0:0,0:0:0:0:
472,77,35888,6,0,L|107:80,1,340,2|0,0:0|0:0,0:0:0:0:
282,80,36792,1,0,0:0:0:0:
120,243,36973,6,0,B|129:300|13:298|-21:165|56:71|178:76,1,340,2|0,0:0|0:0,0:0:0:0:
265,75,37876,1,0,0:0:0:0:
428,285,38057,5,2,0:0:0:0:
498,223,38237,1,0,0:0:0:0:
471,133,38418,1,0,0:0:0:0:
387,92,38599,1,0,0:0:0:0:
252,90,38779,1,0,0:0:0:0:
115,83,38961,1,0,0:0:0:0:
371,176,39141,6,0,L|383:52,1,85,2|0,0:0|0:0,0:0:0:0:
215,179,39503,2,0,L|203:55,1,85,0|0,0:0|0:0,0:0:0:0:
466,166,39864,2,0,L|343:158,1,85,0|0,0:0|0:0,0:0:0:0:
107,170,40226,6,0,L|20:166,2,85,6|0|2,0:0|0:0|0:0,0:0:0:0:
285,183,40768,1,0,0:0:0:0:
127,177,40949,2,0,L|21:169,1,85,2|2,0:0|0:0,0:0:0:0:
307,185,41310,6,0,L|413:177,1,85,2|0,0:0|0:0,0:0:0:0:
106,186,41671,2,0,L|0:178,1,85,6|0,0:0|0:0,0:0:0:0:
190,201,42033,1,0,0:0:0:0:
25,197,42214,1,2,0:0:0:0:
303,219,42394,6,0,L|387:148,1,85,6|0,0:0|0:0,0:0:0:0:
104,218,42756,2,0,L|216:217,1,85,2|0,0:0|0:0,0:0:0:0:
351,225,43117,1,2,0:0:0:0:
202,219,43298,1,2,0:0:0:0:
472,222,43479,6,0,L|398:181,1,85,2|0,0:0|0:0,0:0:0:0:
131,200,43840,2,0,L|15:200,1,85,14|0,0:0|0:0,0:0:0:0:
314,226,44202,2,0,P|329:174|311:149,1,85,14|0,0:0|0:0,0:0:0:0:
51,157,44563,5,6,0:0:0:0:
196,150,44744,1,0,0:0:0:0:
451,214,44924,5,2,0:0:0:0:
489,195,45014,1,0,0:0:0:0:
485,152,45104,1,0,0:0:0:0:
452,124,45195,1,0,0:0:0:0:
272,229,45286,6,0,L|194:220,1,42.5,2|0,0:0|0:0,0:0:0:0:
380,200,45467,2,0,L|458:191,1,42.5,2|0,0:0|0:0,0:0:0:0:
142,121,45647,6,0,L|25:113,1,85,2|0,0:0|0:0,0:0:0:0:
213,96,46009,2,0,L|96:88,1,85,2|0,0:0|0:0,0:0:0:0:
288,103,46370,1,2,0:0:0:0:
17,112,46551,1,2,0:0:0:0:
282,257,46732,5,6,0:0:0:0:
377,222,46912,1,0,0:0:0:0:
378,119,47093,1,2,0:0:0:0:
279,90,47274,1,0,0:0:0:0:
113,95,47455,1,2,0:0:0:0:
244,92,47635,1,2,0:0:0:0:
499,104,47816,6,0,L|398:97,1,85,2|0,0:0|0:0,0:0:0:0:
144,221,48177,2,0,L|149:119,1,85,14|0,0:0|0:0,0:0:0:0:
421,233,48539,2,0,L|426:131,1,85,14|0,0:0|0:0,0:0:0:0:
160,303,48900,5,6,0:0:0:0:
75,263,49080,1,0,0:0:0:0:
74,169,49261,1,2,0:0:0:0:
172,142,49442,1,0,0:0:0:0:
336,153,49623,2,0,L|339:62,1,85,2|2,0:0|0:0,0:0:0:0:
173,152,49985,6,0,L|176:61,1,85,2|0,0:0|0:0,0:0:0:0:
442,156,50346,2,0,L|357:150,1,85,2|0,0:0|0:0,0:0:0:0:
193,147,50708,1,2,0:0:0:0:
454,156,50888,1,2,0:0:0:0:
196,137,51069,6,0,L|112:142,1,85,6|0,0:0|0:0,0:0:0:0:
371,145,51430,2,0,L|455:150,1,85,2|0,0:0|0:0,0:0:0:0:
196,137,51792,2,0,L|300:137,1,85,2|2,0:0|0:0,0:0:0:0:
117,136,52153,6,0,L|33:137,1,85,2|0,0:0|0:0,0:0:0:0:
297,181,52515,2,0,L|301:78,1,85,14|0,0:0|0:0,0:0:0:0:
38,183,52876,2,0,L|34:80,1,85,14|0,0:0|0:0,0:0:0:0:
326,278,53238,5,6,0:0:0:0:
377,247,53328,1,0,0:0:0:0:
374,187,53418,1,0,0:0:0:0:
326,151,53509,1,0,0:0:0:0:
267,151,53599,5,2,0:0:0:0:
207,130,53689,1,0,0:0:0:0:
205,66,53779,1,0,0:0:0:0:
259,31,53870,1,0,0:0:0:0:
421,83,53961,6,0,L|488:85,1,42.5,2|0,0:0|0:0,0:0:0:0:
297,81,54141,2,0,L|230:83,1,42.5,2|0,0:0|0:0,0:0:0:0:
404,87,54322,6,0,L|488:91,1,85,2|0,0:0|0:0,0:0:0:0:
236,95,54683,1,2,0:0:0:0:
362,89,54863,1,0,0:0:0:0:
200,93,55044,1,2,0:0:0:0:
362,89,55226,1,10,0:0:0:0:
93,281,55406,5,6,0:0:0:0:
28,230,55586,1,0,0:0:0:0:
31,148,55767,1,2,0:0:0:0:
99,102,55948,1,0,0:0:0:0:
265,100,56129,1,2,0:0:0:0:
102,102,56310,1,2,0:0:0:0:
363,190,56491,6,0,L|374:90,1,85,2|0,0:0|0:0,0:0:0:0:
108,194,56852,2,0,L|97:94,1,85,14|0,0:0|0:0,0:0:0:0:
363,190,57214,2,0,L|263:189,1,85,14|0,0:0|0:0,0:0:0:0:
442,244,57575,6,0,P|463:193|267:82,1,340,2|0,0:0|0:0,0:0:0:0:
393,98,58479,1,0,0:0:0:0:
136,99,58659,2,0,L|320:99,2,170,2|0|0,0:0|0:0|0:0,0:0:0:0:
256,101,59563,1,0,0:0:0:0:
122,130,59744,6,0,B|71:193|-35:197|92:28|292:123,1,340,2|0,0:0|0:0,0:0:0:0:
403,122,60647,1,0,0:0:0:0:
151,113,60828,2,0,L|323:89,2,170,2|0|0,0:0|0:0|0:0,0:0:0:0:
36,113,61732,1,0,0:0:0:0:
319,151,61912,6,0,P|372:114|301:50,1,170,2|0,0:0|0:0,0:0:0:0:
98,59,62635,1,0,0:0:0:0:
328,131,62997,2,0,B|379:194|485:198|358:29|158:124,1,340,2|0,0:0|0:0,0:0:0:0:
410,146,64081,2,0,B|44:145,1,340,2|0,0:0|0:0,0:0:0:0:
323,309,65165,2,0,P|397:273|272:111,1,340,2|0,0:0|0:0,0:0:0:0:
137,284,66250,5,6,0:0:0:0:
43,245,66430,1,0,0:0:0:0:
49,163,66611,1,0,0:0:0:0:
145,130,66792,1,0,0:0:0:0:
295,133,66973,1,0,0:0:0:0:
159,133,67153,1,0,0:0:0:0:
423,210,67334,5,6,0:0:0:0:
320,189,67515,1,0,0:0:0:0:
322,86,67696,1,0,0:0:0:0:
419,56,67876,1,0,0:0:0:0:
263,100,68057,1,0,0:0:0:0:
429,97,68238,1,0,0:0:0:0:
171,273,68418,5,6,0:0:0:0:
290,269,68599,1,0,0:0:0:0:
246,167,68780,1,0,0:0:0:0:
137,147,68961,1,0,0:0:0:0:
18,148,69141,1,4,0:0:0:0:
445,152,69503,5,6,0:0:0:0:
303,130,69683,2,0,L|247:128,2,42.5,0|0|2,0:0|0:0|0:0,0:0:0:0:
467,132,70045,1,0,0:0:0:0:
203,135,70225,6,0,L|108:129,2,56.6666666666667,2|0|0,0:0|0:0|0:0,0:0:0:0:
313,150,70587,1,10,0:0:0:0:
228,141,70707,1,0,0:0:0:0:
143,131,70828,1,0,0:0:0:0:
320,101,70948,6,0,L|415:95,2,56.6666666666667,2|0|0,0:0|0:0|0:0,0:0:0:0:
209,106,71310,1,2,0:0:0:0:
304,102,71430,1,0,0:0:0:0:
400,98,71551,1,0,0:0:0:0:
201,102,71671,6,0,L|120:98,2,56.6666666666667,2|0|0,0:0|0:0|0:0,0:0:0:0:
16,145,72033,1,2,0:0:0:0:
11,66,72153,1,0,0:0:0:0:
91,57,72274,1,0,0:0:0:0:
365,183,72394,6,0,P|386:134|363:102,1,85,2|0,0:0|0:0,0:0:0:0:
128,172,72756,2,0,L|44:171,2,56.6666666666667,2|0|0,0:0|0:0|0:0,0:0:0:0:
312,178,73117,5,2,0:0:0:0:
238,175,73237,1,0,0:0:0:0:
164,173,73358,1,0,0:0:0:0:
357,171,73478,2,0,L|441:170,2,56.6666666666667,10|0|0,0:0|0:0|0:0,0:0:0:0:
178,275,73840,5,2,0:0:0:0:
285,278,73960,1,0,0:0:0:0:
181,306,74080,1,0,0:0:0:0:
63,265,74201,2,0,L|131:262,2,56.6666666666667
257,226,74563,5,2,0:0:0:0:
341,228,74683,1,0,0:0:0:0:
259,159,74803,1,0,0:0:0:0:
357,155,74924,1,2,0:0:0:0:
114,139,75105,1,8,0:0:0:0:
384,138,75286,5,2,0:0:0:0:
191,271,75527,1,0,0:0:0:0:
129,262,75647,1,2,0:0:0:0:
188,245,75767,1,0,0:0:0:0:
135,228,75888,1,0,0:0:0:0:
378,169,76009,2,0,P|415:113|375:85,1,113.333333333333,2|0,0:0|0:0,0:0:0:0:
213,90,76370,6,0,L|141:88,2,56.6666666666667,10|0|0,0:0|0:0|0:0,0:0:0:0:
351,208,76731,2,0,L|484:185,1,113.333333333333,2|0,0:0|0:0,0:0:0:0:
354,138,77093,2,0,L|221:161,1,113.333333333333,2|0,0:0|0:0,0:0:0:0:
433,128,77454,6,0,L|376:126,2,56.6666666666667,2|0|0,0:0|0:0|0:0,0:0:0:0:
287,123,77816,1,2,0:0:0:0:
450,122,77996,1,8,0:0:0:0:
134,284,78177,5,2,0:0:0:0:
80,259,78268,1,0,0:0:0:0:
79,199,78358,1,0,0:0:0:0:
126,162,78448,1,0,0:0:0:0:
313,280,78539,5,2,0:0:0:0:
370,261,78629,1,0,0:0:0:0:
404,212,78719,1,0,0:0:0:0:
359,173,78810,1,0,0:0:0:0:
183,155,78900,5,2,0:0:0:0:
178,77,79020,1,0,0:0:0:0:
258,68,79141,1,0,0:0:0:0:
77,68,79263,2,0,L|20:70,2,56.6666666666667,10|0|0,0:0|0:0|0:0,0:0:0:0:
288,152,79623,6,0,L|404:149,2,85,2|0|10,0:0|0:0|0:0,0:0:0:0:
136,152,80165,2,0,L|51:149,1,85,0|2,0:0|0:0,0:0:0:0:
288,152,80527,2,0,L|373:155,1,85,0|10,0:0|0:0,0:0:0:0:
120,144,80888,1,0,0:0:0:0:
364,93,81069,6,0,L|520:89,1,127.5,6|0,0:0|0:0,0:0:0:0:
432,55,81430,2,0,L|336:54,1,85,2|0,0:0|0:0,0:0:0:0:
33,38,81792,2,0,L|117:38,1,85,2|0,0:0|0:0,0:0:0:0:
364,48,82153,1,10,0:0:0:0:
219,40,82334,1,0,0:0:0:0:
476,82,82515,6,0,L|320:78,1,127.5,2|0,0:0|0:0,0:0:0:0:
408,44,82876,2,0,L|504:43,1,85,2|0,0:0|0:0,0:0:0:0:
217,50,83237,2,0,L|338:50,2,85,2|0|2,0:0|0:0|0:0,0:0:0:0:
479,55,83780,1,8,0:0:0:0:
216,85,83960,6,0,L|54:84,1,127.5,6|0,0:0|0:0,0:0:0:0:
148,47,84322,2,0,L|248:48,1,85,2|0,0:0|0:0,0:0:0:0:
494,54,84683,2,0,L|373:54,2,85,2|0|10,0:0|0:0|0:0,0:0:0:0:
345,57,85225,1,0,0:0:0:0:
86,64,85406,6,0,L|204:64,1,85,2|0,0:0|0:0,0:0:0:0:
448,64,85768,2,0,L|330:64,1,85,2|0,0:0|0:0,0:0:0:0:
105,69,86129,2,0,L|-13:69,1,85,2|0,0:0|0:0,0:0:0:0:
166,80,86490,1,2,0:0:0:0:
38,85,86671,1,8,0:0:0:0:
294,164,86852,6,0,P|354:122|313:84,1,127.5,2|0,0:0|0:0,0:0:0:0:
161,84,87213,2,0,L|72:86,1,85,2|0,0:0|0:0,0:0:0:0:
334,48,87575,2,0,L|236:51,1,85,2|0,0:0|0:0,0:0:0:0:
506,52,87936,2,0,L|408:55,1,85,10|0,0:0|0:0,0:0:0:0:
266,89,88298,5,2,0:0:0:0:
414,90,88478,2,0,L|445:47,1,42.5,0|0,0:0|0:0,0:0:0:0:
294,82,88659,2,0,L|209:85,1,85,2|0,0:0|0:0,0:0:0:0:
480,42,89021,2,0,L|395:45,1,85,0|0,0:0|0:0,0:0:0:0:
126,51,89382,2,0,L|41:54,1,85,2|0,0:0|0:0,0:0:0:0:
89,21,89653,1,0,0:0:0:0:
254,88,89743,6,0,P|279:53|235:25,1,85,2|0,0:0|0:0,0:0:0:0:
101,88,90015,2,0,P|75:57|98:24,1,85,0|0,0:0|0:0,0:0:0:0:
309,89,90286,2,0,L|224:89,2,85,0|2|0,0:0|0:0|0:0,0:0:0:0:
145,93,90828,2,0,L|36:85,1,85,10|0,0:0|0:0,0:0:0:0:
331,173,91189,5,2,0:0:0:0:
186,174,91370,1,0,0:0:0:0:
442,176,91551,1,10,0:0:0:0:
481,87,91731,1,0,0:0:0:0:
203,173,91912,5,2,0:0:0:0:
348,174,92093,1,8,0:0:0:0:
92,176,92274,1,10,0:0:0:0:
53,87,92454,1,0,0:0:0:0:
339,191,92635,6,0,L|441:139,2,85,6|0|0,0:0|0:0|0:0,0:0:0:0:
176,264,93177,1,0,0:0:0:0:
256,247,93357,1,0,0:0:0:0:
292,174,93538,1,0,0:0:0:0:
256,100,93719,1,0,0:0:0:0:
176,83,93899,1,0,0:0:0:0:
441,89,94081,5,0,0:0:0:0:
278,100,94262,2,0,L|176:48,2,85,0|0|0,0:0|0:0|0:0,0:0:0:0:
422,109,94804,1,0,0:0:0:0:
178,233,94984,2,0,P|126:178|200:128,1,170,0|0,0:0|0:0,0:0:0:0:
255,125,95436,1,0,0:0:0:0:
412,122,95527,6,0,L|511:119,1,85,6|0,0:0|0:0,0:0:0:0:
336,233,95887,1,0,0:0:0:0:
236,183,96068,1,0,0:0:0:0:
327,159,96249,1,0,0:0:0:0:
238,133,96429,1,0,0:0:0:0:
145,123,96611,2,0,L|149:4,1,85,0|0,0:0|0:0,0:0:0:0:
303,39,96972,1,0,0:0:0:0:
152,109,97153,5,0,0:0:0:0:
288,104,97334,1,0,0:0:0:0:
121,102,97515,1,0,0:0:0:0:
257,97,97696,1,0,0:0:0:0:
415,91,97876,2,0,L|299:96,2,85,0|6|0,0:0|0:0|0:0,0:0:0:0:
139,100,98418,6,0,L|329:91,1,170,6|2,0:0|0:0,0:0:0:0:
181,92,98960,1,0,0:0:0:0:
309,91,99141,2,0,L|424:83,1,85,2|0,0:0|0:0,0:0:0:0:
232,90,99502,2,0,L|117:82,1,85,2|0,0:0|0:0,0:0:0:0:
208,51,99774,1,0,0:0:0:0:
360,172,99864,6,0,L|478:176,2,85,6|0|2,0:0|0:0|0:0,0:0:0:0:
234,182,100406,1,0,0:0:0:0:
371,190,100587,1,2,0:0:0:0:
208,179,100768,2,0,L|99:171,1,85,0|2,0:0|0:0,0:0:0:0:
288,186,101129,2,0,L|305:135,1,42.5,0|0,0:0|0:0,0:0:0:0:
131,190,101310,6,0,L|28:197,1,85,6|0,0:0|0:0,0:0:0:0:
217,262,101671,1,2,0:0:0:0:
297,245,101851,1,0,0:0:0:0:
333,172,102032,1,2,0:0:0:0:
297,98,102213,1,0,0:0:0:0:
217,81,102393,1,2,0:0:0:0:
383,91,102575,2,0,L|400:40,1,42.5,0|0,0:0|0:0,0:0:0:0:
188,111,102756,5,6,0:0:0:0:
302,114,102936,1,0,0:0:0:0:
158,113,103117,1,2,0:0:0:0:
298,114,103297,1,0,0:0:0:0:
128,112,103478,1,2,0:0:0:0:
268,113,103658,1,0,0:0:0:0:
505,116,103840,1,2,0:0:0:0:
377,110,104021,1,0,0:0:0:0:
123,105,104201,6,0,L|27:108,2,85,2|0|0,0:0|0:0|0:0,0:0:0:0:
285,101,104743,1,0,0:0:0:0:
118,102,104924,2,0,L|202:99,2,85,2|0|0,0:0|0:0|0:0,0:0:0:0:
280,105,105466,1,0,0:0:0:0:
421,107,105647,6,0,L|508:57,2,85,2|0|0,0:0|0:0|0:0,0:0:0:0:
259,114,106189,1,0,0:0:0:0:
424,133,106370,2,0,L|351:175,2,85,2|0|0,0:0|0:0|0:0,0:0:0:0:
266,173,106912,2,0,L|252:120,1,42.5,0|0,0:0|0:0,0:0:0:0:
400,90,107093,6,0,L|473:132,2,85,2|0|0,0:0|0:0|0:0,0:0:0:0:
272,83,107635,1,0,0:0:0:0:
118,104,107816,2,0,L|191:146,2,85,2|0|0,0:0|0:0|0:0,0:0:0:0:
267,87,108358,1,0,0:0:0:0:
144,86,108539,6,0,L|44:83,1,85,2|0,0:0|0:0,0:0:0:0:
315,97,108900,2,0,L|415:94,1,85,2|0,0:0|0:0,0:0:0:0:
338,50,109171,1,0,0:0:0:0:
192,165,109262,1,2,0:0:0:0:
146,127,109352,1,0,0:0:0:0:
147,67,109442,1,0,0:0:0:0:
195,32,109533,1,0,0:0:0:0:
378,35,109623,2,0,L|445:35,1,42.5,2|0,0:0|0:0,0:0:0:0:
244,35,109804,2,0,L|201:35,1,42.5,2|0,0:0|0:0,0:0:0:0:
364,303,109984,6,0,P|465:198|245:212,1,510,2|0,0:0|0:0,0:0:0:0:
388,189,111249,2,0,L|454:184,1,42.5,2|0,0:0|0:0,0:0:0:0:
264,191,111430,6,0,B|30:190|30:190|331:191,1,510,2|0,0:0|0:0,0:0:0:0:
84,339,112876,2,0,B|61:133|61:133|248:250|283:7,1,510,2|0,0:0|0:0,0:0:0:0:
141,50,114141,2,0,L|87:54,1,42.5,2|0,0:0|0:0,0:0:0:0:
259,305,114322,2,0,B|379:209|183:102|183:102|99:60|10:227|141:353,1,595,2|0,0:0|0:0,0:0:0:0:
386,321,115768,6,0,P|440:257|358:196,1,170,2|0,0:0|0:0,0:0:0:0:
243,194,116310,1,0,0:0:0:0:
379,195,116490,1,2,0:0:0:0:
226,191,116671,1,0,0:0:0:0:
226,191,116762,1,0,0:0:0:0:
289,187,116852,2,0,L|389:188,1,85,0|0,0:0|0:0,0:0:0:0:
314,136,117123,1,0,0:0:0:0:
159,191,117213,6,0,P|100:135|171:73,1,170,2|0,0:0|0:0,0:0:0:0:
298,69,117756,1,0,0:0:0:0:
35,62,117936,2,0,L|237:66,1,170,2|0,0:0|0:0,0:0:0:0:
369,69,118478,2,0,L|451:69,1,42.5,2|0,0:0|0:0,0:0:0:0:
164,72,118659,1,2,0:0:0:0:
256,192,118840,12,0,120916,0:0:0:0:
