osu file format v14

[General]
AudioFilename: audio.mp3
AudioLeadIn: 0
PreviewTime: 69475
Countdown: 0
SampleSet: Normal
StackLeniency: 0.7
Mode: 2
LetterboxInBreaks: 0
WidescreenStoryboard: 0

[Editor]
DistanceSpacing: 1.5
BeatDivisor: 4
GridSize: 4
TimelineZoom: 4.699997

[Metadata]
Title:Vulnerability
TitleUnicode:Vulnerability
Artist:Mili
ArtistUnicode:Mili
Creator:Benita
Version:Frail
Source:
Tags:miracle milk violin Benny- BennyBananas Myle Piku P_i_k_u JeirYagtama
BeatmapID:1494074
BeatmapSetID:706599

[Difficulty]
HPDrainRate:7
CircleSize:4.4
OverallDifficulty:9.4
ApproachRate:9.4
SliderMultiplier:1.8
SliderTickRate:2

[Events]
//Background and Video events
0,0,"BETTERBGBENNY.jpg",0,0
//Break Periods
//Storyboard Layer 0 (Background)
//Storyboard Layer 1 (Fail)
//Storyboard Layer 2 (Pass)
//Storyboard Layer 3 (Foreground)
//Storyboard Sound Samples

[TimingPoints]
1190,361.44578313253,3,2,1,65,1,0
9864,-100,3,1,1,85,0,0
10045,-100,3,2,1,85,0,0
14021,-100,3,1,1,85,0,0
30557,-100,3,1,1,40,0,0
30828,-100,3,1,1,65,0,0
30918,-100,3,1,1,40,0,0
31189,-100,3,1,1,65,0,0
31280,-100,3,1,1,40,0,0
31551,-100,3,1,1,55,0,0
57575,-100,3,2,1,65,0,0
66250,-100,3,1,1,75,0,0
69503,361.44578313253,4,1,1,65,1,1
92635,-100,4,2,1,85,0,0
95527,-100,4,1,1,85,0,0
95707,-100,4,2,1,85,0,0
98057,-100,4,1,1,85,0,0
104201,-100,4,2,1,30,0,0
119924,392.156862745098,4,2,1,30,1,0
120132,392.156862745098,4,2,1,30,1,0
120916,-100,4,2,1,20,0,0

[Colours]
Combo1 : 79,109,232
Combo2 : 145,219,255
Combo3 : 200,200,200
Combo4 : 183,183,255

[HitObjects]
468,328,1190,5,2,0:0:0:0:
227,265,1551,2,0,L|325:260,1,90,0|0,0:0|0:0,0:0:0:0:
71,211,1912,1,2,0:0:0:0:
396,264,2274,1,2,0:0:0:0:
482,217,2454,1,0,0:0:0:0:
479,121,2635,1,0,0:0:0:0:
410,60,2816,1,0,0:0:0:0:
247,100,2996,1,2,0:0:0:0:
456,180,3358,5,2,0:0:0:0:
325,253,3539,1,0,0:0:0:0:
458,260,3720,2,0,L|472:359,1,90,0|0,0:0|0:0,0:0:0:0:
315,352,4081,1,0,0:0:0:0:
424,221,4443,2,0,L|228:257,1,180,2|2,0:0|0:0,0:0:0:0:
195,307,4985,1,0,0:0:0:0:
353,347,5165,1,2,0:0:0:0:
219,251,5527,6,0,L|204:359,1,90,2|0,0:0|0:0,0:0:0:0:
126,199,5888,1,0,0:0:0:0:
298,179,6069,1,0,0:0:0:0:
45,143,6250,1,2,0:0:0:0:
328,92,6611,1,2,0:0:0:0:
400,144,6791,1,0,0:0:0:0:
426,229,6972,1,0,0:0:0:0:
396,312,7153,1,0,0:0:0:0:
219,319,7333,1,2,0:0:0:0:
320,145,7696,5,2,0:0:0:0:
189,218,7877,1,0,0:0:0:0:
322,225,8058,2,0,L|336:324,1,90,0|0,0:0|0:0,0:0:0:0:
188,318,8418,2,0,L|290:318,1,90,0|0,0:0|0:0,0:0:0:0:
82,174,8780,2,0,L|262:174,1,180,2|0,0:0|0:0,0:0:0:0:
32,169,9503,1,0,0:0:0:0:
488,112,9864,6,0,L|497:210,1,90,6|0,0:0|0:0,0:0:0:0:
329,222,10226,2,0,L|323:320,1,90,0|0,0:0|0:0,0:0:0:0:
488,307,10587,2,0,L|380:325,1,90,0|0,0:0|0:0,0:0:0:0:
108,318,10949,2,0,L|97:202,1,90,2|0,0:0|0:0,0:0:0:0:
365,235,11310,2,0,L|485:256,1,90,2|0,0:0|0:0,0:0:0:0:
292,326,11671,2,0,L|173:309,1,90,0|0,0:0|0:0,0:0:0:0:
179,294,11943,1,2,0:0:0:0:
391,281,12033,6,0,L|441:202,1,90,2|0,0:0|0:0,0:0:0:0:
290,162,12394,2,0,L|391:161,1,90,0|0,0:0|0:0,0:0:0:0:
112,112,12756,2,0,L|-3:116,1,90,0|0,0:0|0:0,0:0:0:0:
408,184,13117,2,0,L|433:292,1,90,2|0,0:0|0:0,0:0:0:0:
148,289,13479,2,0,L|46:290,2,90,2|0|0,0:0|0:0|0:0,0:0:0:0:
496,280,14021,1,2,0:0:0:0:
96,280,14202,6,0,L|30:203,2,90,6|0|0,0:0|0:0|0:0,0:0:0:0:
204,324,14744,1,0,0:0:0:0:
463,320,14924,2,0,L|490:230,1,90,2|0,0:0|0:0,0:0:0:0:
143,157,15286,2,0,P|99:225|163:296,1,180,2|0,0:0|0:0,0:0:0:0:
256,295,15828,1,0,0:0:0:0:
359,280,16009,1,0,0:0:0:0:
429,212,16189,2,0,L|443:148,1,45,0|0,0:0|0:0,0:0:0:0:
181,166,16370,6,0,L|12:279,1,180,2|0,0:0|0:0,0:0:0:0:
120,309,16912,1,0,0:0:0:0:
298,274,17093,2,0,L|332:385,1,90,0|0,0:0|0:0,0:0:0:0:
40,304,17455,2,0,L|21:192,1,90,2|0,0:0|0:0,0:0:0:0:
260,208,17816,2,0,L|366:208,1,90,0|0,0:0|0:0,0:0:0:0:
48,200,18177,2,0,L|32:101,1,90,2|0,0:0|0:0,0:0:0:0:
345,192,18539,6,0,L|165:135,1,180,6|0,0:0|0:0,0:0:0:0:
90,111,19081,1,0,0:0:0:0:
385,144,19262,2,0,L|477:105,1,90,2|0,0:0|0:0,0:0:0:0:
179,146,19623,2,0,P|122:200|188:264,1,180,2|0,0:0|0:0,0:0:0:0:
288,264,20165,1,0,0:0:0:0:
46,265,20346,2,0,L|11:377,1,90,2|0,0:0|0:0,0:0:0:0:
283,343,20708,6,0,P|336:303|266:227,1,180,2|0,0:0|0:0,0:0:0:0:
183,224,21250,1,0,0:0:0:0:
453,232,21430,2,0,L|474:135,1,90,0|0,0:0|0:0,0:0:0:0:
137,186,21792,2,0,L|326:159,1,180,2|0,0:0|0:0,0:0:0:0:
402,147,22334,1,0,0:0:0:0:
101,178,22515,2,0,L|83:281,1,90,0|0,0:0|0:0,0:0:0:0:
468,348,22876,6,0,P|488:304|418:219,1,135,2|0,0:0|0:0,0:0:0:0:
231,223,23238,2,0,L|123:221,1,90,2|0,0:0|0:0,0:0:0:0:
408,168,23599,2,0,L|487:82,1,90,2|0,0:0|0:0,0:0:0:0:
88,188,23961,2,0,P|52:228|92:310,1,135,2|0,0:0|0:0,0:0:0:0:
264,304,24322,2,0,L|373:294,1,90,2|0,0:0|0:0,0:0:0:0:
72,256,24683,2,0,L|40:167,1,90,2|0,0:0|0:0,0:0:0:0:
406,181,25045,5,2,0:0:0:0:
277,119,25226,1,0,0:0:0:0:
316,117,25316,1,0,0:0:0:0:
356,116,25406,1,0,0:0:0:0:
202,46,25587,1,0,0:0:0:0:
443,105,25768,2,0,L|470:207,1,90,2|0,0:0|0:0,0:0:0:0:
100,270,26129,2,0,P|63:235|140:151,1,180,2|0,0:0|0:0,0:0:0:0:
223,144,26671,1,0,0:0:0:0:
381,186,26852,2,0,L|401:282,1,90,2|0,0:0|0:0,0:0:0:0:
147,275,27214,6,0,L|353:282,1,180,2|0,0:0|0:0,0:0:0:0:
80,252,27936,2,0,L|57:162,1,90,0|0,0:0|0:0,0:0:0:0:
304,142,28298,2,0,P|320:232|248:296,1,180,2|0,0:0|0:0,0:0:0:0:
164,300,28840,1,0,0:0:0:0:
16,280,29021,1,0,0:0:0:0:
480,232,29382,6,0,L|288:228,1,180,2|0,0:0|0:0,0:0:0:0:
480,232,30105,1,0,0:0:0:0:
36,228,30467,2,0,L|31:166,1,45,2|0,0:0|0:0,0:0:0:0:
288,213,30828,2,0,L|298:161,1,45,0|0,0:0|0:0,0:0:0:0:
22,161,31189,2,0,L|22:111,1,45,0|0,0:0|0:0,0:0:0:0:
83,80,31370,1,0,0:0:0:0:
412,120,31551,6,0,P|472:172|416:248,1,180,2|0,0:0|0:0,0:0:0:0:
336,264,32093,1,0,0:0:0:0:
196,268,32274,2,0,L|300:220,1,90,0|0,0:0|0:0,0:0:0:0:
40,200,32635,1,2,0:0:0:0:
368,216,32997,2,0,L|278:206,2,90,0|0|0,0:0|0:0|0:0,0:0:0:0:
484,280,33539,1,0,0:0:0:0:
200,304,33720,6,0,L|-4:256,1,180,2|0,0:0|0:0,0:0:0:0:
104,224,34262,1,0,0:0:0:0:
272,200,34443,2,0,L|160:188,1,90,0|0,0:0|0:0,0:0:0:0:
344,152,34804,2,0,P|400:216|348:284,1,180,2|0,0:0|0:0,0:0:0:0:
216,228,35346,1,0,0:0:0:0:
368,282,35527,2,0,L|390:381,1,90,0|0,0:0|0:0,0:0:0:0:
116,322,35888,6,0,L|312:292,1,180,2|0,0:0|0:0,0:0:0:0:
384,284,36430,1,0,0:0:0:0:
226,215,36611,2,0,L|212:120,1,90,0|0,0:0|0:0,0:0:0:0:
384,160,36973,2,0,P|432:221|357:288,1,180,2|0,0:0|0:0,0:0:0:0:
192,288,37696,1,0,0:0:0:0:
375,257,38057,5,2,0:0:0:0:
438,212,38237,1,0,0:0:0:0:
438,135,38418,1,0,0:0:0:0:
375,92,38599,1,0,0:0:0:0:
213,138,38780,1,0,0:0:0:0:
375,92,38961,1,0,0:0:0:0:
213,138,39141,6,0,L|192:244,1,90,2|0,0:0|0:0,0:0:0:0:
355,230,39503,2,0,L|448:256,1,90,0|0,0:0|0:0,0:0:0:0:
144,284,39864,2,0,L|40:296,1,90,0|0,0:0|0:0,0:0:0:0:
364,291,40226,5,6,0:0:0:0:
409,272,40316,1,0,0:0:0:0:
427,235,40406,1,0,0:0:0:0:
405,199,40497,1,0,0:0:0:0:
244,188,40587,1,2,0:0:0:0:
199,168,40677,1,0,0:0:0:0:
182,131,40767,1,0,0:0:0:0:
203,95,40858,1,0,0:0:0:0:
376,96,40949,2,0,L|405:157,1,45,2|0,0:0|0:0,0:0:0:0:
224,192,41129,2,0,L|155:211,1,45,2|0,0:0|0:0,0:0:0:0:
440,224,41310,6,0,L|484:338,1,90,2|0,0:0|0:0,0:0:0:0:
176,304,41671,2,0,L|77:296,1,90,6|0,0:0|0:0,0:0:0:0:
428,223,42033,1,0,0:0:0:0:
100,191,42214,1,2,0:0:0:0:
428,223,42394,6,0,L|476:140,1,90,6|0,0:0|0:0,0:0:0:0:
140,144,42756,2,0,L|36:146,2,90,2|0|2,0:0|0:0|0:0,0:0:0:0:
486,98,43298,1,2,0:0:0:0:
132,120,43479,2,0,L|116:232,1,90,2|0,0:0|0:0,0:0:0:0:
372,212,43840,2,0,L|478:205,1,90,14|0,0:0|0:0,0:0:0:0:
144,192,44202,2,0,L|42:197,1,90,14|0,0:0|0:0,0:0:0:0:
390,313,44563,5,6,0:0:0:0:
419,285,44653,1,0,0:0:0:0:
431,247,44743,1,0,0:0:0:0:
425,208,44834,1,0,0:0:0:0:
401,176,44924,1,2,0:0:0:0:
366,158,45014,1,0,0:0:0:0:
151,165,45105,2,0,L|96:136,1,45,0|0,0:0|0:0,0:0:0:0:
303,110,45286,2,0,L|360:88,1,45,2|0,0:0|0:0,0:0:0:0:
164,76,45466,2,0,L|119:63,1,45,2|0,0:0|0:0,0:0:0:0:
414,46,45647,6,0,L|480:140,1,90,2|0,0:0|0:0,0:0:0:0:
196,148,46009,1,2,0:0:0:0:
356,224,46189,1,0,0:0:0:0:
196,280,46370,1,2,0:0:0:0:
472,232,46551,1,2,0:0:0:0:
128,246,46732,2,0,L|124:136,1,90,6|0,0:0|0:0,0:0:0:0:
384,188,47093,2,0,L|290:162,2,90,2|0|2,0:0|0:0|0:0,0:0:0:0:
212,216,47635,1,2,0:0:0:0:
488,256,47816,6,0,L|488:352,1,90,2|0,0:0|0:0,0:0:0:0:
41,236,48177,2,0,L|132:256,1,90,14|0,0:0|0:0,0:0:0:0:
488,244,48539,2,0,L|389:254,1,90,14|0,0:0|0:0,0:0:0:0:
148,291,48900,5,6,0:0:0:0:
103,272,48990,1,0,0:0:0:0:
85,235,49080,1,0,0:0:0:0:
107,199,49171,1,0,0:0:0:0:
268,188,49262,1,2,0:0:0:0:
313,168,49352,1,0,0:0:0:0:
330,131,49443,1,0,0:0:0:0:
309,95,49533,1,0,0:0:0:0:
136,96,49623,2,0,L|107:157,1,45,2|0,0:0|0:0,0:0:0:0:
288,192,49804,2,0,L|357:211,1,45,2|0,0:0|0:0,0:0:0:0:
72,224,49984,6,0,L|28:338,1,90,2|0,0:0|0:0,0:0:0:0:
336,304,50346,2,0,L|435:296,1,90,2|0,0:0|0:0,0:0:0:0:
84,223,50707,1,2,0:0:0:0:
412,191,50888,1,2,0:0:0:0:
84,223,51069,6,0,L|36:140,1,90,6|0,0:0|0:0,0:0:0:0:
372,144,51430,2,0,L|476:146,2,90,2|0|2,0:0|0:0|0:0,0:0:0:0:
26,98,51972,1,2,0:0:0:0:
380,120,52153,2,0,L|500:128,1,90,2|0,0:0|0:0,0:0:0:0:
140,212,52515,2,0,L|34:205,1,90,14|0,0:0|0:0,0:0:0:0:
368,192,52876,2,0,L|470:197,1,90,14|0,0:0|0:0,0:0:0:0:
122,313,53237,5,6,0:0:0:0:
93,285,53327,1,0,0:0:0:0:
81,247,53417,1,0,0:0:0:0:
87,208,53508,1,0,0:0:0:0:
111,176,53598,1,2,0:0:0:0:
146,158,53688,1,0,0:0:0:0:
361,165,53779,2,0,L|416:136,1,45,0|0,0:0|0:0,0:0:0:0:
209,110,53960,2,0,L|152:88,1,45,2|0,0:0|0:0,0:0:0:0:
348,76,54141,2,0,L|393:63,1,45,2|0,0:0|0:0,0:0:0:0:
98,46,54322,6,0,L|32:140,1,90,2|0,0:0|0:0,0:0:0:0:
316,148,54683,1,2,0:0:0:0:
156,224,54863,1,0,0:0:0:0:
316,280,55044,1,2,0:0:0:0:
40,232,55225,1,10,0:0:0:0:
384,246,55406,2,0,L|388:136,1,90,6|0,0:0|0:0,0:0:0:0:
128,188,55767,2,0,L|222:162,2,90,2|0|2,0:0|0:0|0:0,0:0:0:0:
300,216,56309,1,2,0:0:0:0:
24,256,56490,6,0,L|24:352,1,90,2|0,0:0|0:0,0:0:0:0:
471,236,56852,2,0,L|380:256,1,90,14|0,0:0|0:0,0:0:0:0:
24,244,57213,2,0,L|123:254,1,90,14|0,0:0|0:0,0:0:0:0:
399,354,57575,5,2,0:0:0:0:
459,304,57755,1,0,0:0:0:0:
460,227,57936,1,0,0:0:0:0:
400,178,58117,1,0,0:0:0:0:
249,156,58298,1,0,0:0:0:0:
400,178,58479,1,0,0:0:0:0:
249,156,58659,6,0,L|192:240,1,90,2|0,0:0|0:0,0:0:0:0:
349,264,59021,2,0,L|372:352,1,90,0|0,0:0|0:0,0:0:0:0:
248,352,59382,2,0,L|236:248,1,90,0|0,0:0|0:0,0:0:0:0:
75,320,59744,5,2,0:0:0:0:
16,270,59924,1,0,0:0:0:0:
15,193,60105,1,0,0:0:0:0:
75,144,60286,1,0,0:0:0:0:
225,122,60467,1,0,0:0:0:0:
75,144,60648,1,0,0:0:0:0:
225,122,60828,6,0,L|284:208,1,90,2|0,0:0|0:0,0:0:0:0:
130,230,61190,2,0,L|73:302,1,90,0|0,0:0|0:0,0:0:0:0:
198,313,61551,2,0,L|170:218,1,90,0|0,0:0|0:0,0:0:0:0:
452,276,61912,6,0,L|376:336,1,90,2|0,0:0|0:0,0:0:0:0:
243,330,62274,2,0,L|344:340,1,90,0|0,0:0|0:0,0:0:0:0:
201,318,62635,2,0,L|172:232,1,90,0|0,0:0|0:0,0:0:0:0:
416,240,62997,6,0,P|464:212|400:108,1,180,2|0,0:0|0:0,0:0:0:0:
344,108,63539,1,0,0:0:0:0:
232,180,63720,2,0,L|260:268,1,90,0|0,0:0|0:0,0:0:0:0:
98,278,64081,6,0,P|128:336|264:324,1,180,2|0,0:0|0:0,0:0:0:0:
352,336,64623,1,0,0:0:0:0:
182,347,64804,2,0,L|148:260,1,90,0|0,0:0|0:0,0:0:0:0:
316,261,65165,6,0,P|368:240|392:120,1,180,2|0,0:0|0:0,0:0:0:0:
331,113,65707,1,0,0:0:0:0:
56,155,65888,2,0,L|32:260,1,90,0|0,0:0|0:0,0:0:0:0:
384,288,66250,5,6,0:0:0:0:
456,256,66430,1,0,0:0:0:0:
480,184,66611,1,0,0:0:0:0:
436,112,66792,1,0,0:0:0:0:
272,116,66973,2,0,L|236:216,1,90,0|0,0:0|0:0,0:0:0:0:
488,212,67334,5,6,0:0:0:0:
408,168,67515,1,0,0:0:0:0:
316,124,67696,1,0,0:0:0:0:
224,88,67876,1,0,0:0:0:0:
392,84,68057,2,0,L|428:188,1,90,0|0,0:0|0:0,0:0:0:0:
128,160,68418,5,6,0:0:0:0:
52,196,68599,1,0,0:0:0:0:
40,284,68780,1,0,0:0:0:0:
108,324,68961,1,0,0:0:0:0:
388,324,69141,2,0,L|464:256,1,90,4|0,0:0|0:0,0:0:0:0:
136,248,69503,6,0,L|88:152,1,90,6|0,0:0|0:0,0:0:0:0:
148,132,69774,1,0,0:0:0:0:
328,108,69864,2,0,L|452:104,1,90,2|0,0:0|0:0,0:0:0:0:
240,172,70225,2,0,L|168:188,2,60,2|0|0,0:0|0:0|0:0,0:0:0:0:
448,160,70587,2,0,L|464:76,1,60,10|0,0:0|0:0,0:0:0:0:
368,84,70828,1,0,0:0:0:0:
148,108,70948,6,0,L|252:108,2,60,2|0|0,0:0|0:0|0:0,0:0:0:0:
376,216,71310,1,2,0:0:0:0:
156,216,71430,2,0,L|80:152,1,60,0|0,0:0|0:0,0:0:0:0:
324,160,71671,2,0,L|396:156,2,60,2|0|0,0:0|0:0|0:0,0:0:0:0:
36,224,72033,2,0,L|116:240,2,60,2|0|0,0:0|0:0|0:0,0:0:0:0:
360,252,72394,5,2,0:0:0:0:
404,192,72515,1,0,0:0:0:0:
372,128,72635,1,0,0:0:0:0:
176,112,72756,1,2,0:0:0:0:
88,144,72876,1,0,0:0:0:0:
72,212,72996,1,0,0:0:0:0:
348,272,73117,1,2,0:0:0:0:
332,184,73237,1,0,0:0:0:0:
240,160,73358,1,0,0:0:0:0:
472,184,73478,2,0,P|484:124|432:84,1,120,10|0,0:0|0:0,0:0:0:0:
212,96,73840,6,0,L|144:88,2,60,2|0|0,0:0|0:0|0:0,0:0:0:0:
420,192,74201,2,0,L|336:205,2,60,2|0|0,0:0|0:0|0:0,0:0:0:0:
88,272,74563,2,0,L|72:200,1,60,2|0,0:0|0:0,0:0:0:0:
168,192,74804,1,0,0:0:0:0:
380,192,74924,1,2,0:0:0:0:
120,136,75105,1,8,0:0:0:0:
440,140,75286,6,0,P|416:70|365:49,1,120,2|0,0:0|0:0,0:0:0:0:
142,49,75647,1,2,0:0:0:0:
365,173,75768,1,0,0:0:0:0:
177,265,75888,1,0,0:0:0:0:
356,272,76009,2,0,P|392:216|360:184,1,120,2|0,0:0|0:0,0:0:0:0:
152,288,76370,2,0,L|160:224,1,60,10|0,0:0|0:0,0:0:0:0:
272,208,76611,1,0,0:0:0:0:
40,232,76731,6,0,L|8:128,1,90,2|0,0:0|0:0,0:0:0:0:
260,104,77093,2,0,L|344:96,1,60,2|0,0:0|0:0,0:0:0:0:
139,95,77334,1,0,0:0:0:0:
324,181,77454,1,2,0:0:0:0:
95,196,77575,1,0,0:0:0:0:
274,250,77695,1,0,0:0:0:0:
176,304,77816,1,2,0:0:0:0:
428,344,77996,1,8,0:0:0:0:
128,328,78177,6,0,L|60:320,2,60,2|0|0,0:0|0:0|0:0,0:0:0:0:
328,248,78539,2,0,L|316:172,1,60,2|0,0:0|0:0,0:0:0:0:
232,176,78780,1,0,0:0:0:0:
476,192,78900,2,0,L|484:116,1,60,2|0,0:0|0:0,0:0:0:0:
396,120,79141,1,0,0:0:0:0:
192,156,79262,2,0,L|120:172,2,60,10|0|0,0:0|0:0|0:0,0:0:0:0:
440,184,79623,6,0,L|464:296,1,90,2|0,0:0|0:0,0:0:0:0:
200,268,79984,1,10,0:0:0:0:
155,268,80074,1,0,0:0:0:0:
336,248,80165,2,0,L|428:224,1,90,0|2,0:0|0:0,0:0:0:0:
440,180,80436,1,0,0:0:0:0:
240,160,80527,2,0,L|352:152,2,90,0|10|0,0:0|0:0|0:0,0:0:0:0:
484,164,81069,6,0,L|488:64,1,90,6|0,0:0|0:0,0:0:0:0:
228,80,81430,2,0,L|136:84,1,90,2|0,0:0|0:0,0:0:0:0:
420,184,81792,2,0,L|320:188,1,90,2|0,0:0|0:0,0:0:0:0:
48,200,82153,2,0,L|20:92,1,90,10|0,0:0|0:0,0:0:0:0:
360,108,82515,6,0,L|468:124,1,90,2|0,0:0|0:0,0:0:0:0:
200,196,82876,2,0,L|316:216,1,90,2|0,0:0|0:0,0:0:0:0:
32,220,83237,2,0,L|24:100,1,90,2|0,0:0|0:0,0:0:0:0:
152,120,83599,1,2,0:0:0:0:
424,152,83780,1,8,0:0:0:0:
156,184,83960,6,0,L|40:192,1,90,6|0,0:0|0:0,0:0:0:0:
316,256,84322,2,0,L|408:252,1,90,2|0,0:0|0:0,0:0:0:0:
128,240,84683,2,0,L|112:344,1,90,2|0,0:0|0:0,0:0:0:0:
364,256,85045,2,0,L|480:256,1,90,10|0,0:0|0:0,0:0:0:0:
160,264,85406,6,0,L|156:160,1,90,2|0,0:0|0:0,0:0:0:0:
200,152,85677,1,0,0:0:0:0:
368,220,85768,2,0,L|368:108,1,90,2|0,0:0|0:0,0:0:0:0:
316,116,86039,1,0,0:0:0:0:
124,124,86129,2,0,L|236:116,1,90,2|0,0:0|0:0,0:0:0:0:
288,108,86400,1,0,0:0:0:0:
372,120,86490,1,2,0:0:0:0:
136,204,86671,1,8,0:0:0:0:
444,220,86852,6,0,L|480:124,1,90,2|0,0:0|0:0,0:0:0:0:
228,132,87213,2,0,L|112:132,1,90,2|0,0:0|0:0,0:0:0:0:
432,132,87575,2,0,L|384:32,1,90,2|0,0:0|0:0,0:0:0:0:
200,192,87936,2,0,L|184:236,1,45,10|0,0:0|0:0,0:0:0:0:
276,244,88117,2,0,L|290:286,1,45,0|0,0:0|0:0,0:0:0:0:
72,296,88298,6,0,L|172:296,1,90,2|0,0:0|0:0,0:0:0:0:
220,296,88569,1,0,0:0:0:0:
24,256,88659,2,0,L|12:152,1,90,2|0,0:0|0:0,0:0:0:0:
264,164,89021,2,0,L|376:164,1,90,0|0,0:0|0:0,0:0:0:0:
92,112,89382,1,2,0:0:0:0:
392,136,89563,2,0,L|404:80,1,45,8|0,0:0|0:0,0:0:0:0:
148,264,89743,6,0,L|92:232,2,45,2|0|0,0:0|0:0|0:0,0:0:0:0:
316,276,90015,2,0,L|348:220,1,45,0|2,0:0|0:0,0:0:0:0:
152,264,90195,2,0,L|76:252,2,45,0|0|0,0:0|0:0|0:0,0:0:0:0:
472,272,90466,2,0,L|383:276,1,90,2|0,0:0|0:0,0:0:0:0:
104,224,90828,2,0,L|12:228,1,90,10|0,0:0|0:0,0:0:0:0:
416,216,91189,6,0,L|432:120,1,90,2|0,0:0|0:0,0:0:0:0:
376,112,91460,1,0,0:0:0:0:
224,112,91551,2,0,L|112:128,1,90,10|0,0:0|0:0,0:0:0:0:
312,204,91912,2,0,L|336:256,1,45,2|0,0:0|0:0,0:0:0:0:
240,252,92093,2,0,L|232:296,1,45,8|0,0:0|0:0,0:0:0:0:
392,304,92274,2,0,L|452:312,1,45,10|0,0:0|0:0,0:0:0:0:
176,316,92454,2,0,L|116:320,1,45,0|0,0:0|0:0,0:0:0:0:
480,352,92635,6,0,L|504:256,3,90,6|0|0|0,0:0|0:0|0:0|0:0,0:0:0:0:
340,266,93358,2,0,L|316:170,3,90,0|0|0|0,0:0|0:0|0:0|0:0,0:0:0:0:
155,42,94081,5,0,0:0:0:0:
90,99,94261,1,0,0:0:0:0:
91,186,94442,1,0,0:0:0:0:
159,241,94623,1,0,0:0:0:0:
321,167,94804,1,0,0:0:0:0:
387,224,94984,1,0,0:0:0:0:
386,311,95165,1,0,0:0:0:0:
318,366,95346,1,0,0:0:0:0:
255,374,95436,1,0,0:0:0:0:
32,352,95527,6,0,L|8:256,3,90,6|0|0|0,0:0|0:0|0:0|0:0,0:0:0:0:
172,266,96250,2,0,L|196:170,3,90,0|0|0|0,0:0|0:0|0:0|0:0,0:0:0:0:
357,42,96973,5,0,0:0:0:0:
422,99,97153,1,0,0:0:0:0:
421,186,97334,1,0,0:0:0:0:
353,241,97515,1,0,0:0:0:0:
191,167,97696,1,0,0:0:0:0:
125,224,97876,1,0,0:0:0:0:
424,313,98057,2,0,L|446:216,1,90,6|0,0:0|0:0,0:0:0:0:
125,224,98418,6,0,L|88:124,1,90,6|0,0:0|0:0,0:0:0:0:
257,143,98780,2,0,L|276:45,1,90,2|0,0:0|0:0,0:0:0:0:
112,64,99141,2,0,L|10:54,1,90,2|0,0:0|0:0,0:0:0:0:
186,57,99502,2,0,L|288:65,1,90,2|0,0:0|0:0,0:0:0:0:
340,68,99774,1,0,0:0:0:0:
24,150,99864,6,0,L|51:257,1,90,6|0,0:0|0:0,0:0:0:0:
208,261,100225,2,0,L|115:269,1,90,2|0,0:0|0:0,0:0:0:0:
281,283,100587,2,0,L|193:334,2,90,2|0|2,0:0|0:0|0:0,0:0:0:0:
467,333,101129,2,0,L|479:275,1,45,0|0,0:0|0:0,0:0:0:0:
256,276,101310,6,0,L|139:277,1,90,6|0,0:0|0:0,0:0:0:0:
329,202,101671,2,0,L|348:100,1,90,2|0,0:0|0:0,0:0:0:0:
182,124,102033,2,0,L|82:123,1,90,2|0,0:0|0:0,0:0:0:0:
254,95,102394,2,0,L|282:-2,1,90,2|0,0:0|0:0,0:0:0:0:
225,8,102665,1,0,0:0:0:0:
43,132,102756,6,0,L|25:229,1,90,6|0,0:0|0:0,0:0:0:0:
189,272,103117,2,0,L|298:277,1,90,2|0,0:0|0:0,0:0:0:0:
117,179,103478,2,0,L|135:76,1,90,2|0,0:0|0:0,0:0:0:0:
296,76,103840,1,2,0:0:0:0:
132,88,104021,1,0,0:0:0:0:
390,163,104201,6,0,L|305:223,2,90,2|0|0,0:0|0:0|0:0,0:0:0:0:
219,134,104743,1,0,0:0:0:0:
479,157,104924,2,0,L|493:63,1,90,2|0,0:0|0:0,0:0:0:0:
374,63,105286,1,0,0:0:0:0:
204,152,105466,1,0,0:0:0:0:
479,174,105647,5,2,0:0:0:0:
389,113,105828,1,0,0:0:0:0:
298,57,106009,1,0,0:0:0:0:
468,54,106189,1,0,0:0:0:0:
160,95,106370,1,2,0:0:0:0:
71,133,106551,1,0,0:0:0:0:
39,233,106731,1,0,0:0:0:0:
115,315,106912,2,0,L|171:330,1,45,0|0,0:0|0:0,0:0:0:0:
349,329,107093,6,0,L|439:319,2,90,2|0|0,0:0|0:0|0:0,0:0:0:0:
494,260,107635,1,0,0:0:0:0:
222,238,107816,2,0,L|116:241,2,90,2|0|0,0:0|0:0|0:0,0:0:0:0:
72,182,108358,1,0,0:0:0:0:
375,185,108539,6,0,L|418:282,1,90,2|0,0:0|0:0,0:0:0:0:
128,195,108900,2,0,L|40:260,1,90,2|0,0:0|0:0,0:0:0:0:
90,311,109171,1,0,0:0:0:0:
332,213,109262,1,2,0:0:0:0:
387,200,109352,1,0,0:0:0:0:
398,159,109442,1,0,0:0:0:0:
342,143,109533,1,0,0:0:0:0:
139,147,109623,2,0,L|86:148,1,45,2|0,0:0|0:0,0:0:0:0:
279,89,109804,2,0,L|356:86,1,45,2|0,0:0|0:0,0:0:0:0:
146,66,109984,6,0,L|106:160,3,90,2|0|0|0,0:0|0:0|0:0|0:0,0:0:0:0:
201,240,110707,2,0,L|236:157,2,90,0|0|0,0:0|0:0|0:0,0:0:0:0:
21,269,111249,1,2,0:0:0:0:
435,129,111430,6,0,L|475:223,3,90,2|0|0|0,0:0|0:0|0:0|0:0,0:0:0:0:
380,303,112153,2,0,L|344:220,2,90,0|0|0,0:0|0:0|0:0,0:0:0:0:
473,324,112695,1,0,0:0:0:0:
194,323,112876,5,2,0:0:0:0:
126,267,113056,1,0,0:0:0:0:
122,180,113237,1,0,0:0:0:0:
185,119,113418,1,0,0:0:0:0:
367,316,113599,1,0,0:0:0:0:
446,226,113779,1,0,0:0:0:0:
370,149,113960,1,0,0:0:0:0:
241,143,114141,2,0,L|184:125,1,45,2|0,0:0|0:0,0:0:0:0:
398,109,114322,6,0,P|447:124|421:344,1,315,2|0,0:0|0:0,0:0:0:0:
268,360,115045,2,0,B|139:328|139:328|72:272|168:224,1,270,2|0,0:0|0:0,0:0:0:0:
415,198,115768,6,0,P|442:154|350:72,1,180,2|0,0:0|0:0,0:0:0:0:
199,98,116310,2,0,L|138:118,2,45,0|0|2,0:0|0:0|0:0,0:0:0:0:
343,159,116671,2,0,L|394:180,2,45,0|0|0,0:0|0:0|0:0,0:0:0:0:
186,187,117033,2,0,L|149:233,1,45,0|0,0:0|0:0,0:0:0:0:
359,295,117213,6,0,P|439:283|414:172,1,180,2|0,0:0|0:0,0:0:0:0:
340,154,117756,1,0,0:0:0:0:
40,208,117936,2,0,P|28:104|176:28,1,270,2|2,0:0|0:0,0:0:0:0:
478,167,118659,6,0,P|468:215|60:149,1,630,2|0,0:0|0:0,0:0:0:0:
81,111,120022,1,0,0:0:0:0:
246,97,120132,2,0,P|353:219|237:336,1,360,2|0,0:0|0:0,0:0:0:0:
