osu file format v14

[General]
AudioFilename: audio.mp3
AudioLeadIn: 0
PreviewTime: 69475
Countdown: 0
SampleSet: Soft
StackLeniency: 0.7
Mode: 2
LetterboxInBreaks: 0
WidescreenStoryboard: 0

[Editor]
DistanceSpacing: 1.5
BeatDivisor: 4
GridSize: 4
TimelineZoom: 3.799998

[Metadata]
Title:Vulnerability
TitleUnicode:Vulnerability
Artist:Mili
ArtistUnicode:Mili
Creator:Benita
Version:Platter
Source:
Tags:miracle milk violin Benny- BennyBananas Myle Piku P_i_k_u JeirYagtama
BeatmapID:1494077
BeatmapSetID:706599

[Difficulty]
HPDrainRate:5
CircleSize:3.5
OverallDifficulty:8
ApproachRate:8
SliderMultiplier:1.4
SliderTickRate:2

[Events]
//Background and Video events
0,0,"BETTERBGBENNY.jpg",0,0
//Break Periods
//Storyboard Layer 0 (Background)
//Storyboard Layer 1 (Fail)
//Storyboard Layer 2 (Pass)
//Storyboard Layer 3 (Foreground)
//Storyboard Sound Samples

[TimingPoints]
1190,361.44578313253,3,2,1,65,1,0
9864,-100,4,1,1,30,0,0
10045,-100,4,2,1,30,0,0
14021,-100,4,1,1,30,0,0
27214,-133.333333333333,4,2,1,20,0,0
40226,-100,4,1,1,60,0,0
57575,-100,4,2,1,35,0,0
66250,-100,4,1,1,40,0,0
69503,361.44578313253,4,1,1,65,1,1
92635,-100,4,2,1,70,0,0
95527,-100,4,1,1,70,0,0
96249,-100,4,2,1,70,0,0
98057,-100,4,1,1,40,0,0
104201,-100,4,2,1,30,0,0
119924,392.156862745098,4,2,1,30,1,0
120132,392.156862745098,4,2,1,30,1,0

[Colours]
Combo1 : 79,109,232
Combo2 : 145,219,255
Combo3 : 200,200,200
Combo4 : 183,183,255

[HitObjects]
376,292,1190,5,2,0:0:0:0:
184,172,1551,1,0,0:0:0:0:
240,136,1732,1,0,0:0:0:0:
408,131,1913,1,2,0:0:0:0:
136,136,2274,2,0,P|56:176|160:296,1,280,2|2,0:0|0:0,0:0:0:0:
424,256,3359,5,2,0:0:0:0:
353,257,3540,1,0,0:0:0:0:
285,257,3720,1,0,0:0:0:0:
218,254,3901,1,0,0:0:0:0:
387,90,4082,1,0,0:0:0:0:
80,150,4443,2,0,L|209:203,2,140,2|2|2,0:0|0:0|0:0,0:0:0:0:
414,91,5528,5,2,0:0:0:0:
392,176,5709,1,0,0:0:0:0:
296,208,5889,1,0,0:0:0:0:
384,288,6070,1,0,0:0:0:0:
216,304,6251,1,2,0:0:0:0:
480,312,6611,2,0,P|480:240|304:184,1,280,2|2,0:0|0:0,0:0:0:0:
16,192,7697,5,2,0:0:0:0:
56,112,7877,1,0,0:0:0:0:
152,96,8058,1,0,0:0:0:0:
232,152,8239,1,0,0:0:0:0:
51,206,8419,2,0,L|3:270,1,70
192,270,8780,2,0,L|344:214,2,140,2|0|0,0:0|0:0|0:0,0:0:0:0:
456,264,9864,6,0,L|473:183,1,70,6|0,0:0|0:0,0:0:0:0:
350,189,10226,2,0,L|381:111,1,70
193,114,10587,2,0,L|90:117,1,70
309,178,10950,6,0,L|357:250,1,70,2|0,0:0|0:0,0:0:0:0:
167,246,11311,2,0,L|127:326,1,70,2|0,0:0|0:0,0:0:0:0:
277,314,11671,2,0,L|193:314,1,70,0|2,0:0|0:0,0:0:0:0:
328,282,12033,6,0,L|364:214,1,70,2|0,0:0|0:0,0:0:0:0:
178,212,12394,2,0,L|98:212,1,70
284,174,12756,2,0,L|316:100,1,70
129,145,13117,6,0,L|41:145,1,70,2|0,0:0|0:0,0:0:0:0:
184,112,13479,2,0,L|104:112,2,70,2|0|0,0:0|0:0|0:0,0:0:0:0:
360,112,14021,1,2,0:0:0:0:
184,112,14202,6,0,P|112:136|160:248,1,210,6|0,0:0|0:0,0:0:0:0:
280,248,14924,2,0,L|360:248,1,70,2|0,0:0|0:0,0:0:0:0:
176,216,15286,2,0,P|112:208|200:48,1,350,2|0,0:0|0:0,0:0:0:0:
32,112,16370,6,0,P|16:152|176:264,1,280,2|0,0:0|0:0,0:0:0:0:
352,224,17455,2,0,L|184:192,1,140,2|0,0:0|0:0,0:0:0:0:
464,152,18177,1,10,0:0:0:0:
152,144,18539,6,0,L|40:248,2,140,6|0|2,0:0|0:0|0:0,0:0:0:0:
256,104,19443,1,0,0:0:0:0:
360,96,19623,2,0,P|424:128|344:272,1,280,2|2,0:0|0:0,0:0:0:0:
112,272,20708,6,0,P|48:232|160:128,1,280,2|0,0:0|0:0,0:0:0:0:
352,168,21792,2,0,P|352:112|168:64,1,280,2|0,0:0|0:0,0:0:0:0:
432,192,22876,5,2,0:0:0:0:
123,127,23238,2,0,P|91:159|123:239,1,140,0|2,0:0|0:0,0:0:0:0:
360,224,23961,1,2,0:0:0:0:
52,245,24322,2,0,L|214:239,1,140,0|2,0:0|0:0,0:0:0:0:
429,201,25045,5,2,0:0:0:0:
312,184,25226,1,0,0:0:0:0:
256,176,25316,1,0,0:0:0:0:
212,152,25406,1,0,0:0:0:0:
172,76,25587,1,0,0:0:0:0:
248,28,25768,1,2,0:0:0:0:
336,56,25949,1,0,0:0:0:0:
136,192,26129,2,0,P|80:216|184:336,1,280,2|2,0:0|0:0,0:0:0:0:
256,320,27033,1,0,0:0:0:0:
152,296,27214,6,0,L|29:279,2,105.000004005432,2|0|0,0:0|0:0|0:0,0:0:0:0:
208,296,28117,1,0,0:0:0:0:
272,296,28298,2,0,P|344:272|288:176,1,210.000008010865,2|0,0:0|0:0,0:0:0:0:
136,176,29382,6,0,P|136:136|272:80,1,210.000008010865,2|0,0:0|0:0,0:0:0:0:
464,112,30467,2,0,P|505:184|418:258,1,210.000008010865,2|0,0:0|0:0,0:0:0:0:
197,355,31551,6,0,L|31:194,1,210.000008010865,2|0,0:0|0:0,0:0:0:0:
150,149,32455,1,0,0:0:0:0:
48,107,32635,1,2,0:0:0:0:
248,248,32997,2,0,L|374:247,1,105.000004005432,0|0,0:0|0:0,0:0:0:0:
138,250,33720,6,0,P|82:238|142:133,1,210.000008010865
21,81,34624,1,0,0:0:0:0:
121,129,34804,2,0,L|343:126,1,210.000008010865,2|0,0:0|0:0,0:0:0:0:
160,184,35888,6,0,P|104:152|171:44,1,210.000008010865,2|0,0:0|0:0,0:0:0:0:
258,46,36792,1,0,0:0:0:0:
361,46,36973,2,0,P|401:54|365:174,1,210.000008010865,2|0,0:0|0:0,0:0:0:0:
103,221,38057,6,0,L|329:217,1,210.000008010865,2|0,0:0|0:0,0:0:0:0:
418,207,38961,1,0,0:0:0:0:
312,217,39141,2,0,L|184:215,1,105.000004005432,2|0,0:0|0:0,0:0:0:0:
76,211,39864,1,0,0:0:0:0:
416,216,40226,6,0,L|496:216,1,70,6|0,0:0|0:0,0:0:0:0:
312,248,40587,1,2,0:0:0:0:
240,224,40768,1,0,0:0:0:0:
192,160,40949,1,2,0:0:0:0:
192,80,41129,1,2,0:0:0:0:
336,80,41310,6,0,L|389:142,1,70,2|0,0:0|0:0,0:0:0:0:
256,168,41671,2,0,L|180:168,1,70,6|0,0:0|0:0,0:0:0:0:
368,236,42033,2,0,L|460:236,1,70,0|2,0:0|0:0,0:0:0:0:
184,184,42394,5,6,0:0:0:0:
156,100,42575,1,0,0:0:0:0:
192,20,42756,1,2,0:0:0:0:
288,0,42936,1,0,0:0:0:0:
120,56,43117,2,0,L|48:56,1,70,2|2,0:0|0:0,0:0:0:0:
224,136,43479,5,2,0:0:0:0:
496,184,43840,1,14,0:0:0:0:
192,280,44202,1,14,0:0:0:0:
480,296,44563,5,6,0:0:0:0:
452,208,44743,1,0,0:0:0:0:
380,172,44924,1,2,0:0:0:0:
304,176,45105,1,0,0:0:0:0:
404,236,45286,1,2,0:0:0:0:
208,276,45647,5,2,0:0:0:0:
440,120,46009,2,0,L|468:216,1,70,2|0,0:0|0:0,0:0:0:0:
356,216,46370,1,2,0:0:0:0:
459,187,46551,1,2,0:0:0:0:
160,236,46732,5,6,0:0:0:0:
88,184,46912,1,0,0:0:0:0:
72,100,47093,1,2,0:0:0:0:
120,40,47274,1,0,0:0:0:0:
40,72,47455,1,2,0:0:0:0:
120,40,47635,1,2,0:0:0:0:
280,88,47816,6,0,L|321:157,1,70,2|0,0:0|0:0,0:0:0:0:
168,152,48177,2,0,L|98:152,1,70,14|0,0:0|0:0,0:0:0:0:
288,216,48539,2,0,L|358:216,1,70,14|0,0:0|0:0,0:0:0:0:
98,218,48900,6,0,P|42:210|58:130,1,140,6|2,0:0|0:0,0:0:0:0:
166,139,49443,2,0,L|254:139,2,70,0|2|2,0:0|0:0|0:0,0:0:0:0:
43,139,49985,6,0,P|19:107|91:43,1,140,2|0,0:0|0:0,0:0:0:0:
256,56,50708,1,2,0:0:0:0:
104,136,50888,1,2,0:0:0:0:
352,208,51069,6,0,P|392:152|336:112,1,140,6|2,0:0|0:0,0:0:0:0:
232,112,51611,2,0,L|136:112,2,70,0|2|2,0:0|0:0|0:0,0:0:0:0:
400,120,52153,1,2,0:0:0:0:
144,232,52515,1,14,0:0:0:0:
352,280,52876,1,14,0:0:0:0:
24,296,53238,6,0,P|32:248|176:192,1,210,6|0,0:0|0:0,0:0:0:0:
272,208,53961,1,2,0:0:0:0:
48,144,54322,1,2,0:0:0:0:
280,104,54684,1,2,0:0:0:0:
328,144,54864,1,0,0:0:0:0:
280,176,55045,1,2,0:0:0:0:
176,176,55226,1,10,0:0:0:0:
440,216,55407,5,6,0:0:0:0:
488,152,55587,1,0,0:0:0:0:
464,72,55768,1,2,0:0:0:0:
384,40,55949,1,0,0:0:0:0:
464,72,56130,1,2,0:0:0:0:
384,40,56310,1,2,0:0:0:0:
224,88,56491,6,0,L|176:167,1,70,2|0,0:0|0:0,0:0:0:0:
336,152,56852,2,0,L|406:152,1,70,14|0,0:0|0:0,0:0:0:0:
216,216,57214,2,0,L|146:216,1,70,14|0,0:0|0:0,0:0:0:0:
288,216,57575,6,0,P|336:192|240:56,1,280,2|0,0:0|0:0,0:0:0:0:
168,72,58479,1,0,0:0:0:0:
88,96,58659,2,0,L|216:152,2,140,2|0|0,0:0|0:0|0:0,0:0:0:0:
296,216,59744,6,0,P|424:168|440:40,1,280,2|0,0:0|0:0,0:0:0:0:
352,48,60648,1,0,0:0:0:0:
264,64,60828,2,0,L|160:176,2,140,2|0|0,0:0|0:0|0:0,0:0:0:0:
64,112,61912,6,0,L|200:192,2,140,2|0|0,0:0|0:0|0:0,0:0:0:0:
336,264,62997,2,0,P|384:208|248:96,1,280,2|0,0:0|0:0,0:0:0:0:
56,152,64081,6,0,L|328:272,1,280,2|0,0:0|0:0,0:0:0:0:
116,280,65165,2,0,P|84:240|236:176,1,280,2|0,0:0|0:0,0:0:0:0:
464,112,66250,5,6,0:0:0:0:
400,112,66430,1,0,0:0:0:0:
336,112,66611,1,0,0:0:0:0:
272,112,66792,1,0,0:0:0:0:
336,112,66973,1,0,0:0:0:0:
272,112,67153,1,0,0:0:0:0:
108,112,67334,5,6,0:0:0:0:
172,112,67514,1,0,0:0:0:0:
236,112,67695,1,0,0:0:0:0:
300,112,67876,1,0,0:0:0:0:
236,112,68057,1,0,0:0:0:0:
300,112,68237,1,0,0:0:0:0:
456,112,68418,5,6,0:0:0:0:
392,112,68599,1,0,0:0:0:0:
328,112,68780,1,0,0:0:0:0:
264,112,68961,1,0,0:0:0:0:
392,112,69141,2,0,L|472:112,1,70,4|0,0:0|0:0,0:0:0:0:
144,192,69503,6,0,L|88:128,1,70,6|0,0:0|0:0,0:0:0:0:
212,115,69864,2,0,L|282:115,1,70,2|0,0:0|0:0,0:0:0:0:
91,123,70225,2,0,L|80:207,1,70,2|0,0:0|0:0,0:0:0:0:
121,233,70496,2,0,L|169:233,1,35,0|8,0:0|0:0,0:0:0:0:
303,154,70768,2,0,L|359:154,1,35,0|0,0:0|0:0,0:0:0:0:
216,124,70948,5,2,0:0:0:0:
152,124,71069,1,0,0:0:0:0:
112,124,71189,1,0,0:0:0:0:
216,236,71310,2,0,L|264:264,2,46.6666666666667,2|0|0,0:0|0:0|0:0,0:0:0:0:
80,225,71671,1,2,0:0:0:0:
16,205,71792,1,0,0:0:0:0:
8,169,71912,1,0,0:0:0:0:
112,225,72033,2,0,L|167:220,2,46.6666666666667,2|0|0,0:0|0:0|0:0,0:0:0:0:
245,207,72394,6,0,P|291:152|243:88,1,140,6|2,0:0|0:0,0:0:0:0:
122,90,73117,1,2,0:0:0:0:
456,104,73478,2,0,L|312:72,1,140,10|2,0:0|0:0,0:0:0:0:
207,272,73960,5,0,0:0:0:0:
199,225,74080,1,0,0:0:0:0:
192,179,74200,1,2,0:0:0:0:
316,172,74322,2,0,L|376:137,2,46.6666666666667,0|0|2,0:0|0:0|0:0,0:0:0:0:
171,94,74804,2,0,L|239:94,1,46.6666666666667,0|2,0:0|0:0,0:0:0:0:
328,96,75105,1,8,0:0:0:0:
80,232,75286,6,0,L|16:144,1,93.3333333333333,2|0,0:0|0:0,0:0:0:0:
96,144,75647,1,2,0:0:0:0:
168,128,75768,1,0,0:0:0:0:
240,112,75888,1,0,0:0:0:0:
375,95,76009,2,0,L|239:95,1,93.3333333333333,2|0,0:0|0:0,0:0:0:0:
383,119,76370,2,0,L|459:162,2,46.6666666666667,10|0|0,0:0|0:0|0:0,0:0:0:0:
242,143,76731,5,2,0:0:0:0:
332,173,76972,2,0,L|329:124,1,46.6666666666667,0|2,0:0|0:0,0:0:0:0:
136,88,77334,1,0,0:0:0:0:
96,144,77454,1,2,0:0:0:0:
104,208,77575,1,0,0:0:0:0:
144,248,77695,1,0,0:0:0:0:
208,272,77816,1,2,0:0:0:0:
40,272,77996,1,8,0:0:0:0:
289,259,78177,6,0,L|398:259,1,105,2|0,0:0|0:0,0:0:0:0:
306,212,78539,2,0,L|210:212,1,93.3333333333333,2|0,0:0|0:0,0:0:0:0:
329,170,78900,1,2,0:0:0:0:
488,272,79262,1,10,0:0:0:0:
152,272,79623,6,0,L|64:272,2,70,2|0|10,0:0|0:0|0:0,0:0:0:0:
328,272,80165,2,0,L|360:192,1,70,0|2,0:0|0:0,0:0:0:0:
176,192,80527,2,0,L|128:128,2,70,0|10|0,0:0|0:0|0:0,0:0:0:0:
428,192,81069,6,0,P|476:152|428:88,1,140,6|2,0:0|0:0,0:0:0:0:
200,88,81792,1,2,0:0:0:0:
496,88,82153,1,10,0:0:0:0:
200,88,82515,6,0,L|56:88,1,140,2|2,0:0|0:0,0:0:0:0:
368,192,83237,2,0,L|520:192,1,140,2|2,0:0|0:0,0:0:0:0:
440,192,83780,1,8,0:0:0:0:
184,192,83960,6,0,L|24:156,2,140,6|2|2,0:0|0:0|0:0,0:0:0:0:
464,192,85045,1,10,0:0:0:0:
184,216,85406,6,0,L|104:216,1,70,2|0,0:0|0:0,0:0:0:0:
280,216,85768,2,0,L|352:216,1,70,2|0,0:0|0:0,0:0:0:0:
472,216,86129,2,0,L|384:216,2,70,2|0|2,0:0|0:0|0:0,0:0:0:0:
336,160,86671,1,8,0:0:0:0:
72,160,86852,6,0,P|32:136|80:80,1,140,2|2,0:0|0:0,0:0:0:0:
328,88,87575,2,0,P|384:136|352:184,1,140,2|10,0:0|0:0,0:0:0:0:
264,184,88117,1,0,0:0:0:0:
96,184,88298,6,0,L|24:112,1,93.3333333333333,2|0,0:0|0:0,0:0:0:0:
136,112,88659,2,0,L|288:112,1,140,2|0,0:0|0:0,0:0:0:0:
104,120,89382,2,0,L|24:120,1,70,2|0,0:0|0:0,0:0:0:0:
304,192,89743,6,0,L|416:192,1,93.3333333333333,2|0,0:0|0:0,0:0:0:0:
304,192,90105,2,0,L|224:192,1,70,2|0,0:0|0:0,0:0:0:0:
408,192,90466,2,0,L|480:192,1,70,2|0,0:0|0:0,0:0:0:0:
192,192,90828,2,0,L|112:192,1,70,10|0,0:0|0:0,0:0:0:0:
368,192,91189,6,0,L|456:192,1,70,2|0,0:0|0:0,0:0:0:0:
280,144,91551,2,0,L|192:144,1,70,10|0,0:0|0:0,0:0:0:0:
96,88,91912,2,0,L|166:88,2,70,2|8|10,0:0|0:0|0:0,0:0:0:0:
208,40,92454,1,0,0:0:0:0:
464,48,92635,6,0,P|496:96|360:240,1,280,6|0,0:0|0:0,0:0:0:0:
80,264,94081,6,0,P|48:216|200:120,1,280,0|0,0:0|0:0,0:0:0:0:
408,152,95346,1,0,0:0:0:0:
232,100,95527,2,0,P|168:108|176:300,1,280,6|0,0:0|0:0,0:0:0:0:
496,272,96972,6,0,P|472:176|296:120,1,280,0|0,0:0|0:0,0:0:0:0:
132,156,98057,1,6,0:0:0:0:
424,156,98418,6,0,P|460:88|416:40,1,140,6|2,0:0|0:0,0:0:0:0:
144,48,99141,2,0,L|29:153,1,140,2|2,0:0|0:0,0:0:0:0:
136,217,99683,1,0,0:0:0:0:
312,240,99864,6,0,L|472:240,2,140,6|2|2,0:0|0:0|0:0,0:0:0:0:
88,240,100948,2,0,L|32:160,1,70,2|0,0:0|0:0,0:0:0:0:
226,173,101310,6,0,L|378:173,1,140,6|2,0:0|0:0,0:0:0:0:
96,104,102033,2,0,L|247:76,1,140,2|2,0:0|0:0,0:0:0:0:
351,55,102575,1,0,0:0:0:0:
176,27,102756,6,0,L|16:35,1,140,6|2,0:0|0:0,0:0:0:0:
352,120,103478,2,0,L|504:152,1,140,2|2,0:0|0:0,0:0:0:0:
153,314,104201,5,2,0:0:0:0:
121,226,104383,1,0,0:0:0:0:
161,138,104564,1,0,0:0:0:0:
56,112,104744,1,0,0:0:0:0:
240,288,104924,1,2,0:0:0:0:
272,200,105106,1,0,0:0:0:0:
232,112,105287,1,0,0:0:0:0:
337,86,105467,1,0,0:0:0:0:
176,72,105647,6,0,L|96:40,3,70,2|0|0|0,0:0|0:0|0:0|0:0,0:0:0:0:
272,160,106370,2,0,L|320:96,3,70,2|0|0|0,0:0|0:0|0:0|0:0,0:0:0:0:
240,97,107002,1,0,0:0:0:0:
160,96,107093,6,0,L|72:96,1,70,2|0,0:0|0:0,0:0:0:0:
208,176,107454,2,0,L|278:176,1,70,0|0,0:0|0:0,0:0:0:0:
384,240,107816,2,0,L|328:176,3,70,2|0|0|0,0:0|0:0|0:0|0:0,0:0:0:0:
192,176,108539,6,0,L|96:176,1,70,2|0,0:0|0:0,0:0:0:0:
312,144,108900,2,0,L|400:144,1,70,2|0,0:0|0:0,0:0:0:0:
440,168,109171,1,0,0:0:0:0:
472,200,109262,1,2,0:0:0:0:
472,264,109352,1,0,0:0:0:0:
432,304,109442,1,0,0:0:0:0:
368,304,109533,1,0,0:0:0:0:
296,224,109623,5,2,0:0:0:0:
272,176,109713,1,0,0:0:0:0:
344,168,109804,1,2,0:0:0:0:
360,120,109894,1,0,0:0:0:0:
254,111,109984,2,0,P|214:135|374:159,1,490,2|2,0:0|0:0,0:0:0:0:
203,211,111430,6,0,P|259:187|75:59,1,490,2|0,0:0|0:0,0:0:0:0:
191,113,112876,6,0,P|423:169|343:353,1,490,2|2,0:0|0:0,0:0:0:0:
179,241,114322,2,0,P|135:217|207:41,1,280,2|2,0:0|0:0,0:0:0:0:
436,76,115768,6,0,P|468:112|432:208,1,140,2|0,0:0|0:0,0:0:0:0:
172,184,116490,2,0,L|312:168,1,140,2|0,0:0|0:0,0:0:0:0:
384,92,117033,1,0,0:0:0:0:
208,116,117213,6,0,P|176:144|216:244,1,140,2|0,0:0|0:0,0:0:0:0:
331,106,117756,1,0,0:0:0:0:
176,152,117936,2,0,P|100:208|152:296,1,210,2|2,0:0|0:0,0:0:0:0:
409,305,118659,6,0,P|449:273|225:121,1,490,2|0,0:0|0:0,0:0:0:0:
133,147,120022,1,0,0:0:0:0:
32,192,120132,2,0,P|21:239|182:350,1,280,2|0,0:0|0:0,0:0:0:0:
