osu file format v14

[General]
AudioFilename: audio.mp3
AudioLeadIn: 0
PreviewTime: 31452
Countdown: 0
SampleSet: Soft
StackLeniency: 0.5
Mode: 0
LetterboxInBreaks: 0
WidescreenStoryboard: 0

[Editor]
Bookmarks: 108259
DistanceSpacing: 1.4
BeatDivisor: 4
GridSize: 4
TimelineZoom: 1.6

[Metadata]
Title:Vulnerability
TitleUnicode:Vulnerability
Artist:Mili
ArtistUnicode:Mili
Creator:Alphabet
Version:Hard
Source:
Tags:Miracle milk electronic saihate records HAMO hamoloid Yamato Kasai
BeatmapID:1295858
BeatmapSetID:590709

[Difficulty]
HPDrainRate:5
CircleSize:4
OverallDifficulty:6.6
ApproachRate:7.5
SliderMultiplier:1.6
SliderTickRate:1

[Events]
//Background and Video events
0,0,"backgornund.jpg",0,0
//Break Periods
2,95718,97584
//Storyboard Layer 0 (Background)
//Storyboard Layer 1 (Fail)
//Storyboard Layer 2 (Pass)
//Storyboard Layer 3 (Foreground)
//Storyboard Sound Samples

[TimingPoints]
1181,361.44578313253,3,2,1,45,1,0
1181,-142.857142857143,3,2,1,45,0,0
27205,-200,3,2,1,45,0,0
29373,-166.666666666667,3,2,1,45,0,0
31542,-125,3,2,2,45,0,0
31723,-142.857142857143,3,2,1,45,0,0
33711,-166.666666666667,3,2,1,45,0,0
35879,-200,3,2,1,45,0,0
38048,-166.666666666667,3,2,1,45,0,0
39132,-125,3,2,1,45,0,0
40217,-125,3,1,1,45,0,0
57566,-166.666666666667,3,2,2,45,0,0
57747,-142.857142857143,3,2,1,45,0,0
69494,361.44578313253,4,1,1,60,1,1
72385,-100,4,1,1,60,0,1
80879,-100,4,1,1,60,0,0
81060,-100,4,1,1,60,0,1
92626,-100,4,2,1,45,0,0
98409,-125,4,1,1,55,0,0
104192,-166.666666666667,4,2,2,45,0,0
104373,-166.666666666667,4,2,2,45,0,0
118650,-166.666666666667,4,2,1,45,0,0
120096,-166.666666666667,4,2,2,40,0,0
120819,-166.666666666667,4,2,2,15,0,0

[Colours]
Combo1 : 128,0,0
Combo2 : 197,197,197
Combo3 : 110,110,110
Combo4 : 153,153,204
Combo5 : 2,164,119

[HitObjects]
92,300,1181,6,0,B|120:288|152:296|152:296|184:304|212:292,1,111.999996582031,2|0,0:0|0:0,0:0:0:0:
272,332,1723,1,0,0:0:0:0:
272,332,1903,1,2,0:0:0:0:
176,224,2265,2,0,P|144:196|192:80,1,167.999994873047,2|0,0:0|0:0,0:0:0:0:
244,64,2988,1,2,0:0:0:0:
244,64,3349,22,0,L|316:72,1,55.9999982910157,2|0,0:0|0:0,0:0:0:0:
336,140,3711,2,0,L|264:148,1,55.9999982910157,2|0,0:0|0:0,0:0:0:0:
204,152,4072,1,2,0:0:0:0:
204,152,4434,2,0,P|220:192|204:272,2,111.999996582031,2|2|2,0:0|0:0|0:0,0:0:0:0:
60,92,5518,5,2,0:0:0:0:
16,156,5699,1,0,0:0:0:0:
72,208,5879,2,0,P|76:240|64:288,1,55.9999982910157,0|0,0:0|0:0,0:0:0:0:
32,328,6241,1,2,0:0:0:0:
32,328,6602,2,0,P|100:308|196:332,1,167.999994873047,2|0,0:0|0:0,0:0:0:0:
260,368,7325,1,2,0:0:0:0:
408,316,7687,21,2,0:0:0:0:
336,288,7867,1,0,0:0:0:0:
396,236,8048,2,0,L|400:160,1,55.9999982910157,0|0,0:0|0:0,0:0:0:0:
476,116,8409,2,0,L|472:192,1,55.9999982910157,2|0,0:0|0:0,0:0:0:0:
388,244,8771,2,0,P|348:252|272:228,2,111.999996582031,2|0|2,0:0|0:0|0:0,0:0:0:0:
284,128,9855,22,0,P|232:140|216:152,1,55.9999982910157,12|0,0:0|0:0,0:0:0:0:
152,136,10217,2,0,P|167:84|165:65,1,55.9999982910157,0|0,0:0|0:0,0:0:0:0:
208,16,10578,2,0,P|244:55|262:62,1,55.9999982910157,2|0,0:0|0:0,0:0:0:0:
368,68,10940,6,0,L|444:60,1,55.9999982910157,2|0,0:0|0:0,0:0:0:0:
508,136,11301,2,0,L|432:144,1,55.9999982910157,0|0,0:0|0:0,0:0:0:0:
384,184,11662,2,0,P|372:216|376:244,1,55.9999982910157,2|2,0:0|0:0,0:0:0:0:
408,308,12024,22,0,L|328:320,1,55.9999982910157,2|0,0:0|0:0,0:0:0:0:
296,260,12385,2,0,L|240:251,1,55.9999982910157,0|0,0:0|0:0,0:0:0:0:
188,332,12747,2,0,L|243:340,1,55.9999982910157,2|0,0:0|0:0,0:0:0:0:
136,256,13108,22,0,L|80:247,1,55.9999982910157,2|0,0:0|0:0,0:0:0:0:
20,200,13470,1,0,0:0:0:0:
68,140,13650,1,0,0:0:0:0:
144,164,13831,1,2,0:0:0:0:
8,208,14012,1,8,0:0:0:0:
128,88,14193,6,0,P|196:104|224:160,1,111.999996582031,12|0,0:0|0:0,0:0:0:0:
212,216,14735,1,0,0:0:0:0:
288,192,14915,2,0,P|324:188|368:200,1,55.9999982910157,8|0,0:0|0:0,0:0:0:0:
456,236,15277,22,0,B|416:280|348:268|348:268|388:264|412:232,1,167.999994873047,10|0,0:0|0:0,0:0:0:0:
416,176,16000,2,0,P|400:124|388:112,1,55.9999982910157,0|0,0:0|0:0,0:0:0:0:
364,104,16271,1,0,0:0:0:0:
328,88,16361,22,0,B|276:112|200:76|200:76|244:56,1,167.999994873047,8|0,0:0|0:0,0:0:0:0:
232,61,17084,1,8,0:0:0:0:
104,152,17446,2,0,P|72:108|80:44,1,111.999996582031,10|0,0:0|0:0,0:0:0:0:
248,164,18168,1,8,0:0:0:0:
128,272,18530,6,0,B|32:284|32:284|56:260,1,111.999996582031,12|0,0:0|0:0,0:0:0:0:
196,232,19253,2,0,P|208:276|200:308,1,55.9999982910157,2|0,0:0|0:0,0:0:0:0:
160,348,19614,2,0,P|216:332|272:348,1,111.999996582031,8|0,0:0|0:0,0:0:0:0:
340,316,20156,1,0,0:0:0:0:
400,364,20337,2,0,L|472:372,1,55.9999982910157,8|0,0:0|0:0,0:0:0:0:
512,276,20699,22,0,B|488:232|488:232|504:100,1,167.999994873047,10|0,0:0|0:0,0:0:0:0:
456,52,21421,1,2,0:0:0:0:
456,52,21783,2,0,B|420:76|380:44|380:44|312:88|240:32,1,223.999993164063,8|2,0:0|0:0,0:0:0:0:
84,48,22867,22,0,P|96:96|72:168,1,111.999996582031,12|2,0:0|0:0,0:0:0:0:
80,155,23590,1,2,0:0:0:0:
188,296,23952,2,0,P|176:248|200:176,1,111.999996582031,12|2,0:0|0:0,0:0:0:0:
191,188,24674,1,2,0:0:0:0:
312,248,25036,6,0,L|392:252,1,55.9999982910157,8|0,0:0|0:0,0:0:0:0:
392,280,25307,1,0,0:0:0:0:
412,308,25397,1,0,0:0:0:0:
291,352,25578,1,0,0:0:0:0:
291,352,25759,2,0,P|248:356|212:344,1,55.9999982910157,8|0,0:0|0:0,0:0:0:0:
144,312,26120,22,0,B|176:252|148:192|148:192|124:252,1,167.999994873047,10|0,0:0|0:0,0:0:0:0:
131,232,26843,1,8,0:0:0:0:
56,284,27024,1,0,0:0:0:0:
56,284,27114,1,0,0:0:0:0:
56,284,27205,21,2,0:0:0:0:
124,120,27566,1,0,0:0:0:0:
8,192,27927,1,2,0:0:0:0:
8,192,28289,2,0,B|48:176|88:192|88:192|128:208|176:188,1,160,2|0,0:0|0:0,0:0:0:0:
263,115,29373,6,0,P|291:147|279:247,1,143.999995605469,2|0,0:0|0:0,0:0:0:0:
282,242,30096,1,2,0:0:0:0:
168,328,30458,2,0,B|228:360|288:328|288:328|324:348|372:328,1,191.999994140625,2|2,0:0|0:0,0:0:0:0:
448,184,31542,22,0,P|432:144|448:48,1,128,6|0,0:0|0:0,0:0:0:0:
441,61,32265,2,0,L|373:65,1,55.9999982910157,2|2,0:0|0:0,0:0:0:0:
340,128,32626,2,0,L|228:120,2,111.999996582031,2|2|0,0:0|0:0|0:0,0:0:0:0:
448,184,33711,22,0,P|457:223|404:312,1,143.999995605469,2|0,0:0|0:0,0:0:0:0:
340,328,34434,2,0,P|304:316|284:316,1,47.9999985351563,2|2,0:0|0:0,0:0:0:0:
228,344,34795,2,0,B|264:276|216:212|216:212|188:228|148:228,1,191.999994140625,2|2,0:0|0:0,0:0:0:0:
112,296,35879,6,0,P|84:252|124:148,1,160,2|2,0:0|0:0,0:0:0:0:
176,116,36783,1,0,0:0:0:0:
176,116,36964,2,0,P|245:149|316:117,1,160,2|2,0:0|0:0,0:0:0:0:
452,60,38048,22,0,B|468:108|448:144|448:144|468:220,1,143.999995605469,2|0,0:0|0:0,0:0:0:0:
504,280,38771,2,0,P|481:287|457:288,1,47.9999985351563,2|0,0:0|0:0,0:0:0:0:
384,244,39132,2,0,L|252:232,1,128,2|2,0:0|0:0,0:0:0:0:
120,304,39855,1,2,0:0:0:0:
120,304,40217,22,0,P|116:264|128:224,1,64,12|0,0:2|0:2,0:0:0:0:
156,160,40578,2,0,P|160:120|148:80,1,64,0|0,0:2|0:2,0:0:0:0:
79,43,40940,2,0,L|3:55,1,64,8|0,0:2|0:2,0:0:0:0:
15,52,41301,5,8,0:2:0:0:
12,232,41662,1,2,0:2:0:0:
12,232,42024,1,2,0:2:0:0:
96,200,42205,1,12,0:2:0:0:
168,252,42385,22,0,L|236:260,1,64,12|0,0:2|0:2,0:0:0:0:
252,348,42747,2,0,L|315:340,1,64,0|0,0:2|0:2,0:0:0:0:
340,252,43108,2,0,L|403:259,1,64,8|0,0:2|0:2,0:0:0:0:
403,259,43470,5,8,0:2:0:0:
496,104,43831,1,12,0:2:0:0:
496,104,44193,1,12,0:2:0:0:
328,44,44554,6,0,L|236:48,1,64,2|0,0:2|0:2,0:0:0:0:
208,116,44915,1,2,0:2:0:0:
168,36,45096,1,2,0:2:0:0:
104,96,45277,2,0,P|68:104|28:92,1,64,0|8,0:2|0:2,0:0:0:0:
136,176,45638,5,0,0:2:0:0:
224,332,46000,1,2,0:2:0:0:
304,292,46180,1,0,0:0:0:0:
224,248,46361,2,0,P|172:268|152:288,1,64,2|12,0:2|0:2,0:0:0:0:
360,356,46723,22,0,L|440:364,1,64,6|0,0:2|0:2,0:0:0:0:
448,276,47084,2,0,L|368:284,1,64,2|0,0:2|0:2,0:0:0:0:
364,196,47446,2,0,L|444:204,1,64,2|8,0:2|0:2,0:0:0:0:
484,132,47807,21,2,0:2:0:0:
424,68,47988,1,0,0:2:0:0:
292,92,48168,1,6,0:2:0:0:
292,92,48530,1,6,0:2:0:0:
120,48,48891,6,0,P|108:88|116:128,1,64,6|0,0:2|0:2,0:0:0:0:
140,196,49253,2,0,P|152:236|144:276,1,64,2|0,0:2|0:2,0:0:0:0:
112,340,49614,1,2,0:2:0:0:
24,340,49795,1,0,0:2:0:0:
64,260,49976,21,2,0:2:0:0:
220,348,50337,1,2,0:2:0:0:
220,348,50699,1,2,0:2:0:0:
288,288,50879,1,12,0:2:0:0:
352,348,51060,6,0,P|396:364|436:364,1,64,12|0,0:2|0:2,0:0:0:0:
492,324,51421,2,0,P|508:280|508:240,1,64,2|0,0:2|0:2,0:0:0:0:
444,200,51783,2,0,P|448:168|461:139,1,64,2|0,0:2|0:2,0:0:0:0:
504,60,52144,5,2,0:2:0:0:
336,8,52506,1,12,0:2:0:0:
336,8,52867,1,12,0:2:0:0:
204,132,53229,6,0,L|216:48,1,64,6|0,0:2|0:2,0:0:0:0:
128,44,53590,2,0,L|116:128,1,64,2|2,0:2|0:2,0:0:0:0:
48,164,53952,2,0,L|38:100,1,64,2|0,0:2|0:2,0:0:0:0:
136,192,54313,21,8,0:2:0:0:
136,192,54674,1,2,0:2:0:0:
64,248,54855,1,0,0:2:0:0:
84,336,55036,1,2,0:2:0:0:
212,296,55217,1,12,0:2:0:0:
328,360,55397,22,0,L|416:368,1,64,6|0,0:2|0:2,0:0:0:0:
404,276,55759,2,0,L|492:284,1,64,0|0,0:0|0:2,0:0:0:0:
476,192,56120,2,0,L|388:184,1,64,2|8,0:2|0:2,0:0:0:0:
336,96,56482,6,0,L|248:88,1,64,2|0,0:2|0:2,0:0:0:0:
156,156,56843,1,6,0:2:0:0:
156,156,57205,1,6,0:2:0:0:
44,88,57566,22,0,P|20:140|84:264,1,191.999994140625,6|2,0:0|0:0,0:0:0:0:
151,264,58470,1,0,0:0:0:0:
228,244,58650,2,0,P|224:296|176:340,2,111.999996582031,2|2|0,0:0|0:0|0:0,0:0:0:0:
228,244,59735,22,0,B|308:228|308:228|404:248,1,167.999994873047,2|0,0:0|0:0,0:0:0:0:
440,324,60458,2,0,P|472:296|484:268,1,55.9999982910157,2|0,0:0|0:0,0:0:0:0:
468,200,60819,1,2,0:0:0:0:
352,120,61180,1,2,0:0:0:0:
492,48,61542,1,0,0:0:0:0:
480,176,61903,5,2,0:0:0:0:
380,124,62265,1,0,0:0:0:0:
480,72,62626,1,2,0:0:0:0:
380,124,62988,2,0,B|296:152|232:96|232:96|248:128|232:176,1,223.999993164063,2|0,0:0|0:0,0:0:0:0:
152,248,64072,22,0,B|236:220|300:276|300:276|284:244|300:196,1,223.999993164063,2|2,0:0|0:0,0:0:0:0:
144,172,65156,2,0,P|92:204|152:324,1,223.999993164063,2|2,0:0|0:0,0:0:0:0:
312,348,66241,22,0,L|392:356,1,55.9999982910157,2|0,0:0|0:0,0:0:0:0:
268,328,66602,2,0,L|348:336,1,55.9999982910157,2|0,0:0|0:0,0:0:0:0:
224,308,66964,2,0,L|304:316,1,55.9999982910157,2|0,0:0|0:0,0:0:0:0:
424,264,67325,6,0,L|344:272,1,55.9999982910157,2|0,0:0|0:0,0:0:0:0:
468,244,67686,2,0,L|388:252,1,55.9999982910157,2|0,0:0|0:0,0:0:0:0:
512,224,68048,2,0,L|432:232,1,55.9999982910157,2|0,0:0|0:0,0:0:0:0:
352,168,68409,22,0,P|328:136|324:108,1,55.9999982910157,2|0,0:0|0:0,0:0:0:0:
328,44,68771,2,0,P|360:20|388:16,1,55.9999982910157,2|0,0:0|0:0,0:0:0:0:
260,76,69132,2,0,L|192:68,1,55.9999982910157,2|8,0:0|0:0,0:0:0:0:
48,116,69494,54,0,B|88:104|88:104|152:128,1,80,12|0,0:0|0:0,0:0:0:0:
200,180,69855,2,0,P|212:224|184:276,1,80,2|0,0:0|0:0,0:0:0:0:
136,348,70216,2,0,P|192:344|232:364,1,80,2|0,0:0|0:0,0:0:0:0:
296,280,70578,2,0,P|334:290|373:283,1,80,2|0,0:0|0:0,0:0:0:0:
444,196,70939,22,0,P|432:156|444:108,2,53.3333333333333,2|0|0,0:0|0:0|0:0,0:0:0:0:
444,120,71301,2,0,P|456:80|444:32,2,53.3333333333333,2|0|0,0:0|0:0|0:0,0:0:0:0:
384,28,71662,2,0,L|276:36,1,80,2|0,0:0|0:0,0:0:0:0:
188,112,72024,2,0,L|296:120,1,80,2|0,0:0|0:0,0:0:0:0:
124,180,72385,6,0,P|96:132|100:84,1,80,12|0,0:0|0:0,0:0:0:0:
32,204,72747,2,0,P|25:243|2:275,1,80,2|0,0:0|0:0,0:0:0:0:
116,336,73108,2,0,P|122:296|145:264,1,80,2|0,0:0|0:0,0:0:0:0:
256,252,73469,2,0,L|348:264,1,80,2|0,0:0|0:0,0:0:0:0:
432,320,73831,38,0,P|404:352|368:360,2,53.3333333333333,2|0|0,0:0|0:0|0:0,0:0:0:0:
416,240,74192,2,0,P|444:208|480:200,2,53.3333333333333,2|0|0,0:0|0:0|0:0,0:0:0:0:
335,262,74554,2,0,L|256:252,1,80,2|0,0:0|0:0,0:0:0:0:
176,168,74915,2,0,L|255:178,1,80,2|12,0:0|0:0,0:0:0:0:
148,48,75277,53,0,0:0:0:0:
148,48,75457,1,0,0:0:0:0:
52,100,75638,2,0,P|25:101|0:96,2,53.3333333333333,0|0|0,0:0|0:0|0:0,0:0:0:0:
96,188,76000,2,0,P|100:236|80:284,2,53.3333333333333,2|0|0,0:0|0:0|0:0,0:0:0:0:
12,236,76361,2,0,P|8:284|28:332,2,53.3333333333333,2|0|0,0:0|0:0|0:0,0:0:0:0:
144,340,76722,22,0,L|248:352,1,80,2|0,0:0|0:0,0:0:0:0:
248,248,77084,2,0,L|144:236,1,80,2|0,0:0|0:0,0:0:0:0:
240,144,77445,2,0,L|172:136,2,53.3333333333333,0|0|0,0:0|0:0|0:0,0:0:0:0:
328,152,77807,2,0,L|440:148,1,80,2|0,0:0|0:0,0:0:0:0:
484,232,78168,6,0,P|496:292|476:332,1,80,12|0,0:0|0:0,0:0:0:0:
384,276,78530,2,0,P|350:326|307:341,1,80,2|0,0:0|0:0,0:0:0:0:
280,236,78891,2,0,P|220:248|180:228,1,80,2|0,0:0|0:0,0:0:0:0:
236,136,79253,2,0,P|185:102|170:59,1,80,2|0,0:0|0:0,0:0:0:0:
92,40,79614,38,0,L|100:136,1,80,2|0,0:0|0:0,0:0:0:0:
28,208,79975,2,0,L|21:128,1,80,2|0,0:0|0:0,0:0:0:0:
104,204,80337,2,0,L|110:283,1,80,2|0,0:0|0:0,0:0:0:0:
40,372,80698,2,0,L|33:292,1,80,2|0,0:0|0:0,0:0:0:0:
160,352,81060,54,0,P|220:368|304:320,1,160,12|2,0:0|0:0,0:0:0:0:
344,220,81602,1,0,0:0:0:0:
344,220,81783,2,0,P|276:216|244:236,1,80,2|0,0:0|0:0,0:0:0:0:
384,292,82144,2,0,P|452:296|484:276,1,80,2|0,0:0|0:0,0:0:0:0:
500,184,82506,22,0,P|472:136|504:44,1,160,2|2,0:0|0:0,0:0:0:0:
400,44,83048,1,0,0:0:0:0:
400,44,83228,2,0,L|296:52,1,80,2|0,0:0|0:0,0:0:0:0:
224,92,83590,2,0,L|120:84,1,80,2|0,0:0|0:0,0:0:0:0:
48,48,83951,6,0,P|68:108|32:212,1,160,4|0,0:0|0:0,0:0:0:0:
68,300,84494,1,0,0:0:0:0:
132,380,84674,2,0,P|157:349|167:311,1,80,2|0,0:0|0:0,0:0:0:0:
244,240,85036,2,0,P|272:276|280:320,1,80,2|0,0:0|0:0,0:0:0:0:
372,356,85397,38,0,L|380:260,1,80,2|0,0:0|0:0,0:0:0:0:
468,224,85759,2,0,L|474:303,1,80,2|0,0:0|0:0,0:0:0:0:
376,196,86120,2,0,L|369:116,1,80,2|0,0:0|0:0,0:0:0:0:
440,40,86481,1,2,0:0:0:0:
476,140,86662,1,0,0:0:0:0:
340,272,86843,54,0,P|304:240|292:176,1,80,12|0,0:0|0:0,0:0:0:0:
248,108,87204,2,0,B|204:96|204:96|140:108,1,80,2|0,0:0|0:0,0:0:0:0:
68,152,87566,2,0,L|76:248,1,80,2|0,0:0|0:0,0:0:0:0:
36,336,87927,2,0,P|80:348|136:324,1,80,2|0,0:0|0:0,0:0:0:0:
192,260,88289,22,0,L|296:280,1,80,2|0,0:0|0:0,0:0:0:0:
368,336,88650,2,0,B|384:292|384:292|380:224,1,80,2|0,0:0|0:0,0:0:0:0:
372,148,89012,2,0,P|416:168|480:152,1,80,2|0,0:0|0:0,0:0:0:0:
432,56,89373,1,0,0:0:0:0:
280,152,89554,1,2,0:0:0:0:
212,40,89734,6,0,B|164:32|164:32|88:52,2,120,12|2|0,0:0|0:0|0:0,0:0:0:0:
280,152,90457,2,0,L|284:260,1,80,2|0,0:0|0:0,0:0:0:0:
216,340,90819,2,0,L|212:232,1,80,2|0,0:0|0:0,0:0:0:0:
132,344,91180,38,0,P|76:356|36:348,1,80,2|0,0:0|0:0,0:0:0:0:
84,252,91542,2,0,P|35:220|13:186,1,80,2|0,0:0|0:0,0:0:0:0:
32,72,91903,1,2,0:0:0:0:
148,136,92084,1,0,0:0:0:0:
272,76,92265,1,2,0:0:0:0:
156,4,92445,1,2,0:0:0:0:
144,160,92626,53,12,0:0:0:0:
256,192,92807,12,12,95518,0:0:0:0:
72,300,98409,70,0,P|128:320|212:292,1,128,12|0,0:2|0:2,0:0:0:0:
252,240,98951,1,0,0:2:0:0:
196,172,99132,1,2,0:2:0:0:
276,132,99313,2,0,P|324:156|360:156,2,64,0|2|0,0:2|0:2|0:2,0:0:0:0:
256,92,99765,1,2,0:2:0:0:
236,52,99855,22,0,L|148:60,1,64,2|0,0:2|0:2,0:0:0:0:
104,116,100216,2,0,L|16:124,1,64,2|0,0:2|0:2,0:0:0:0:
48,212,100578,2,0,L|136:204,1,64,2|0,0:2|0:2,0:0:0:0:
216,232,100939,2,0,P|228:272|212:312,1,64,2|10,0:2|0:2,0:0:0:0:
192,328,101210,1,10,0:2:0:0:
160,360,101301,6,0,P|200:356|240:364,1,64,12|0,0:2|0:2,0:0:0:0:
304,324,101662,2,0,P|344:328|384:320,1,64,2|0,0:2|0:2,0:0:0:0:
440,272,102024,2,0,L|432:192,1,64,2|0,0:2|0:2,0:0:0:0:
340,240,102385,1,2,0:2:0:0:
492,164,102566,1,10,0:2:0:0:
464,132,102656,1,0,0:0:0:0:
440,104,102747,38,0,L|368:100,1,64,12|0,0:2|0:2,0:0:0:0:
300,152,103108,2,0,L|228:156,1,64,2|0,0:2|0:2,0:0:0:0:
148,168,103469,1,2,0:2:0:0:
184,88,103650,1,0,0:2:0:0:
96,100,103831,1,2,0:2:0:0:
236,155,104012,1,0,0:2:0:0:
64,176,104192,38,0,L|72:276,1,95.9999970703126,6|0,0:0|0:0,0:0:0:0:
124,328,104734,1,0,0:0:0:0:
124,328,104915,2,0,P|192:336|224:328,1,95.9999970703126,2|0,0:0|0:0,0:0:0:0:
280,284,105457,1,2,0:0:0:0:
280,284,105638,22,0,P|348:276|380:284,1,95.9999970703126,2|0,0:0|0:0,0:0:0:0:
440,244,106180,1,2,0:0:0:0:
440,244,106361,2,0,L|436:148,1,95.9999970703126,2|0,0:0|0:0,0:0:0:0:
396,80,106903,1,2,0:0:0:0:
396,80,106993,1,2,0:0:0:0:
396,80,107084,22,0,B|344:64|344:64|280:72,1,95.9999970703126,2|0,0:0|0:0,0:0:0:0:
240,116,107626,1,2,0:0:0:0:
240,116,107807,2,0,B|188:132|188:132|124:124,1,95.9999970703126,2|0,0:0|0:0,0:0:0:0:
80,88,108349,1,2,0:0:0:0:
20,136,108530,6,0,P|12:180|32:236,1,95.9999970703126,2|2,0:0|0:0,0:0:0:0:
92,268,109072,1,0,0:0:0:0:
164,236,109253,2,0,P|204:232|232:240,1,47.9999985351563,2|0,0:0|0:0,0:0:0:0:
192,320,109614,2,0,L|192:364,2,23.9999992675781,2|0|2,0:0|0:0|0:0,0:0:0:0:
296,348,109975,22,0,L|356:320,1,47.9999985351563,2|0,0:0|0:0,0:0:0:0:
372,252,110337,1,2,0:0:0:0:
320,188,110518,2,0,P|296:184|273:175,1,47.9999985351563,2|0,0:0|0:0,0:0:0:0:
328,88,110879,2,0,P|351:91|374:100,2,47.9999985351563,2|0|2,0:0|0:0|0:0,0:0:0:0:
248,100,111421,21,2,0:0:0:0:
176,72,111602,1,0,0:0:0:0:
112,120,111783,1,0,0:0:0:0:
188,152,111963,2,0,L|200:212,1,47.9999985351563,0|2,0:0|0:0,0:0:0:0:
152,268,112325,2,0,L|164:328,2,47.9999985351563,0|0|0,0:0|0:0|0:0,0:0:0:0:
108,372,112867,6,0,P|72:376|44:368,1,47.9999985351563,2|0,0:0|0:0,0:0:0:0:
32,304,113228,2,0,P|68:300|96:308,1,47.9999985351563,0|0,0:0|0:0,0:0:0:0:
152,268,113590,2,0,P|188:272|216:264,1,47.9999985351563,2|0,0:0|0:0,0:0:0:0:
264,228,113951,1,0,0:0:0:0:
296,320,114132,1,2,0:0:0:0:
296,320,114222,1,2,0:0:0:0:
296,320,114313,22,0,L|360:324,1,47.9999985351563,2|0,0:0|0:0,0:0:0:0:
484,328,114674,2,0,L|420:332,1,47.9999985351563,0|0,0:0|0:0,0:0:0:0:
364,248,115036,1,0,0:0:0:0:
464,228,115216,1,0,0:0:0:0:
464,228,115397,2,0,L|452:180,1,47.9999985351563,2|0,0:0|0:0,0:0:0:0:
472,104,115759,22,0,P|424:136|376:140,1,95.9999970703126,2|2,0:0|0:0,0:0:0:0:
240,92,116481,2,0,P|193:100|154:129,1,95.9999970703126,2|2,0:0|0:0,0:0:0:0:
104,208,117024,1,2,0:0:0:0:
140,292,117204,6,0,B|90:295|90:295|46:279,1,95.9999970703126,8|2,0:0|0:0,0:0:0:0:
104,208,117747,1,2,0:0:0:0:
220,272,117927,1,2,0:0:0:0:
204,44,118470,1,2,0:0:0:0:
204,84,118560,1,2,0:0:0:0:
204,124,118650,5,14,0:0:0:0:
256,192,118831,12,0,120819,0:0:0:0:
