osu file format v14

[General]
AudioFilename: audio.mp3
AudioLeadIn: 0
PreviewTime: 31452
Countdown: 0
SampleSet: Normal
StackLeniency: 0.5
Mode: 0
LetterboxInBreaks: 0
WidescreenStoryboard: 0

[Editor]
DistanceSpacing: 1.2
BeatDivisor: 4
GridSize: 4
TimelineZoom: 1.6

[Metadata]
Title:Vulnerability
TitleUnicode:Vulnerability
Artist:Mili
ArtistUnicode:Mili
Creator:Alphabet
Version:Normal
Source:
Tags:Miracle milk electronic saihate records HAMO hamoloid Yamato Kasai
BeatmapID:1253378
BeatmapSetID:590709

[Difficulty]
HPDrainRate:4
CircleSize:3
OverallDifficulty:4
ApproachRate:5
SliderMultiplier:1
SliderTickRate:1

[Events]
//Background and Video events
0,0,"backgornund.jpg",0,0
//Break Periods
2,95718,97209
//Storyboard Layer 0 (Background)
//Storyboard Layer 1 (Fail)
//Storyboard Layer 2 (Pass)
//Storyboard Layer 3 (Foreground)
//Storyboard Sound Samples

[TimingPoints]
1181,361.44578313253,3,2,1,45,1,0
1181,-100,3,2,1,45,0,0
31542,-100,3,2,2,45,0,0
31723,-100,3,2,1,45,0,0
40217,-100,3,1,1,45,0,0
57566,-100,3,2,2,45,0,0
57747,-100,3,2,1,45,0,0
69494,361.44578313253,4,1,1,60,1,1
72385,-100,4,1,1,60,0,1
80879,-100,4,1,1,60,0,0
81060,-100,4,1,1,60,0,1
92626,-100,4,2,1,45,0,0
98409,-100,4,1,1,55,0,0
104192,-100,4,2,2,45,0,0
118650,-100,4,2,1,45,0,0
120096,-100,4,2,2,40,0,0
120819,-100,4,2,2,15,0,0

[Colours]
Combo1 : 128,0,0
Combo2 : 197,197,197
Combo3 : 110,110,110
Combo4 : 153,153,204
Combo5 : 2,164,119

[HitObjects]
196,168,1181,6,0,L|360:168,1,150,2|0,0:0|0:0,0:0:0:0:
404,168,1903,1,2,0:0:0:0:
368,52,2265,2,0,B|316:28|272:48|272:48|220:72|160:40,1,200,2|2,0:0|0:0,0:0:0:0:
56,28,3349,22,0,P|64:68|48:144,1,100,2|2,0:0|0:0,0:0:0:0:
20,176,3891,2,0,P|16:204|24:244,1,50,0|2,0:0|0:0,0:0:0:0:
80,328,4434,2,0,L|188:332,1,100,2|2,0:0|0:0,0:0:0:0:
292,288,5156,1,2,0:0:0:0:
204,204,5518,6,0,L|96:200,1,100,2|0,0:0|0:0,0:0:0:0:
44,196,6060,2,0,P|36:160|36:132,1,50,0|2,0:0|0:0,0:0:0:0:
128,72,6602,2,0,B|173:97|225:73|225:73|269:53|321:77,1,200,2|2,0:0|0:0,0:0:0:0:
392,172,7687,22,0,P|400:200|392:240,2,50,2|0|0,0:0|0:0|0:0,0:0:0:0:
332,172,8229,2,0,L|272:172,1,50,0|2,0:0|0:0,0:0:0:0:
176,224,8771,2,0,P|160:184|176:120,1,100,2|0,0:0|0:0,0:0:0:0:
272,64,9494,1,2,0:0:0:0:
332,172,9855,22,0,P|380:188|444:172,1,100,12|0,0:0|0:0,0:0:0:0:
500,276,10578,1,2,0:0:0:0:
405,350,10940,2,0,P|358:334|309:341,1,100,2|0,0:0|0:0,0:0:0:0:
212,272,11662,2,0,L|152:276,2,50,2|2|2,0:0|0:0|0:0,0:0:0:0:
300,192,12385,6,0,P|312:148|300:92,1,100,0|2,0:0|0:0,0:0:0:0:
200,32,13108,2,0,L|88:36,2,100,2|0|2,0:0|0:0|0:0,0:0:0:0:
252,64,14012,1,8,0:0:0:0:
304,96,14193,22,0,B|372:92|372:92|432:112|432:112|504:108,1,200,12|8,0:0|0:0,0:0:0:0:
488,228,15277,2,0,B|420:232|420:232|360:212|360:212|288:216,1,200,10|0,0:0|0:0,0:0:0:0:
248,260,16180,1,0,0:0:0:0:
204,300,16361,22,0,P|152:324|32:236,1,200,8|8,0:0|0:0,0:0:0:0:
84,148,17446,2,0,P|96:96|72:32,2,100,10|0|8,0:0|0:0|0:0,0:0:0:0:
38,258,18530,5,12,0:0:0:0:
148,212,18891,1,0,0:0:0:0:
224,304,19253,2,0,P|260:288|276:280,1,50,2|0,0:0|0:0,0:0:0:0:
320,248,19614,2,0,B|352:208|324:152|324:152|300:104|328:56,1,200,8|8,0:0|0:0,0:0:0:0:
412,144,20699,22,0,P|421:220|361:324,1,200,10|2,0:0|0:0,0:0:0:0:
240,324,21783,2,0,P|187:240|190:141,1,200,8|2,0:0|0:0,0:0:0:0:
284,64,22867,22,0,P|320:72|388:64,2,100,12|2|2,0:0|0:0|0:0,0:0:0:0:
168,36,23952,2,0,P|132:28|64:36,2,100,12|2|2,0:0|0:0|0:0,0:0:0:0:
198,149,25036,6,0,L|202:217,1,50,8|0,0:0|0:0,0:0:0:0:
232,248,25397,2,0,L|236:316,1,50,0|0,0:0|0:0,0:0:0:0:
268,348,25759,1,8,0:0:0:0:
372,292,26120,2,0,P|404:256|376:108,1,200,10|8,0:0|0:0,0:0:0:0:
336,80,27024,1,0,0:0:0:0:
280,56,27205,22,0,B|224:36|184:56|184:56|132:84|72:48,1,200,2|2,0:0|0:0,0:0:0:0:
16,152,28289,2,0,P|52:224|4:348,1,200,2|0,0:0|0:0,0:0:0:0:
140,316,29373,22,0,B|196:296|236:316|236:316|288:344|348:308,1,200,2|2,0:0|0:0,0:0:0:0:
432,248,30458,2,0,L|432:44,1,200,2|2,0:0|0:0,0:0:0:0:
328,104,31542,6,0,B|248:112|208:48|208:48|184:64|196:120,1,200,6|2,0:0|0:0,0:0:0:0:
204,160,32446,1,2,0:0:0:0:
232,212,32626,2,0,P|240:252|228:328,2,100,2|2|0,0:0|0:0|0:0,0:0:0:0:
120,172,33711,22,0,P|92:80|168:8,1,200,2|2,0:0|0:0,0:0:0:0:
213,31,34614,1,2,0:0:0:0:
268,53,34795,2,0,B|316:81|372:57|372:57|424:37|484:65,1,200,2|2,0:0|0:0,0:0:0:0:
512,164,35879,22,0,B|540:220|512:300|512:300|476:300|444:276,1,200,2|2,0:0|0:0,0:0:0:0:
400,256,36783,1,0,0:0:0:0:
340,246,36964,2,0,B|296:226|244:246|244:246|188:266|128:238,1,200,2|2,0:0|0:0,0:0:0:0:
40,184,38048,6,0,B|8:128|20:64|64:44|64:44|84:64|108:80,1,200,2|2,0:0|0:0,0:0:0:0:
144,104,38952,1,0,0:0:0:0:
196,132,39132,2,0,P|244:144|304:132,2,100,2|2|2,0:0|0:0|0:0,0:0:0:0:
96,70,40217,21,12,0:2:0:0:
48,180,40578,1,0,0:2:0:0:
148,244,40940,1,8,0:2:0:0:
104,356,41301,2,0,L|216:356,1,100,8|2,0:2|0:2,0:0:0:0:
320,324,42024,2,0,L|384:324,1,50,2|12,0:2|0:2,0:0:0:0:
424,348,42385,22,0,P|436:304|424:236,1,100,12|0,0:2|0:2,0:0:0:0:
372,144,43108,2,0,P|432:140|476:112,1,100,8|8,0:2|0:2,0:0:0:0:
392,28,43831,1,12,0:2:0:0:
280,76,44193,1,12,0:2:0:0:
256,192,44554,6,0,P|294:223|342:235,2,100,2|2|0,0:2|0:2|0:2,0:0:0:0:
164,112,45638,1,0,0:2:0:0:
64,176,46000,1,2,0:2:0:0:
104,288,46361,2,0,L|160:292,1,50,2|12,0:2|0:2,0:0:0:0:
204,324,46723,22,0,B|256:332|256:332|312:324|312:324,2,100,6|2|2,0:2|0:2|0:2,0:0:0:0:
200,204,47807,2,0,B|252:196|252:196|308:204,1,100,2|6,0:2|0:2,0:0:0:0:
384,288,48530,1,6,0:2:0:0:
484,352,48891,22,0,P|500:308|484:236,1,100,6|2,0:2|0:2,0:0:0:0:
416,164,49614,1,2,0:2:0:0:
336,76,49976,2,0,L|228:64,1,100,2|2,0:2|0:2,0:0:0:0:
190,175,50699,2,0,L|122:167,1,50,2|12,0:2|0:2,0:0:0:0:
84,152,51060,6,0,B|96:180|84:204|84:204|72:232|88:264,2,100,12|2|2,0:2|0:2|0:2,0:0:0:0:
20,48,52144,2,0,P|64:32|132:40,1,100,2|12,0:2|0:2,0:0:0:0:
212,104,52867,1,12,0:2:0:0:
312,168,53229,22,0,P|360:176|412:168,2,100,6|2|2,0:2|0:2|0:2,0:0:0:0:
212,104,54313,1,8,0:2:0:0:
100,152,54674,2,0,L|96:264,1,100,2|2,0:2|0:2,0:0:0:0:
116,308,55217,1,12,0:2:0:0:
168,340,55397,22,0,P|212:352|268:336,1,100,6|0,0:2|0:0,0:0:0:0:
368,276,56120,1,2,0:2:0:0:
263,218,56482,2,0,P|215:205|167:220,1,100,2|6,0:2|0:2,0:0:0:0:
167,339,57205,1,6,0:2:0:0:
64,276,57566,6,0,B|-8:236|20:144|20:144|72:168,1,200,6|2,0:0|0:0,0:0:0:0:
168,220,58650,2,0,P|208:232|280:208,1,100,2|2,0:0|0:0,0:0:0:0:
368,156,59373,1,0,0:0:0:0:
476,104,59735,22,0,B|504:156|484:208|484:208|460:272|484:312,1,200,2|2,0:0|0:0,0:0:0:0:
372,356,60819,2,0,P|336:368|264:352,1,100,2|2,0:0|0:0,0:0:0:0:
176,292,61542,1,0,0:0:0:0:
275,232,61903,22,0,P|324:223|372:236,2,100,2|0|2,0:0|0:0|0:0,0:0:0:0:
176,292,62988,2,0,P|168:192|240:120,1,200,2|0,0:0|0:0,0:0:0:0:
128,60,64072,6,0,P|76:124|48:244,1,200,2|2,0:0|0:0,0:0:0:0:
108,340,65156,2,0,P|180:368|320:344,1,200,2|2,0:0|0:0,0:0:0:0:
396,280,66241,22,0,P|412:228|396:168,1,100,2|2,0:0|0:0,0:0:0:0:
316,104,66964,1,2,0:0:0:0:
212,160,67325,2,0,P|196:212|212:272,1,100,2|2,0:0|0:0,0:0:0:0:
292,336,68048,1,2,0:0:0:0:
396,280,68409,2,0,P|412:228|396:168,2,100,2|2|2,0:0|0:0|0:0,0:0:0:0:
292,336,69494,54,0,L|176:340,1,100,12|2,0:0|0:0,0:0:0:0:
72,345,70216,1,2,0:0:0:0:
20,236,70578,1,2,0:0:0:0:
124,176,70939,2,0,P|132:144|124:108,1,50,2|0,0:0|0:0,0:0:0:0:
100,76,71301,2,0,L|204:80,1,100,2|2,0:0|0:0,0:0:0:0:
320,84,72024,1,2,0:0:0:0:
428,140,72385,22,0,B|452:188|432:240|432:240|412:292|440:348,1,200,12|2,0:0|0:0,0:0:0:0:
332,272,73469,1,2,0:0:0:0:
240,348,73831,2,0,L|128:352,1,100,2|2,0:0|0:0,0:0:0:0:
40,288,74554,1,2,0:0:0:0:
136,216,74915,2,0,P|144:184|140:160,1,50,2|12,0:0|0:0,0:0:0:0:
104,120,75277,6,0,P|96:68|108:16,2,100,0|0|2,0:0|0:0|0:0,0:0:0:0:
224,120,76361,1,2,0:0:0:0:
344,120,76722,2,0,P|356:168|340:228,1,100,2|2,0:0|0:0,0:0:0:0:
304,260,77265,1,0,0:0:0:0:
256,300,77445,2,0,L|192:300,2,50,0|0|2,0:0|0:0|0:0,0:0:0:0:
364,356,78168,37,12,0:0:0:0:
472,300,78530,1,2,0:0:0:0:
364,248,78891,2,0,P|356:212|364:140,1,100,2|2,0:0|0:0,0:0:0:0:
400,36,79614,2,0,L|344:36,1,50,2|0,0:0|0:0,0:0:0:0:
296,60,79975,2,0,L|240:60,1,50,2|0,0:0|0:0,0:0:0:0:
200,96,80337,2,0,P|184:148|200:200,1,100,2|2,0:0|0:0,0:0:0:0:
292,264,81060,54,0,P|252:300|108:272,1,200,12|2,0:0|0:0,0:0:0:0:
80,168,82144,1,2,0:0:0:0:
184,104,82506,2,0,L|288:104,1,100,2|2,0:0|0:0,0:0:0:0:
404,104,83228,2,0,P|420:140|404:212,1,100,2|2,0:0|0:0,0:0:0:0:
336,292,83951,22,0,B|292:276|244:296|244:296|192:268|132:296,1,200,4|2,0:0|0:0,0:0:0:0:
28,336,85036,1,2,0:0:0:0:
56,220,85397,2,0,P|68:172|52:116,1,100,2|2,0:0|0:0,0:0:0:0:
24,8,86120,1,2,0:0:0:0:
132,64,86481,1,2,0:0:0:0:
188,44,86662,1,0,0:0:0:0:
244,24,86843,6,0,L|240:144,1,100,12|2,0:0|0:0,0:0:0:0:
344,184,87566,2,0,L|340:283,1,100,2|2,0:0|0:0,0:0:0:0:
300,328,88108,1,0,0:0:0:0:
248,356,88289,2,0,P|196:360|136:352,1,100,2|2,0:0|0:0,0:0:0:0:
72,264,89012,1,2,0:0:0:0:
152,176,89373,1,0,0:0:0:0:
80,80,89734,38,0,P|40:92|-8:84,2,75,12|2|0,0:0|0:0|0:0,0:0:0:0:
124,36,90457,2,0,P|160:16|232:24,1,100,2|2,0:0|0:0,0:0:0:0:
320,80,91180,1,2,0:0:0:0:
424,140,91542,1,2,0:0:0:0:
324,208,91903,1,2,0:0:0:0:
432,260,92265,1,2,0:0:0:0:
332,328,92626,53,12,0:0:0:0:
256,192,92987,12,12,95518,0:0:0:0:
144,328,98409,70,0,P|112:340|44:328,2,100,12|0|2,0:2|0:2|0:2,0:0:0:0:
228,244,99493,1,2,0:2:0:0:
336,300,99855,2,0,P|368:312|436:300,2,100,2|2|2,0:2|0:2|0:2,0:0:0:0:
228,244,100939,2,0,P|224:216|228:188,1,50,2|10,0:2|0:2,0:0:0:0:
248,140,101301,6,0,L|128:144,2,100,12|2|2,0:2|0:2|0:2,0:0:0:0:
360,96,102385,1,2,0:2:0:0:
436,188,102747,2,0,L|440:308,2,100,12|2|2,0:2|0:2|0:2,0:0:0:0:
360,96,103831,1,2,0:2:0:0:
248,140,104192,38,0,B|208:192|240:260|240:260|200:240|152:264,1,200,6|2,0:0|0:0,0:0:0:0:
80,340,105277,1,0,0:0:0:0:
20,236,105638,2,0,B|-8:168|40:96|40:96|68:108|88:140,1,200,2|2,0:0|0:0,0:0:0:0:
204,334,107084,22,0,P|264:342|308:214,1,200,2|2,0:0|0:0,0:0:0:0:
244,136,108168,1,0,0:0:0:0:
364,116,108530,2,0,L|484:128,2,100,2|2|2,0:0|0:0|0:0,0:0:0:0:
244,136,109614,1,2,0:0:0:0:
124,152,109975,22,0,L|24:142,1,100,2|2,0:0|0:0,0:0:0:0:
4,260,110698,2,0,L|103:269,1,100,0|0,0:0|0:0,0:0:0:0:
224,260,111421,2,0,P|236:296|224:360,2,100,2|0|2,0:0|0:0|0:0,0:0:0:0:
156,160,112506,1,0,0:0:0:0:
64,84,112867,6,0,P|124:52|256:92,1,200,2|2,0:0|0:0,0:0:0:0:
340,156,113951,2,0,P|332:188|340:224,1,50,0|2,0:0|0:0,0:0:0:0:
368,256,114313,2,0,B|384:296|360:340|360:340|416:316|480:344,1,200,2|0,0:0|0:0,0:0:0:0:
236,280,115759,22,0,L|128:284,1,100,2|2,0:0|0:0,0:0:0:0:
16,284,116481,2,0,L|12:176,1,100,2|2,0:0|0:0,0:0:0:0:
24,64,117204,2,0,B|172:40|172:40|144:84,1,200,8|2,0:0|0:0,0:0:0:0:
152,324,118650,53,14,0:0:0:0:
256,192,118831,12,0,120819,0:0:0:0:
