osu file format v14

[General]
AudioFilename: audio.ogg
AudioLeadIn: 0
PreviewTime: 246378
Countdown: 0
SampleSet: Soft
StackLeniency: 0.6
Mode: 0
LetterboxInBreaks: 0
WidescreenStoryboard: 1

[Editor]
DistanceSpacing: 0.2
BeatDivisor: 4
GridSize: 8
TimelineZoom: 2.7

[Metadata]
Title:Vitamins feat. world's end girlfriend
TitleUnicode:Vitamins feat. world's end girlfriend
Artist:Mili
ArtistUnicode:Mili
Creator:dahkjdas
Version:Extra
Source:
Tags:fa featured artists VoiceCore 3rd worlds millenium mother project saihate Records SNCL-00018 SNCL-00017 SNCL-00016 indie dance electronic english full version female vocalist vocals 2018 Cassie Momocashew Wei Yamato HAMO Kasai Yukihito Mitomo 三友行人 Shoto Yoshida 吉田翔人 Ao Fujimori Katsuhiko 前田勝彦 Maeda
BeatmapID:4013774
BeatmapSetID:1911093

[Difficulty]
HPDrainRate:5.5
CircleSize:4
OverallDifficulty:8.8
ApproachRate:9.3
SliderMultiplier:1.8
SliderTickRate:1

[Events]
//Background and Video events
0,0,"bg.jpg",0,0
//Break Periods
2,80988,88277
2,206518,213146
//Storyboard Layer 0 (Background)
//Storyboard Layer 1 (Fail)
//Storyboard Layer 2 (Pass)
//Storyboard Layer 3 (Foreground)
//Storyboard Layer 4 (Overlay)
//Storyboard Sound Samples

[TimingPoints]
245,314.13612565445,4,2,1,30,1,0
10297,-250,4,2,1,50,0,0
17836,-200,4,2,1,50,0,0
20349,-166.666666666667,4,2,1,60,0,0
29145,-250,4,2,1,60,0,0
30087,-100,4,2,1,60,0,0
30402,-100,4,2,1,70,0,0
39197,-125,4,2,1,60,0,0
39512,-142.857142857143,4,2,1,60,0,0
39826,-166.666666666667,4,2,1,60,0,0
40140,-200,4,2,1,60,0,0
40454,-111.111111111111,4,2,1,60,0,0
59302,-133.333333333333,4,2,1,60,0,0
60244,-200,4,2,1,60,0,0
60559,-200,4,2,1,50,0,0
69354,-133.333333333333,4,2,1,60,0,0
70611,-100,4,2,1,70,0,0
79407,-133.333333333333,4,2,1,70,0,0
80035,-133.333333333333,4,2,1,50,0,0
80349,-200,4,2,1,30,0,0
88831,-133.333333333333,4,2,1,50,0,0
90716,-200,4,2,1,30,0,0
99512,-133.333333333333,4,2,1,60,0,0
100768,-166.666666666667,4,2,1,70,0,0
107679,-133.333333333333,4,2,1,70,0,0
109564,-100,4,2,1,70,0,0
110820,-90.9090909090909,4,2,1,80,0,1
130925,-100,4,2,1,50,0,0
135951,-100,4,2,1,70,0,0
144747,-133.333333333333,4,2,1,60,0,0
146004,-133.333333333333,4,2,1,50,0,0
154799,-111.111111111111,4,2,1,60,0,0
156056,-133.333333333333,4,2,1,50,0,0
166108,-111.111111111111,4,2,1,60,0,0
175532,-166.666666666667,4,2,1,60,0,0
176161,-111.111111111111,4,2,1,60,0,0
184957,-133.333333333333,4,2,1,60,0,0
185899,-100,4,2,1,60,0,0
186213,-200,4,2,1,30,0,0
192496,-111.111111111111,4,2,1,50,0,0
193752,-200,4,2,1,50,0,0
195009,-133.333333333333,4,2,1,50,0,0
196265,-100,4,2,1,70,0,0
205061,-133.333333333333,4,2,1,70,0,0
205690,-133.333333333333,4,2,1,50,0,0
206004,-200,4,2,1,30,0,0
213700,-200,4,2,1,30,0,0
235218,-133.333333333333,4,2,1,60,0,0
236475,-166.666666666667,4,2,1,70,0,0
243386,-133.333333333333,4,2,1,70,0,0
245271,-100,4,2,1,70,0,0
246527,-90.9090909090909,4,2,1,80,0,1
266632,-83.3333333333333,4,2,1,85,0,1
284224,-100,4,2,1,85,0,1
285480,-83.3333333333333,4,2,1,85,0,1
286737,-200,4,2,1,50,0,0
295532,-83.3333333333333,4,2,1,80,0,0

[Colours]
Combo1 : 79,164,133
Combo2 : 128,0,32
Combo3 : 140,80,44
Combo4 : 70,146,185

[HitObjects]
256,192,7784,12,0,9983,0:0:0:0:
168,106,10297,6,0,B|123:177|55:218|55:218|208:126|393:162,1,504,2|0,0:0|0:0,0:0:0:0:
481,185,12810,2,0,P|472:112|393:260,1,504,2|0,0:0|0:0,0:0:0:0:
479,322,15323,2,0,B|319:223|196:371|196:371|174:269|240:197,1,504,2|2,0:0|0:0,0:0:0:0:
318,206,17836,6,0,P|317:169|312:103,2,90,2|2|2,0:0|0:0|0:0,0:0:0:0:
402,205,18621,1,0,0:0:0:0:
402,205,18779,2,0,P|394:238|390:259,1,45,2|2,0:0|0:0,0:0:0:0:
446,310,19093,6,0,P|420:327|393:328,1,45,2|2,0:0|0:0,0:0:0:0:
337,376,19407,2,0,P|309:361|294:339,1,45,2|2,0:0|0:0,0:0:0:0:
339,260,19721,1,2,0:0:0:0:
340,268,19878,1,2,0:0:0:0:
341,276,20035,1,2,0:0:0:0:
342,284,20192,1,2,0:0:0:0:
225,367,20349,6,0,P|192:329|78:350,1,161.999995056153,10|8,0:3|0:3,0:0:0:0:
19,380,20977,2,0,P|8:340|36:277,1,107.999996704102,2|2,0:3|0:3,0:0:0:0:
6,200,21606,6,0,P|59:207|117:215,1,107.999996704102,10|10,0:3|0:3,0:0:0:0:
146,143,22077,2,0,P|92:135|38:128,1,107.999996704102,10|2,0:3|0:3,0:0:0:0:
176,268,22548,1,2,0:3:0:0:
176,268,22862,6,0,P|228:264|294:261,1,107.999996704102,10|2,0:3|0:3,0:0:0:0:
361,276,23334,2,0,P|355:240|350:206,1,53.9999983520508,2|0,0:3|0:0,0:0:0:0:
461,86,23648,1,10,0:3:0:0:
504,168,23805,1,8,0:3:0:0:
504,168,24119,6,0,P|453:162|383:154,1,107.999996704102,10|2,0:3|0:3,0:0:0:0:
249,114,24590,1,2,0:3:0:0:
332,95,24747,1,8,0:3:0:0:
332,95,25061,2,0,P|325:141|322:172,1,53.9999983520508,2|8,0:3|0:3,0:0:0:0:
320,155,25297,1,8,0:3:0:0:
316,162,25375,6,0,P|311:214|304:286,1,107.999996704102,10|2,0:3|0:3,0:0:0:0:
267,342,25847,2,0,B|296:349|323:352|323:352|346:340|367:324,2,107.999996704102,10|2|0,0:3|0:3|0:0,0:0:0:0:
61,268,26632,6,0,P|103:263|172:255,1,107.999996704102,10|2,0:3|0:3,0:0:0:0:
234,206,27103,2,0,B|213:187|191:174|191:174|163:175|134:181,2,107.999996704102,10|2|0,0:3|0:3|0:0,0:0:0:0:
309,105,27888,6,0,P|334:128|418:127,1,107.999996704102,10|8,0:3|0:3,0:0:0:0:
387,9,28360,2,0,P|377:46|373:81,1,53.9999983520508,2|0,0:3|0:0,0:0:0:0:
243,145,28674,1,10,0:3:0:0:
243,145,28831,2,0,P|250:195|259:220,1,53.9999983520508
365,284,29145,6,0,B|453:268|420:312|507:300,1,144,10|0,0:3|0:0,0:0:0:0:
361,359,30087,6,0,P|347:356|330:355,6,22.5
327,353,30402,5,6,0:3:0:0:
271,184,30559,1,0,0:0:0:0:
155,357,30716,2,0,P|206:353|261:349,1,90,2|0,1:2|0:0,0:0:0:0:
365,284,31030,1,2,0:0:0:0:
243,360,31187,1,4,0:3:0:0:
271,184,31344,1,2,1:2:0:0:
242,371,31501,1,2,0:0:0:0:
66,271,31658,6,0,B|113:211|189:238|189:238|165:289,1,180,6|0,0:3|1:0,0:0:0:0:
85,163,32129,1,2,0:0:0:0:
82,154,32208,1,2,0:0:0:0:
80,145,32286,2,0,P|74:101|72:50,1,90,2|6,0:0|0:3,0:0:0:0:
271,184,32601,2,0,P|266:235|259:278,1,90,0|2,1:0|0:0,0:0:0:0:
111,350,32915,6,0,B|196:327|196:327|230:364|283:354,1,180,6|2,0:3|1:2,0:0:0:0:
430,232,33386,1,0,0:0:0:0:
259,273,33543,1,2,0:0:0:0:
432,315,33700,1,4,0:3:0:0:
356,171,33857,2,0,P|347:222|342:280,1,90,2|2,1:2|0:0,0:0:0:0:
130,160,34171,6,0,P|201:185|273:91,1,180,6|0,0:3|1:0,0:0:0:0:
355,71,34642,1,2,0:0:0:0:
353,79,34721,1,2,0:0:0:0:
351,87,34799,1,2,0:0:0:0:
191,105,34957,1,6,0:3:0:0:
356,171,35114,2,0,P|402:164|456:159,1,90,0|2,1:0|0:0,0:0:0:0:
216,270,35428,6,0,P|170:263|116:258,1,90,6|0,0:3|0:0,0:0:0:0:
160,348,35742,1,2,1:2:0:0:
160,348,35899,1,0,0:0:0:0:
303,278,36056,1,2,0:0:0:0:
173,184,36213,1,4,0:3:0:0:
277,360,36370,2,0,P|323:353|377:348,1,90,2|2,1:2|0:0,0:0:0:0:
499,249,36684,6,0,P|457:193|356:204,1,180,6|0,0:3|1:0,0:0:0:0:
416,267,37155,1,0,0:0:0:0:
306,138,37313,2,0,P|279:176|279:234,1,90,2|6,0:0|0:3,0:0:0:0:
127,285,37627,2,0,P|122:331|151:381,1,90,2|0,1:2|0:0,0:0:0:0:
380,340,37941,6,0,P|296:328|175:316,2,180,6|2|2,0:3|1:2|0:0,0:0:0:0:
298,247,38726,1,4,0:3:0:0:
460,222,38883,1,2,1:2:0:0:
460,222,39197,6,0,P|432:256|387:265,1,72,2|2,0:0|0:0,0:0:0:0:
278,107,39512,6,0,P|303:126|316:155,1,62.9999980773926,2|2,0:0|0:0,0:0:0:0:
385,188,39826,6,0,P|393:162|390:135,1,53.9999983520508,2|2,0:0|0:0,0:0:0:0:
240,175,40140,6,0,P|219:169|197:170,1,45,2|0,0:0|0:0,0:0:0:0:
39,328,40454,6,0,B|134:313|94:355|200:340,1,161.999995056153,6|0,0:3|1:0,0:0:0:0:
348,263,40925,1,0,0:0:0:0:
265,235,41082,2,0,P|267:277|274:323,1,80.9999975280763,0|4,0:0|0:3,0:0:0:0:
422,378,41396,2,0,P|427:335|428:289,1,80.9999975280763,2|0,1:2|0:0,0:0:0:0:
488,230,41632,1,2,0:0:0:0:
486,237,41710,6,0,P|445:276|347:262,1,161.999995056153,6|0,0:3|1:0,0:0:0:0:
381,121,42182,2,0,B|416:89|416:89|402:226,1,161.999995056153,0|4,0:0|0:3,0:0:0:0:
274,302,42653,2,0,L|180:293,1,80.9999975280763,2|0,1:2|0:0,0:0:0:0:
186,297,42888,1,2,0:0:0:0:
178,300,42967,6,0,L|84:290,1,80.9999975280763,6|0,0:3|0:0,0:0:0:0:
268,137,43281,2,0,L|187:145,1,80.9999975280763,2|0,1:2|0:0,0:0:0:0:
42,164,43595,1,2,0:0:0:0:
158,217,43752,1,4,0:3:0:0:
96,98,43909,2,0,P|90:40|90:6,1,80.9999975280763,2|0,1:2|0:0,0:0:0:0:
83,23,44145,1,2,0:0:0:0:
77,28,44224,6,0,P|113:71|217:61,2,161.999995056153,6|2|2,0:3|1:2|0:0,0:0:0:0:
182,216,45009,1,4,0:3:0:0:
81,144,45166,1,2,1:2:0:0:
268,171,45323,1,2,0:0:0:0:
266,179,45402,1,2,0:0:0:0:
264,186,45480,6,0,P|255:275|247:370,1,161.999995056153,6|2,0:3|0:0,0:0:0:0:
360,317,45951,2,0,P|366:246|377:148,1,161.999995056153,2|4,0:0|0:3,0:0:0:0:
223,270,46423,1,2,1:2:0:0:
223,270,46737,6,0,P|170:214|83:228,1,161.999995056153,6|2,0:3|0:0,0:0:0:0:
4,257,47208,2,0,P|57:313|144:299,1,161.999995056153,2|4,0:0|0:3,0:0:0:0:
251,178,47679,1,2,1:2:0:0:
251,178,47836,1,4,0:3:0:0:
363,264,47993,6,0,P|316:259|268:254,1,80.9999975280763,6|0,0:3|0:0,0:0:0:0:
91,222,48307,2,0,P|138:217|186:212,1,80.9999975280763,2|0,1:2|0:0,0:0:0:0:
336,177,48621,2,0,L|343:85,1,80.9999975280763,2|4,0:0|0:3,0:0:0:0:
343,88,48857,1,2,0:0:0:0:
344,80,48936,1,2,1:2:0:0:
251,178,49093,1,0,0:0:0:0:
401,245,49250,6,0,P|456:226|470:145,1,121.499996292114,6|0,0:3|0:0,0:0:0:0:
467,163,49564,2,0,P|442:135|457:73,1,80.9999975280763,2|0,1:2|0:0,0:0:0:0:
492,30,49878,1,2,0:0:0:0:
346,74,50035,1,4,0:3:0:0:
501,27,50192,1,2,1:2:0:0:
360,158,50349,1,2,0:0:0:0:
352,155,50428,1,2,0:0:0:0:
344,153,50506,6,0,P|276:147|160:141,2,161.999995056153,6|0|0,0:3|1:0|0:0,0:0:0:0:
257,66,51292,1,4,0:3:0:0:
416,114,51449,2,0,P|426:164|408:208,1,80.9999975280763,2|0,1:2|0:0,0:0:0:0:
420,199,51684,1,2,0:0:0:0:
422,206,51763,5,6,0:3:0:0:
474,372,51920,1,0,0:0:0:0:
314,308,52077,2,0,P|361:285|406:295,1,80.9999975280763,0|0,1:0|0:0,0:0:0:0:
370,364,52391,1,2,0:0:0:0:
296,226,52548,1,4,0:3:0:0:
254,369,52705,2,0,P|187:362|148:359,1,101.249996910095,2|0,1:2|0:0,0:0:0:0:
14,285,53019,6,0,P|48:280|103:311,1,80.9999975280763,6|0,0:3|0:0,0:0:0:0:
117,183,53334,2,0,P|144:203|161:264,1,80.9999975280763,6|0,0:3|0:0,0:0:0:0:
262,191,53648,2,0,P|267:225|236:280,1,80.9999975280763,6|0,0:3|0:0,0:0:0:0:
359,298,53963,2,0,P|338:325|277:342,1,80.9999975280763,6|0,0:3|0:0,0:0:0:0:
288,345,54197,1,2,0:0:0:0:
280,347,54276,6,0,P|237:350|187:357,1,80.9999975280763,6|0,0:3|0:0,0:0:0:0:
356,216,54590,2,0,P|399:219|449:226,1,80.9999975280763,0|0,1:0|0:0,0:0:0:0:
473,70,54904,1,2,0:0:0:0:
315,124,55061,1,4,0:3:0:0:
397,140,55218,2,0,P|393:94|388:51,1,80.9999975280763,2|0,1:2|0:0,0:0:0:0:
239,157,55532,5,6,0:3:0:0:
232,230,55690,1,4,0:3:0:0:
225,302,55847,1,4,0:3:0:0:
219,374,56004,1,4,0:3:0:0:
219,374,56475,2,0,L|308:365,1,80.9999975280763,0|4,1:0|0:3,0:0:0:0:
372,254,56789,5,6,0:3:0:0:
301,262,56946,1,4,0:3:0:0:
229,270,57103,1,4,0:3:0:0:
157,280,57261,1,4,0:3:0:0:
157,280,57731,2,0,L|163:188,1,80.9999975280763,0|4,1:0|0:3,0:0:0:0:
113,55,58046,5,6,0:3:0:0:
181,29,58203,1,4,0:3:0:0:
247,58,58360,1,4,0:3:0:0:
264,128,58517,1,4,0:3:0:0:
264,128,58988,2,0,L|175:134,1,80.9999975280763,0|4,1:0|0:3,0:0:0:0:
303,60,59302,6,0,P|335:93|316:188,1,135.000005149842,6|0,0:3|0:0,0:0:0:0:
255,209,59773,2,0,P|223:242|242:337,1,135.000005149842,6|0,0:3|0:0,0:0:0:0:
294,369,60244,2,0,L|349:366,2,45,6|0|4,0:3|0:0|3:2,0:0:0:0:
37,236,61187,5,2,0:0:0:0:
89,174,61501,1,2,0:0:0:0:
158,215,61815,1,2,3:2:0:0:
296,137,64014,5,2,0:0:0:0:
191,61,64328,1,2,3:2:0:0:
320,61,64642,1,2,0:0:0:0:
217,137,64956,1,2,0:0:0:0:
256,16,65271,1,0,0:0:0:0:
475,236,65585,5,6,3:2:0:0:
475,236,66213,1,2,0:0:0:0:
423,174,66527,1,2,0:0:0:0:
354,215,66841,1,2,3:2:0:0:
354,215,68726,6,0,L|362:352,1,135,2|0,0:0|0:0,0:0:0:0:
365,355,69354,6,0,P|326:366|271:332,2,101.250003862381,2|2|2,0:0|0:0|0:0,0:0:0:0:
197,366,69983,2,0,P|200:321|201:290,1,67.5000025749208,2|0,1:2|0:0,0:0:0:0:
285,181,70297,2,0,P|282:226|281:257,1,67.5000025749208,2|2,0:0|0:0,0:0:0:0:
276,256,70532,1,2,0:0:0:0:
271,263,70611,5,6,0:3:0:0:
124,323,70768,1,0,0:0:0:0:
275,338,70925,1,0,1:0:0:0:
141,245,71082,1,0,0:0:0:0:
283,344,71239,2,0,P|351:337|390:334,1,90,2|4,0:0|0:3,0:0:0:0:
502,258,71553,2,0,P|434:251|395:248,1,90,0|0,1:0|0:0,0:0:0:0:
271,263,71868,6,0,B|232:231|209:198|209:198|217:160|233:108,1,180,6|2,0:3|1:2,0:0:0:0:
260,21,72339,2,0,B|299:53|322:86|322:86|314:124|298:176,1,180,2|4,0:0|0:3,0:0:0:0:
179,280,72810,2,0,P|124:273|73:269,1,90,2|0,1:2|0:0,0:0:0:0:
98,123,73124,6,0,B|152:85|152:85|139:222,1,180,6|0,0:3|1:0,0:0:0:0:
241,329,73595,2,0,P|257:287|249:244,1,90,2|0,0:0|0:0,0:0:0:0:
26,220,73909,1,4,0:3:0:0:
26,220,74066,2,0,P|10:261|18:305,1,90,0|0,1:0|0:0,0:0:0:0:
158,373,74381,6,0,P|234:364|355:355,1,180,4|0,1:2|0:0,0:0:0:0:
303,76,75009,1,4,1:2:0:0:
329,214,75166,1,0,0:0:0:0:
386,93,75323,1,0,1:0:0:0:
247,202,75480,1,2,0:0:0:0:
239,207,75559,1,2,0:0:0:0:
231,212,75637,6,0,P|171:233|85:144,1,180,6|2,0:3|1:2,0:0:0:0:
181,65,76108,2,0,P|173:139|168:187,1,90,2|0,0:0|0:0,0:0:0:0:
173,316,76423,1,6,0:3:0:0:
24,221,76580,1,0,1:2:0:0:
109,369,76737,1,0,0:0:0:0:
240,265,76894,6,0,P|199:237|93:294,1,180,6|2,0:3|1:2,0:0:0:0:
249,344,77365,2,0,P|315:339|367:336,1,90,2|0,0:0|0:0,0:0:0:0:
459,246,77679,1,6,0:3:0:0:
321,260,77836,1,0,1:2:0:0:
480,353,77993,1,0,0:0:0:0:
312,248,78150,6,0,B|281:191|301:109|301:109|340:155,1,180,6|0,0:3|1:2,0:0:0:0:
405,97,78621,2,0,B|436:154|416:236|416:236|377:190,1,180,2|6,0:0|0:3,0:0:0:0:
228,70,79093,1,0,1:2:0:0:
228,70,79407,6,0,P|182:144|22:116,1,270.000010299683,6|4,0:0|0:3,0:0:0:0:
22,116,80349,1,2,0:0:0:0:
119,44,80663,2,0,L|115:77,2,18,2|0|0,0:0|0:0|0:0,0:0:0:0:
251,131,88831,6,0,B|190:193|111:162|111:162|125:103,1,202.500007724762,0|0,1:2|0:0,0:0:0:0:
122,114,89459,6,0,P|88:97|47:103,1,67.5000025749208
158,16,89773,2,0,P|181:39|191:71,1,67.5000025749208
108,242,90087,2,0,P|84:218|74:186,1,67.5000025749208,0|2,0:0|0:0,0:0:0:0:
72,180,90323,1,2,0:0:0:0:
72,173,90402,1,2,0:0:0:0:
223,201,90559,1,0,0:0:0:0:
223,201,90716,6,0,L|216:254,1,45,2|0,0:0|0:0,0:0:0:0:
250,317,91030,2,0,L|197:326,1,45
149,379,91344,2,0,L|123:332,1,45
55,305,91658,2,0,L|91:266,1,45,2|0,0:0|0:0,0:0:0:0:
143,215,91972,6,0,L|102:195,1,45,2|0,0:0|0:0,0:0:0:0:
85,272,92286,2,0,L|55:305,1,45,2|0,0:0|0:0,0:0:0:0:
127,339,92601,2,0,L|149:379,1,45,2|0,0:0|0:0,0:0:0:0:
205,325,92915,2,0,L|250:317,1,45,2|0,0:0|0:0,0:0:0:0:
217,245,93229,6,0,L|223:201,1,45,2|0,0:0|0:0,0:0:0:0:
231,122,93543,2,0,L|236:77,1,45,2|0,0:0|0:0,0:0:0:0:
85,26,93857,2,0,L|90:70,1,45,2|0,0:0|0:0,0:0:0:0:
98,149,94171,2,0,L|103:193,1,45
115,270,94485,1,2,0:0:0:0:
289,280,95428,5,2,0:0:0:0:
289,280,95742,2,0,B|401:303|346:243|465:264,1,180,2|0,0:0|0:0,0:0:0:0:
463,263,96684,1,2,0:0:0:0:
338,116,96998,1,2,0:0:0:0:
338,116,97313,2,0,P|333:165|330:219,1,90,2|0,0:0|0:0,0:0:0:0:
210,301,98255,6,0,P|185:261|61:278,1,180,2|2,0:0|0:0,0:0:0:0:
66,270,99512,2,0,P|48:235|56:194,1,67.5000025749208,2|0,0:0|0:0,0:0:0:0:
196,120,99826,2,0,P|214:155|206:196,1,67.5000025749208,2|0,0:0|0:0,0:0:0:0:
151,288,100140,2,0,P|141:231|134:205,1,67.5000025749208,2|0,0:0|0:0,0:0:0:0:
298,164,100454,2,0,P|290:196|285:230,1,67.5000025749208,2|0,0:0|0:0,0:0:0:0:
293,352,100768,1,6,1:2:0:0:
256,192,100847,12,2,105166,0:0:0:0:
384,92,105794,6,0,B|432:52|432:52|295:61|295:61|210:69|194:148|194:148|177:245,1,431.999986816407,6|2,0:3|1:2,0:0:0:0:
178,233,107679,6,0,P|142:238|105:251,1,67.5000025749208,2|2,0:0|0:0,0:0:0:0:
126,329,107993,2,0,P|158:318|191:314,1,67.5000025749208,2|2,0:0|0:0,0:0:0:0:
256,264,108307,5,6,0:3:0:0:
49,301,108621,1,4,0:3:0:0:
256,104,108936,5,4,0:3:0:0:
464,141,109250,1,6,0:3:0:0:
332,331,109564,6,0,P|337:282|342:235,1,90,2|0,1:2|0:0,0:0:0:0:
256,104,109878,2,0,P|260:148|265:193,1,90,2|2,1:2|0:0,0:0:0:0:
201,325,110192,2,0,L|140:332,3,45,2|0|2|0,1:2|0:0|0:0|0:0,0:0:0:0:
100,267,110506,1,2,1:2:0:0:
102,239,110585,1,0,1:0:0:0:
104,212,110663,1,2,1:2:0:0:
106,184,110742,1,0,1:0:0:0:
108,156,110820,6,0,P|146:118|246:134,1,148.50000453186,6|0,3:2|0:0,0:0:0:0:
244,120,111135,2,0,P|247:181|250:229,1,99.0000030212403,0|0,1:0|0:0,0:0:0:0:
237,37,111449,1,2,0:0:0:0:
420,176,111606,1,6,0:3:0:0:
420,176,111763,2,0,P|360:169|301:157,1,99.0000030212403,2|0,1:2|0:0,0:0:0:0:
60,316,112077,6,0,P|115:269|187:278,1,148.50000453186,6|0,0:3|0:0,0:0:0:0:
194,283,112391,1,0,1:0:0:0:
145,371,112548,1,2,0:0:0:0:
142,361,112627,1,2,0:0:0:0:
140,351,112705,1,2,0:0:0:0:
97,192,112862,1,6,0:3:0:0:
271,233,113019,1,2,1:2:0:0:
255,340,113176,1,0,0:0:0:0:
425,287,113334,6,0,P|369:292|315:300,1,99.0000030212403,6|0,0:3|0:0,0:0:0:0:
161,361,113648,2,0,P|155:305|147:251,1,99.0000030212403,0|0,1:0|0:0,0:0:0:0:
87,97,113962,2,0,P|142:91|196:83,1,99.0000030212403,2|6,0:0|0:3,0:0:0:0:
351,23,114276,2,0,P|356:78|364:132,1,99.0000030212403,2|0,1:2|0:0,0:0:0:0:
313,197,114590,5,6,0:3:0:0:
454,128,114747,1,2,0:0:0:0:
277,78,114904,1,2,1:2:0:0:
452,141,115061,1,2,0:0:0:0:
259,258,115218,1,2,0:0:0:0:
362,121,115375,1,6,0:3:0:0:
489,294,115532,2,0,P|432:285|377:278,1,99.0000030212403,2|0,1:2|0:0,1:2:0:0:
385,367,115847,6,0,P|310:309|331:217,1,198.000006042481,6|0,0:3|1:0,0:0:0:0:
176,296,116318,1,2,0:0:0:0:
166,299,116396,1,2,0:0:0:0:
156,302,116475,1,2,0:0:0:0:
233,368,116632,1,6,0:3:0:0:
259,259,116789,2,0,P|250:199|242:147,1,99.0000030212403,2|0,1:2|0:0,0:0:0:0:
180,57,117103,5,6,0:3:0:0:
324,124,117260,1,0,0:0:0:0:
171,215,117417,2,0,P|113:208|55:201,1,99.0000030212403,0|0,1:0|0:0,0:0:0:0:
101,323,117731,1,2,0:0:0:0:
259,259,117888,1,6,0:3:0:0:
96,311,118046,1,2,1:2:0:0:
280,375,118203,1,2,0:0:0:0:
266,177,118360,6,0,B|231:176|205:197|205:197|213:48,1,198.000006042481,6|0,0:3|1:0,0:0:0:0:
344,158,118831,1,2,0:0:0:0:
345,167,118909,1,2,0:0:0:0:
346,176,118988,1,2,0:0:0:0:
323,80,119145,1,6,0:3:0:0:
259,259,119302,1,2,1:2:0:0:
425,159,119459,1,2,0:0:0:0:
398,345,119616,6,0,P|348:341|271:331,1,99.0000030212403,6|0,0:3|0:0,0:0:0:0:
115,194,119930,2,0,P|165:190|242:180,1,99.0000030212403,0|0,1:0|0:0,0:0:0:0:
425,159,120244,1,2,0:0:0:0:
351,237,120402,1,6,0:3:0:0:
296,59,120559,1,2,1:2:0:0:
348,249,120716,1,2,0:0:0:0:
496,113,120873,6,0,P|444:77|358:105,1,148.50000453186,6|0,3:2|0:0,0:0:0:0:
362,106,121187,2,0,L|252:97,1,99.0000030212403,0|0,1:0|0:0,0:0:0:0:
90,156,121501,1,2,0:0:0:0:
164,16,121658,1,6,0:3:0:0:
164,16,121815,2,0,P|170:71|177:125,1,99.0000030212403,2|0,1:2|0:0,0:0:0:0:
144,278,122129,6,0,P|196:242|282:270,1,148.50000453186,6|0,0:3|0:0,0:0:0:0:
281,268,122443,1,0,1:0:0:0:
363,196,122601,1,2,0:0:0:0:
361,187,122680,1,2,0:0:0:0:
359,178,122758,1,2,0:0:0:0:
263,97,122915,1,6,0:3:0:0:
428,138,123072,1,2,1:2:0:0:
280,176,123229,1,0,0:0:0:0:
435,39,123386,6,0,P|430:103|427:155,1,99.0000030212403,6|0,0:3|0:0,0:0:0:0:
193,252,123700,2,0,P|196:202|200:153,1,99.0000030212403,0|0,1:0|0:0,0:0:0:0:
77,39,124014,2,0,P|82:103|85:155,1,99.0000030212403,2|6,0:0|0:3,0:0:0:0:
319,252,124328,2,0,P|315:202|311:153,1,99.0000030212403,2|0,1:2|0:0,0:0:0:0:
253,88,124642,5,6,0:3:0:0:
118,211,124799,1,2,0:0:0:0:
176,75,124957,1,2,1:2:0:0:
112,219,125114,1,2,0:0:0:0:
100,61,125271,1,2,0:0:0:0:
192,230,125428,1,6,0:3:0:0:
18,155,125585,2,0,P|28:210|37:264,1,99.0000030212403,2|0,1:2|0:0,1:2:0:0:
109,329,125899,6,0,P|157:284|288:311,1,198.000006042481,6|0,0:3|1:0,0:0:0:0:
222,372,126370,1,2,0:0:0:0:
212,368,126449,1,2,0:0:0:0:
202,364,126527,1,2,0:0:0:0:
178,248,126684,1,6,0:3:0:0:
366,268,126841,2,0,P|362:326|355:379,1,99.0000030212403,2|0,1:2|0:0,0:0:0:0:
178,248,127155,6,0,P|171:190|169:136,1,99.0000030212403,6|0,0:3|0:0,0:0:0:0:
367,59,127470,2,0,P|363:117|356:170,1,99.0000030212403,0|0,1:0|0:0,0:0:0:0:
248,190,127784,1,2,0:0:0:0:
86,147,127941,1,6,0:3:0:0:
240,109,128098,1,2,1:2:0:0:
94,228,128255,1,2,0:0:0:0:
247,304,128412,6,0,P|312:297|367:294,1,99.0000030212403,6|0,0:3|0:0,0:0:0:0:
182,253,128726,2,0,P|165:300|189:359,1,99.0000030212403,0|0,1:0|0:0,0:0:0:0:
271,133,129040,2,0,P|221:131|172:172,1,99.0000030212403,2|6,0:0|0:3,0:0:0:0:
416,184,129354,2,0,P|402:135|348:102,1,99.0000030212403,2|2,1:2|0:0,0:0:0:0:
297,55,129669,5,6,0:3:0:0:
297,55,129826,1,6,0:3:0:0:
345,294,129983,1,2,1:2:0:0:
345,294,130140,1,2,0:0:0:0:
487,132,130297,1,2,1:2:0:0:
337,186,130454,1,6,0:3:0:0:
421,339,130611,1,2,1:2:0:0:
258,300,130768,1,2,0:0:0:0:
422,259,130925,1,0,3:2:0:0:
256,192,131004,12,0,135637,0:0:0:0:
201,321,135951,6,0,P|136:348|62:253,1,180,6|2,0:3|1:2,0:0:0:0:
230,224,136423,1,0,0:0:0:0:
71,173,136580,1,2,0:0:0:0:
141,266,136737,1,4,0:3:0:0:
178,108,136894,2,0,P|171:45|167:6,1,90,2|2,1:2|0:0,0:0:0:0:
333,134,137208,6,0,P|378:161|352:294,1,180,6|0,0:3|1:0,0:0:0:0:
323,337,137679,1,0,0:0:0:0:
317,343,137758,1,0,0:0:0:0:
312,350,137836,2,0,P|357:354|412:359,1,90,2|6,0:0|0:3,0:0:0:0:
319,216,138150,2,0,P|267:220|220:224,1,90,0|2,1:0|0:0,0:0:0:0:
177,339,138464,6,0,P|113:280|25:304,1,180,6|2,0:3|1:2,0:0:0:0:
91,361,138936,1,0,0:0:0:0:
118,198,139093,2,0,P|110:140|103:88,1,90,2|4,0:0|0:3,0:0:0:0:
155,35,139407,1,2,1:2:0:0:
26,124,139564,1,2,0:0:0:0:
196,216,139721,6,0,P|230:178|356:197,1,180,6|0,0:3|1:0,0:0:0:0:
279,267,140192,1,0,0:0:0:0:
280,258,140271,1,0,0:0:0:0:
281,249,140349,1,2,0:0:0:0:
295,82,140506,1,6,0:3:0:0:
433,161,140663,2,0,P|426:219|421:263,1,90,0|2,1:0|0:0,0:0:0:0:
401,348,140977,6,0,P|359:369|304:358,1,90,6|0,3:0|3:0,0:0:0:0:
111,348,141292,2,0,P|152:369|207:358,1,90,2|0,1:2|3:0,0:0:0:0:
396,217,141606,2,0,P|381:261|335:292,1,90,2|4,3:0|3:0,0:0:0:0:
116,217,141920,2,0,P|130:261|176:292,1,90,2|2,1:3|3:0,0:0:0:0:
350,48,142234,5,6,3:0:0:0:
350,48,142391,1,0,3:0:0:0:
197,212,142548,2,0,P|189:148|184:105,1,90,0|0,1:0|3:0,0:0:0:0:
162,48,142862,1,2,3:0:0:0:
162,48,143019,1,6,3:0:0:0:
315,212,143176,2,0,P|323:148|328:105,1,90,2|0,1:3|3:0,0:0:0:0:
48,173,143491,6,0,P|62:231|106:253,1,90,6|0,3:0|3:0,0:0:0:0:
131,339,143805,2,0,P|190:343|225:308,1,90,2|0,1:3|3:0,0:0:0:0:
464,173,144119,2,0,P|450:231|406:253,1,90,2|4,3:0|3:0,0:0:0:0:
381,339,144433,2,0,P|321:343|286:308,1,90,2|2,1:3|3:0,0:0:0:0:
254,164,144747,5,4,0:3:0:0:
308,228,144904,1,0,0:0:0:0:
257,245,145061,1,0,1:0:0:0:
206,228,145218,1,6,0:3:0:0:
254,164,145375,5,2,0:0:0:0:
256,329,145532,1,6,0:3:0:0:
153,287,145690,1,2,1:3:0:0:
359,287,145847,1,2,0:0:0:0:
182,360,146004,6,0,P|147:367|77:284,1,134.999995880127,6|4,0:3|0:3,0:0:0:0:
91,164,146475,1,4,0:3:0:0:
91,164,146946,1,2,1:2:0:0:
262,142,147260,5,6,0:3:0:0:
262,142,147417,2,0,L|258:218,1,67.5000025749208,4|6,0:3|0:3,0:0:0:0:
174,236,147731,2,0,L|181:94,1,135.000005149842,6|6,0:3|0:3,0:0:0:0:
341,178,148203,1,2,1:2:0:0:
341,178,148517,6,0,L|417:173,1,67.5000025749208,6|4,0:3|0:3,0:0:0:0:
390,334,148831,1,2,1:2:0:0:
460,289,148988,2,0,P|417:257|330:279,1,135.000005149842,6|2,0:3|1:2,0:0:0:0:
256,370,149459,1,4,0:3:0:0:
256,370,149773,6,0,L|260:290,1,67.5000025749208,6|4,0:3|0:3,0:0:0:0:
196,173,150087,1,6,0:3:0:0:
196,173,150244,1,6,0:3:0:0:
353,227,150716,6,0,L|284:220,1,67.5000025749208,0|4,0:0|0:3,0:0:0:0:
278,222,150951,1,4,0:3:0:0:
271,223,151030,6,0,P|275:162|283:77,1,135.000005149842,6|2,0:3|0:0,0:0:0:0:
101,23,151501,2,0,P|107:90|111:157,1,135.000005149842,2|2,0:0|0:0,0:0:0:0:
36,286,151972,1,0,0:0:0:0:
36,286,152286,6,0,B|62:269|96:273|96:273|122:301|163:294,1,135.000005149842,6|2,0:3|0:0,0:0:0:0:
173,141,152758,2,0,B|147:118|147:118|154:241,1,135.000005149842,2|2,0:0|0:0,0:0:0:0:
160,372,153229,1,0,0:0:0:0:
160,372,153543,6,0,P|206:364|248:360,1,67.5000025749208,6|4,0:3|0:3,0:0:0:0:
337,241,153857,1,4,0:3:0:0:
384,311,154014,2,0,P|316:323|258:265,1,135.000005149842,2|6,0:3|0:3,0:0:0:0:
204,237,154485,2,0,P|241:209|287:213,1,67.5000025749208
403,164,154799,6,0,P|402:185|392:205,1,40.4999987640381,2|0,1:2|0:0,0:0:0:0:
288,135,154957,1,2,1:2:0:0:
296,139,155035,2,0,P|314:150|326:167,1,40.4999987640381,2|0,1:2|0:0,0:0:0:0:
435,266,155231,2,0,P|415:275|393:277,1,40.4999987640381,0|0,1:2|1:2,0:0:0:0:
257,323,155428,2,0,P|258:300|267:281,7,40.4999987640381,4|4|4|4|4|4|4|4,0:3|0:3|0:3|0:3|0:3|0:3|0:3|0:3,0:0:0:0:
328,242,156056,6,0,P|257:250|190:258,2,135.000005149842,4|0|2,0:3|1:0|0:0,0:0:0:0:
378,178,156841,1,0,0:0:0:0:
404,254,156998,2,0,P|397:309|393:339,1,67.5000025749208,2|0,1:2|0:0,0:0:0:0:
299,167,157313,6,0,P|308:96|317:28,1,135.000005149842,2|0,0:0|1:0,0:0:0:0:
112,80,157941,1,0,0:0:0:0:
130,158,158098,1,0,0:0:0:0:
188,102,158255,1,0,1:0:0:0:
52,136,158569,6,0,P|47:192|40:285,2,135.000005149842,0|0|0,0:0|1:0|0:0,0:0:0:0:
23,60,159354,1,0,0:0:0:0:
103,72,159512,2,0,P|139:68|186:53,1,67.5000025749208,2|0,1:2|0:0,0:0:0:0:
246,37,159826,6,0,P|250:73|265:120,1,67.5000025749208,2|0,0:0|0:0,0:0:0:0:
273,182,160140,2,0,P|237:186|190:201,1,67.5000025749208,2|0,1:2|0:0,0:0:0:0:
130,217,160454,2,0,P|126:181|111:134,2,67.5000025749208,2|0|0,0:0|0:0|1:0,0:0:0:0:
192,274,160925,1,0,0:0:0:0:
192,274,161082,6,0,P|149:297|61:264,2,135.000005149842,6|0|2,0:3|1:0|0:0,0:0:0:0:
230,345,161868,1,0,0:0:0:0:
305,315,162025,2,0,P|360:309|394:307,1,67.5000025749208,2|0,1:2|0:0,0:0:0:0:
266,242,162339,6,0,P|271:184|280:94,1,135.000005149842,2|0,0:0|1:0,0:0:0:0:
433,56,162967,1,0,0:0:0:0:
406,132,163124,1,0,0:0:0:0:
354,69,163281,1,0,1:0:0:0:
489,122,163595,6,0,P|482:173|472:266,2,135.000005149842,0|0|0,0:0|1:0|0:0,0:0:0:0:
389,233,164381,1,0,0:0:0:0:
389,233,164538,2,0,P|392:278|400:314,1,67.5000025749208,2|0,0:0|0:0,0:0:0:0:
453,364,164852,5,6,0:3:0:0:
313,274,165166,1,6,0:3:0:0:
256,192,165480,1,6,0:3:0:0:
199,274,165794,1,6,0:3:0:0:
57,362,166108,6,0,L|151:354,1,80.9999975280763,6|0,0:3|0:0,0:0:0:0:
313,274,166423,2,0,L|323:186,1,80.9999975280763,0|0,1:3|0:0,0:0:0:0:
455,362,166737,2,0,L|361:354,1,80.9999975280763,4|0,0:3|0:0,0:0:0:0:
199,274,167051,2,0,L|189:193,1,80.9999975280763,2|0,1:3|0:0,0:0:0:0:
189,185,167286,1,2,0:0:0:0:
188,176,167365,5,6,0:3:0:0:
118,237,167522,1,0,0:0:0:0:
263,130,167679,2,0,L|269:45,1,80.9999975280763,0|0,1:3|0:0,0:0:0:0:
118,237,167993,2,0,L|112:322,1,80.9999975280763,4|0,0:3|0:0,0:0:0:0:
307,336,168307,2,0,L|347:332,2,40.4999987640381,2|0|0,1:3|0:0|0:0,0:0:0:0:
392,271,168621,6,0,P|418:300|422:340,1,80.9999975280763,6|0,0:3|0:0,0:0:0:0:
233,365,168936,2,0,P|225:325|243:289,1,80.9999975280763,2|0,1:3|0:0,0:0:0:0:
311,232,169250,2,0,L|298:121,1,80.9999975280763,6|0,0:3|0:0,0:0:0:0:
375,105,169485,1,2,0:0:0:0:
376,113,169564,2,0,L|387:209,1,80.9999975280763,2|0,1:3|0:0,0:0:0:0:
229,214,169878,5,6,0:3:0:0:
97,182,170035,1,0,0:0:0:0:
176,139,170192,1,0,1:3:0:0:
149,257,170349,1,0,0:0:0:0:
43,108,170506,5,4,0:3:0:0:
43,108,170663,1,0,0:0:0:0:
83,316,170820,1,2,1:3:0:0:
229,214,170977,2,0,L|270:212,2,40.4999987640381,2|2|6,0:0|0:0|0:3,0:0:0:0:
229,214,171920,5,4,0:3:0:0:
338,263,172077,2,0,P|344:214|352:165,1,80.9999975280763,2|0,1:3|0:0,0:0:0:0:
168,71,172391,6,0,P|174:111|178:151,1,80.9999975280763,6|2,0:3|0:0,0:0:0:0:
176,327,172705,1,2,0:0:0:0:
120,264,172862,2,0,P|155:245|259:302,1,161.999995056153,2|4,0:0|0:3,0:0:0:0:
380,368,173334,2,0,P|327:363|286:360,1,80.9999975280763,2|0,1:3|0:0,0:0:0:0:
356,123,173648,6,0,P|345:205|335:300,2,161.999995056153,2|2|2,0:0|0:0|0:0,0:0:0:0:
471,206,174433,1,4,0:3:0:0:
471,206,174590,2,0,P|426:225|377:208,1,80.9999975280763,2|0,1:3|0:0,0:0:0:0:
390,213,174826,1,2,0:0:0:0:
384,206,174904,5,6,0:3:0:0:
276,95,175140,5,2,0:0:0:0:
415,66,175375,5,6,0:3:0:0:
304,181,175532,6,0,P|300:213|296:255,1,53.9999983520508,0|4,0:0|0:3,0:0:0:0:
201,281,175847,2,0,P|203:254|207:227,1,53.9999983520508,2|0,0:0|0:0,0:0:0:0:
209,219,176082,1,2,0:0:0:0:
211,211,176161,6,0,P|160:200|105:186,1,80.9999975280763,6|0,0:3|0:0,0:0:0:0:
112,106,176475,2,0,P|151:115|191:124,1,80.9999975280763,0|0,1:3|0:0,0:0:0:0:
301,211,176789,2,0,P|352:200|407:186,1,80.9999975280763,4|0,0:3|0:0,0:0:0:0:
399,106,177103,2,0,P|360:115|321:124,1,80.9999975280763,2|0,1:3|0:0,0:0:0:0:
313,125,177339,1,2,0:0:0:0:
305,126,177417,5,6,0:3:0:0:
464,169,177574,1,0,0:0:0:0:
464,169,177731,2,0,P|456:232|453:267,1,80.9999975280763,0|0,1:3|0:0,0:0:0:0:
344,369,178046,2,0,P|348:328|353:288,1,80.9999975280763,6|0,0:3|0:0,0:0:0:0:
202,169,178360,2,0,L|208:219,2,40.4999987640381,2|0|0,1:3|0:0|0:0,0:0:0:0:
231,280,178674,6,0,P|191:284|145:250,1,80.9999975280763,6|0,0:3|0:0,0:0:0:0:
144,119,178988,2,0,P|176:95|233:101,1,80.9999975280763,6|0,0:3|0:0,0:0:0:0:
294,179,179302,2,0,L|209:186,1,80.9999975280763,6|0,0:3|0:0,0:0:0:0:
142,194,179538,1,2,0:0:0:0:
133,194,179616,2,0,L|48:201,1,80.9999975280763,6|0,0:3|0:0,0:0:0:0:
263,264,179930,5,2,0:3:0:0:
263,264,180087,1,0,0:0:0:0:
298,98,180244,1,0,1:3:0:0:
298,98,180402,1,0,0:0:0:0:
343,238,180559,5,0,0:0:0:0:
216,124,180716,1,4,0:3:0:0:
360,152,180873,1,2,1:3:0:0:
197,204,181030,1,0,0:0:0:0:
359,323,181187,5,6,0:3:0:0:
288,304,181344,1,4,0:3:0:0:
217,321,181501,1,4,0:3:0:0:
165,373,181658,1,4,0:3:0:0:
165,373,182129,2,0,L|83:365,1,80.9999975280763,0|0,1:0|0:0,0:0:0:0:
34,174,182443,5,6,0:3:0:0:
18,245,182601,1,4,0:3:0:0:
78,285,182758,1,4,0:3:0:0:
137,242,182915,1,4,0:3:0:0:
137,242,183386,2,0,L|131:160,1,80.9999975280763,0|0,1:0|0:0,0:0:0:0:
266,51,183700,5,6,0:3:0:0:
261,123,183857,1,4,0:3:0:0:
256,195,184014,1,4,0:3:0:0:
252,267,184171,1,4,0:3:0:0:
252,267,184642,2,0,L|344:260,1,80.9999975280763,0|0,1:0|0:0,0:0:0:0:
405,300,184957,6,0,B|411:251|411:251|400:210|400:210|409:156,1,135.000005149842,6|0,0:3|0:0,0:0:0:0:
485,71,185428,2,0,B|477:113|477:113|489:154|489:154|482:203,1,135.000005149842,6|0,0:3|0:0,0:0:0:0:
492,286,185899,5,6,0:3:0:0:
492,286,185977,2,0,L|483:320,6,22.5,0|0|2|0|0|0|4,0:0|0:0|0:0|0:0|0:0|0:0|3:2,0:0:0:0:
321,363,186841,5,2,0:0:0:0:
256,314,187155,1,2,0:0:0:0:
193,366,187470,1,2,3:2:0:0:
86,137,188726,5,0,3:2:0:0:
86,137,189669,1,2,0:0:0:0:
47,258,189983,1,2,3:2:0:0:
150,182,190297,1,2,0:0:0:0:
21,182,190610,1,2,0:0:0:0:
126,258,190925,1,0,0:0:0:0:
193,18,191239,5,6,3:2:0:0:
193,18,191868,1,2,0:0:0:0:
256,70,192183,1,2,0:0:0:0:
321,21,192496,6,0,P|337:67|320:122,1,80.9999975280763,6|0,0:3|0:0,0:0:0:0:
178,223,192810,2,0,P|162:177|179:122,2,80.9999975280763,0|0|0,1:0|0:0|0:0,0:0:0:0:
241,176,193281,5,6,0:3:0:0:
216,293,193438,1,0,1:0:0:0:
92,212,193595,1,0,0:0:0:0:
275,246,193752,1,0,3:2:0:0:
275,246,194381,6,0,P|269:178|261:91,1,135,6|0,0:0|0:0,0:0:0:0:
296,40,195009,6,0,P|335:73|331:140,2,101.250003862381,6|2|2,0:3|0:0|0:0,0:0:0:0:
192,153,195637,2,0,L|185:80,1,67.5000025749208,2|0,1:2|0:0,0:0:0:0:
293,185,195951,2,0,L|286:252,1,67.5000025749208,2|2,0:0|0:0,0:0:0:0:
286,258,196187,1,2,0:0:0:0:
285,266,196265,5,6,0:3:0:0:
371,209,196423,1,4,0:3:0:0:
209,232,196580,1,0,1:0:0:0:
364,290,196737,1,0,0:0:0:0:
293,185,196894,2,0,P|288:141|283:70,1,90,2|4,0:0|0:3,0:0:0:0:
454,217,197208,2,0,P|449:261|439:331,1,90,0|0,1:0|0:0,0:0:0:0:
311,365,197522,6,0,B|277:359|258:328|258:328|118:350,1,180,6|2,0:3|1:2,0:0:0:0:
52,272,197993,2,0,B|86:266|105:235|105:235|245:257,1,180,2|4,0:0|0:3,0:0:0:0:
332,200,198464,2,0,L|324:296,1,90,2|0,1:2|0:0,0:0:0:0:
256,180,198779,5,6,0:3:0:0:
314,121,198936,1,4,0:3:0:0:
216,83,199093,1,0,1:0:0:0:
332,200,199250,2,0,P|414:189|513:178,1,180,2|4,0:0|0:3,0:0:0:0:
365,286,199721,2,0,P|317:280|267:270,1,90,0|0,1:0|0:0,0:0:0:0:
415,198,200035,6,0,B|437:242|451:282|451:282|444:322|427:367,1,180,4|2,1:2|0:0,0:0:0:0:
251,194,200663,2,0,B|229:150|215:110|215:110|222:70|239:25,1,180,4|2,1:2|0:0,0:0:0:0:
380,89,201135,1,2,0:0:0:0:
379,97,201213,1,2,0:0:0:0:
378,106,201292,6,0,P|369:224|364:292,1,180,6|2,0:3|1:2,0:0:0:0:
272,358,201763,2,0,P|218:353|170:352,1,90,2|0,0:0|0:0,0:0:0:0:
81,235,202077,1,6,0:3:0:0:
245,191,202234,1,0,1:2:0:0:
154,275,202391,1,0,0:0:0:0:
173,129,202548,6,0,P|223:157|340:127,1,180,6|2,0:3|1:2,0:0:0:0:
421,94,203019,2,0,P|416:153|412:208,1,90,2|0,0:0|0:0,0:0:0:0:
340,224,203334,1,6,0:3:0:0:
495,153,203491,1,0,1:2:0:0:
353,54,203648,1,0,0:0:0:0:
429,266,203805,6,0,P|367:259|239:248,1,180,6|0,0:3|1:2,0:0:0:0:
98,110,204276,2,0,P|160:117|288:128,1,180,2|6,0:0|0:3,0:0:0:0:
353,54,204747,1,0,1:2:0:0:
353,54,205061,6,0,B|358:127|358:127|362:187|323:173|327:239|327:239|334:333,1,270.000010299683,6|4,0:0|0:3,0:0:0:0:
332,316,206004,1,2,0:0:0:0:
406,234,206318,1,2,0:0:0:0:
146,199,213700,6,0,L|107:205,2,22.5,2|2|2,0:0|0:0|0:0,0:0:0:0:
225,186,214171,1,2,0:0:0:0:
264,115,214485,1,2,0:0:0:0:
227,42,214799,1,2,0:0:0:0:
142,100,215114,5,2,0:0:0:0:
283,241,215428,1,2,0:0:0:0:
351,124,215742,1,2,0:0:0:0:
225,186,216056,1,2,0:0:0:0:
249,315,216213,2,0,L|254:353,2,22.5,2|2|2,0:0|0:0|0:0,0:0:0:0:
283,241,216684,5,2,0:0:0:0:
175,344,216998,2,0,P|139:344|76:353,1,90,2|2,0:0|0:0,0:0:0:0:
283,241,217627,2,0,P|330:248|382:250,1,90,2|2,0:0|0:0,0:0:0:0:
200,258,218255,2,0,P|196:216|203:161,1,90,2|2,0:0|0:0,0:0:0:0:
287,139,218726,2,0,L|282:176,2,22.5,2|2|2,0:0|0:0|0:0,0:0:0:0:
436,189,219826,5,2,0:0:0:0:
428,205,220140,1,2,0:0:0:0:
353,237,220454,1,2,0:0:0:0:
291,184,220768,1,2,0:0:0:0:
306,104,221082,1,2,0:0:0:0:
193,185,221396,6,0,P|196:150|203:93,1,90,2|2,0:0|0:0,0:0:0:0:
103,154,222025,2,0,P|108:205|112:243,1,90,2|2,0:0|0:0,0:0:0:0:
251,357,222653,5,2,0:0:0:0:
314,299,222967,1,2,0:0:0:0:
236,260,223281,1,2,0:0:0:0:
175,321,223595,1,2,0:0:0:0:
251,357,223752,2,0,L|246:319,2,22.5,2|2|2,0:0|0:0|0:0,0:0:0:0:
309,135,224852,5,2,0:0:0:0:
304,152,225166,1,2,0:0:0:0:
231,116,225480,1,2,0:0:0:0:
152,135,225794,1,2,0:0:0:0:
116,207,226108,1,2,0:0:0:0:
73,137,226423,6,0,P|69:100|67:41,1,90,2|2,0:0|0:0,0:0:0:0:
198,208,227051,2,0,P|196:252|191:297,1,90,2|2,0:0|0:0,0:0:0:0:
352,195,227679,1,2,0:0:0:0:
281,231,227993,1,2,0:0:0:0:
347,274,228307,1,2,0:0:0:0:
281,156,228621,1,2,0:0:0:0:
430,95,228779,2,0,L|427:129,2,22.5,2|2|2,0:0|0:0|0:0,0:0:0:0:
492,177,229878,5,2,0:0:0:0:
492,177,230192,2,0,P|447:153|277:269,1,270,2|2,0:0|0:0,0:0:0:0:
279,251,231449,5,2,0:0:0:0:
209,287,231606,2,0,L|161:281,1,45,2|0,0:0|0:0,0:0:0:0:
90,307,231920,2,0,L|87:258,1,45,2|0,0:0|0:0,0:0:0:0:
87,262,232234,1,2,0:0:0:0:
74,147,232391,1,2,0:0:0:0:
136,197,232548,1,2,0:0:0:0:
0,169,232705,5,2,0:0:0:0:
145,120,232862,1,2,0:0:0:0:
466,115,233962,6,0,B|429:153|429:153|288:130,1,180,2|2,0:0|0:0,0:0:0:0:
104,87,234904,1,2,0:0:0:0:
104,87,235218,6,0,P|84:126|85:163,1,67.5000025749208,2|0,0:0|0:0,0:0:0:0:
218,270,235532,2,0,P|176:256|150:228,1,67.5000025749208,2|0,0:0|0:0,0:0:0:0:
218,112,235846,2,0,P|176:125|150:153,1,67.5000025749208,2|0,0:0|0:0,0:0:0:0:
104,295,236160,2,0,P|84:256|86:218,1,67.5000025749208,2|0,0:0|0:0,0:0:0:0:
222,192,236475,1,6,1:2:0:0:
256,192,236553,12,2,240873,0:0:0:0:
203,207,241501,6,0,B|158:202|136:244|136:244|111:292|111:292|275:278|275:278|352:270|380:207,1,431.999986816407,6|2,0:3|1:2,0:0:0:0:
378,208,243386,6,0,P|372:160|367:132,1,67.5000025749208,2|2,0:0|0:0,0:0:0:0:
446,128,243700,2,0,P|451:161|455:194,1,67.5000025749208,2|2,0:0|0:0,0:0:0:0:
432,269,244014,5,6,0:3:0:0:
393,68,244328,1,4,0:3:0:0:
151,68,244642,5,4,0:3:0:0:
112,269,244956,1,6,0:3:0:0:
349,229,245271,6,0,P|294:224|241:220,1,90,2|0,1:2|0:0,0:0:0:0:
116,155,245585,2,0,P|160:150|205:147,1,90,2|2,1:2|0:0,0:0:0:0:
348,17,245899,2,0,L|343:80,3,45,2|0|2|0,1:2|0:0|0:0|0:0,0:0:0:0:
384,126,246213,1,2,1:2:0:0:
359,137,246291,1,0,1:0:0:0:
332,139,246370,1,2,1:2:0:0:
307,130,246448,1,0,1:0:0:0:
286,113,246527,6,0,L|291:269,1,148.50000453186,6|0,3:2|0:0,0:0:0:0:
298,267,246841,2,0,P|257:291|198:281,1,99.0000030212403,0|0,1:0|0:0,0:0:0:0:
47,246,247155,1,2,0:0:0:0:
145,126,247313,1,6,0:3:0:0:
145,126,247470,2,0,P|186:149|207:205,1,99.0000030212403,2|0,1:2|0:0,0:0:0:0:
117,361,247784,6,0,P|121:297|129:204,1,148.50000453186,6|0,0:3|0:0,0:0:0:0:
130,203,248098,1,0,1:0:0:0:
244,75,248255,1,2,0:0:0:0:
242,84,248334,1,2,0:0:0:0:
240,93,248412,1,2,0:0:0:0:
68,158,248569,1,6,0:3:0:0:
257,252,248726,1,2,1:2:0:0:
65,145,248883,1,0,0:0:0:0:
85,294,249040,6,0,P|142:287|207:281,1,99.0000030212403,6|0,0:3|0:0,0:0:0:0:
358,363,249354,2,0,P|351:306|345:241,1,99.0000030212403,0|0,1:0|0:0,0:0:0:0:
427,90,249669,2,0,P|370:97|305:103,1,99.0000030212403,2|6,0:0|0:3,0:0:0:0:
154,21,249983,2,0,P|161:78|167:143,1,99.0000030212403,2|0,1:2|0:0,0:0:0:0:
238,57,250297,5,6,0:3:0:0:
86,112,250454,1,2,0:0:0:0:
249,52,250611,1,2,1:2:0:0:
193,193,250768,1,2,0:0:0:0:
154,21,250925,1,2,0:0:0:0:
196,205,251082,1,6,0:3:0:0:
331,60,251239,2,0,P|322:108|317:158,1,99.0000030212403,2|0,1:2|0:0,0:0:0:0:
272,238,251553,6,0,B|386:258|351:193|463:210,1,198.000006042481,6|0,0:3|1:0,0:0:0:0:
406,112,252025,1,2,0:0:0:0:
404,120,252103,1,2,0:0:0:0:
403,129,252182,1,2,0:0:0:0:
425,288,252339,1,6,0:3:0:0:
317,158,252496,2,0,P|324:102|333:54,1,99.0000030212403,2|0,1:2|0:0,0:0:0:0:
72,159,252810,5,6,0:3:0:0:
219,106,252967,1,0,0:0:0:0:
122,4,253124,2,0,P|131:59|138:123,1,99.0000030212403,0|0,1:0|0:0,0:0:0:0:
177,301,253438,1,2,0:0:0:0:
350,214,253595,1,6,0:3:0:0:
304,373,253752,1,2,1:2:0:0:
231,194,253909,1,2,0:0:0:0:
171,378,254066,6,0,P|127:361|141:232,1,198.000006042481,6|0,0:3|1:0,0:0:0:0:
278,265,254538,1,2,0:0:0:0:
276,274,254616,1,2,0:0:0:0:
275,283,254695,1,2,0:0:0:0:
302,112,254852,1,6,0:3:0:0:
431,212,255009,2,0,P|378:207|317:189,1,99.0000030212403,2|2,1:2|0:0,0:0:0:0:
189,48,255323,6,0,P|211:96|226:158,1,99.0000030212403,6|0,0:3|0:0,0:0:0:0:
168,339,255637,2,0,P|198:295|244:251,1,99.0000030212403,0|0,1:0|0:0,0:0:0:0:
302,112,255951,1,2,0:0:0:0:
319,284,256108,1,6,0:3:0:0:
160,207,256265,1,2,1:2:0:0:
333,195,256423,1,2,0:0:0:0:
203,284,256580,6,0,B|118:306|143:262|57:284,1,148.50000453186,6|0,3:2|0:0,0:0:0:0:
49,290,256894,2,0,P|51:221|53:161,1,99.0000030212403,0|0,1:0|0:0,0:0:0:0:
153,19,257208,1,2,0:0:0:0:
235,193,257365,1,6,0:3:0:0:
235,193,257522,2,0,P|173:199|111:207,1,99.0000030212403,2|0,1:2|0:0,0:0:0:0:
0,118,257836,6,0,P|66:110|155:100,1,148.50000453186,6|0,0:3|0:0,0:0:0:0:
157,101,258150,1,0,1:0:0:0:
311,33,258307,1,2,0:0:0:0:
312,42,258386,1,2,0:0:0:0:
313,51,258464,1,2,0:0:0:0:
337,204,258621,1,6,0:3:0:0:
239,91,258779,1,2,1:2:0:0:
410,159,258936,1,0,0:0:0:0:
234,291,259093,6,0,P|181:286|122:280,1,99.0000030212403,6|0,0:3|0:0,0:0:0:0:
278,93,259407,2,0,P|331:98|390:104,1,99.0000030212403,0|0,1:0|0:0,0:0:0:0:
157,170,259721,2,0,P|162:117|168:58,1,99.0000030212403,2|6,0:0|0:3,0:0:0:0:
355,214,260035,2,0,P|350:267|344:326,1,99.0000030212403,2|0,1:2|0:0,0:0:0:0:
428,284,260349,5,6,0:3:0:0:
274,217,260506,1,2,0:0:0:0:
430,178,260663,1,2,1:2:0:0:
273,230,260820,1,2,0:0:0:0:
304,61,260977,1,2,0:0:0:0:
339,168,261135,1,6,0:3:0:0:
216,102,261292,2,0,P|220:44|226:-15,1,99.0000030212403,2|0,1:2|0:0,1:0:0:0:
270,240,261606,6,0,B|229:235|197:235|197:235|156:255|156:255|123:253|75:246,1,198.000006042481,6|0,0:3|1:0,0:0:0:0:
136,160,262077,1,2,0:0:0:0:
137,169,262155,1,2,0:0:0:0:
138,178,262234,1,2,0:0:0:0:
213,313,262391,1,6,0:3:0:0:
58,172,262548,2,0,P|50:109|47:53,1,99.0000030212403,2|0,1:2|0:0,0:0:0:0:
223,214,262862,6,0,P|217:277|209:332,1,99.0000030212403,6|0,0:3|0:0,0:0:0:0:
20,381,263176,2,0,P|12:318|9:262,1,99.0000030212403,0|0,1:0|0:0,0:0:0:0:
129,111,263491,1,2,0:0:0:0:
86,249,263648,1,6,0:3:0:0:
3,145,263805,1,2,1:2:0:0:
160,196,263962,1,2,0:0:0:0:
57,30,264119,6,0,P|110:80|235:69,1,198.000006042481,6|0,0:3|1:0,0:0:0:0:
368,29,264590,1,2,0:0:0:0:
367,38,264669,1,2,0:0:0:0:
366,47,264747,1,2,0:0:0:0:
352,200,264904,1,6,0:3:0:0:
467,80,265061,1,2,1:2:0:0:
304,111,265218,1,2,0:0:0:0:
492,214,265375,5,6,0:3:0:0:
300,101,265532,1,2,0:0:0:0:
361,313,265690,1,2,1:2:0:0:
297,92,265847,1,2,0:0:0:0:
409,248,266004,2,0,P|414:193|419:148,1,99.0000030212403,2|2,1:2|0:0,0:0:0:0:
221,203,266318,1,2,1:2:0:0:
225,232,266396,1,0,1:0:0:0:
230,261,266475,1,2,1:2:0:0:
234,290,266553,1,0,1:0:0:0:
240,316,266632,6,0,P|179:324|117:334,1,107.999996704102,6|0,0:2|0:0,0:0:0:0:
298,194,266946,2,0,P|359:202|421:212,1,107.999996704102,0|0,1:3|0:0,0:0:0:0:
415,212,267182,1,2,0:0:0:0:
425,215,267260,1,2,0:0:0:0:
212,230,267417,1,6,0:3:0:0:
339,26,267574,2,0,P|370:70|352:149,1,107.999996704102,2|0,1:3|0:0,0:0:0:0:
212,230,267888,6,0,P|187:169|292:94,1,215.999993408203,6|0,0:3|1:3,0:0:0:0:
446,137,268360,1,2,0:0:0:0:
456,138,268438,1,2,0:0:0:0:
467,139,268517,1,2,0:0:0:0:
433,24,268674,1,6,0:3:0:0:
305,178,268831,2,0,P|298:232|290:299,1,107.999996704102,2|2,1:3|0:0,0:0:0:0:
468,342,269145,6,0,P|421:302|364:321,1,107.999996704102,6|0,0:3|0:0,0:0:0:0:
371,317,269381,1,2,0:0:0:0:
365,326,269459,2,0,P|331:364|257:345,1,107.999996704102,2|0,1:3|0:0,0:0:0:0:
266,363,269695,1,2,0:0:0:0:
254,366,269773,2,0,P|190:370|123:374,1,107.999996704102,2|4,0:0|0:3,0:0:0:0:
23,223,270087,1,2,1:3:0:0:
173,271,270244,1,2,0:0:0:0:
175,281,270323,1,2,0:0:0:0:
177,291,270402,5,6,0:3:0:0:
24,360,270559,1,0,0:0:0:0:
252,264,270716,1,0,1:3:0:0:
74,152,270873,1,2,0:0:0:0:
70,141,270951,1,2,0:0:0:0:
66,130,271030,1,2,0:0:0:0:
319,200,271187,1,6,0:3:0:0:
109,356,271344,1,2,1:3:0:0:
334,198,271501,1,0,0:0:0:0:
153,274,271658,6,0,P|95:269|26:262,1,107.999996704102,6|0,0:3|0:0,0:0:0:0:
255,359,271972,2,0,P|313:354|382:347,1,107.999996704102,0|0,1:3|0:0,0:0:0:0:
373,346,272208,1,2,0:0:0:0:
383,343,272286,1,2,0:0:0:0:
242,271,272443,1,6,0:3:0:0:
414,221,272601,1,0,1:3:0:0:
255,359,272758,1,0,0:0:0:0:
487,289,272915,6,0,P|496:222|500:171,1,107.999996704102,6|0,0:3|0:0,0:0:0:0:
314,88,273229,2,0,P|319:155|325:206,1,107.999996704102,0|0,1:3|0:0,0:0:0:0:
327,205,273464,1,2,0:0:0:0:
330,215,273543,1,2,0:0:0:0:
422,341,273700,1,6,0:3:0:0:
242,271,273857,1,2,1:3:0:0:
398,133,274014,1,2,0:0:0:0:
301,333,274171,6,0,P|233:357|163:239,1,215.999993408203,6|0,0:3|1:3,0:0:0:0:
131,110,274642,1,2,0:0:0:0:
134,120,274721,1,2,0:0:0:0:
136,129,274799,1,2,0:0:0:0:
59,278,274957,1,6,0:3:0:0:
263,193,275114,1,2,1:3:0:0:
60,144,275271,1,2,0:0:0:0:
269,70,275428,5,6,0:3:0:0:
157,256,275585,1,2,0:0:0:0:
145,253,275663,1,2,0:0:0:0:
133,251,275742,1,2,1:3:0:0:
354,161,275899,1,2,0:0:0:0:
364,163,275977,1,2,0:0:0:0:
374,165,276056,2,0,P|394:178|411:214,1,53.9999983520508,2|0,0:0|0:0,0:0:0:0:
493,228,276213,2,0,P|486:251|457:278,1,53.9999983520508,6|0,0:3|0:0,0:0:0:0:
479,362,276370,2,0,P|455:363|420:344,1,53.9999983520508,2|0,1:2|1:0,0:0:0:0:
254,265,276527,1,0,1:2:0:0:
262,258,276606,1,0,1:0:0:0:
271,252,276684,6,0,P|324:248|365:300,1,107.999996704102,6|0,1:2|0:0,0:0:0:0:
230,358,276998,2,0,P|160:352|96:347,1,107.999996704102,0|0,1:3|0:0,0:0:0:0:
111,348,277234,1,2,0:0:0:0:
100,347,277313,1,2,0:0:0:0:
317,375,277470,1,6,0:3:0:0:
168,270,277627,2,0,P|159:200|152:149,1,107.999996704102,2|0,1:3|0:0,0:0:0:0:
305,28,277941,6,0,P|369:37|353:175,1,215.999993408203,6|0,0:3|1:3,0:0:0:0:
259,210,278412,1,2,0:0:0:0:
248,207,278491,1,2,0:0:0:0:
237,204,278569,1,2,0:0:0:0:
373,257,278726,1,6,0:3:0:0:
229,122,278883,1,2,1:3:0:0:
385,260,279040,1,2,0:0:0:0:
206,365,279197,6,0,P|157:333|86:356,1,107.999996704102,6|0,0:3|0:0,0:0:0:0:
100,344,279433,1,2,0:0:0:0:
90,349,279512,2,0,P|37:307|55:250,1,107.999996704102,2|0,1:3|0:0,0:0:0:0:
48,267,279747,1,2,0:0:0:0:
57,262,279826,2,0,L|60:154,1,107.999996704102,2|4,0:0|0:3,0:0:0:0:
52,145,280061,1,2,0:0:0:0:
44,136,280140,1,2,1:3:0:0:
275,251,280297,1,0,0:0:0:0:
137,210,280454,5,6,0:3:0:0:
311,136,280611,1,0,0:0:0:0:
123,213,280768,1,0,1:3:0:0:
349,303,280925,1,2,0:0:0:0:
359,301,281004,1,2,0:0:0:0:
369,299,281082,1,2,0:0:0:0:
148,370,281239,1,6,0:3:0:0:
430,250,281396,1,2,1:3:0:0:
188,112,281553,1,0,0:0:0:0:
468,163,281710,6,0,P|394:173|327:183,1,107.999996704102,6|0,0:3|0:0,0:0:0:0:
265,295,282025,2,0,P|191:285|124:278,1,107.999996704102,0|0,1:3|0:0,0:0:0:0:
147,281,282260,1,2,0:0:0:0:
136,279,282339,1,2,0:0:0:0:
289,151,282496,1,6,0:3:0:0:
83,78,282653,1,0,1:3:0:0:
184,196,282810,1,2,0:0:0:0:
194,197,282888,1,2,0:0:0:0:
204,198,282967,6,0,P|208:138|211:60,1,107.999996704102,6|0,0:3|0:0,0:0:0:0:
49,236,283281,2,0,P|56:302|66:373,1,107.999996704102,0|0,1:3|0:0,0:0:0:0:
263,369,283595,1,0,0:0:0:0:
133,279,283752,1,6,0:3:0:0:
289,197,283909,1,2,1:3:0:0:
223,290,284066,1,2,0:0:0:0:
216,298,284145,1,2,0:0:0:0:
208,307,284224,6,0,P|257:286|348:376,2,180,6|0|0,0:3|1:3|0:0,0:0:0:0:
54,205,285009,1,6,0:3:0:0:
201,133,285166,2,0,P|195:206|192:256,1,90,2|2,1:3|0:0,0:0:0:0:
160,375,285480,6,0,P|129:336|148:257,1,107.999996704102,6|0,0:3|0:0,0:0:0:0:
304,135,285794,1,2,1:3:0:0:
314,137,285873,1,0,1:3:0:0:
324,139,285951,2,0,P|342:165|338:211,1,53.9999983520508,6|0,0:3|0:0,0:0:0:0:
208,307,286108,1,2,1:2:0:0:
253,61,286265,1,6,0:3:0:0:
430,199,286423,5,2,1:2:0:0:
409,242,286501,1,0,1:0:0:0:
369,268,286580,1,2,1:2:0:0:
321,268,286658,1,0,1:0:0:0:
280,242,286737,6,0,P|283:180|292:57,1,180,6|2,1:2|0:0,0:0:0:0:
291,62,287679,1,2,0:0:0:0:
191,204,287993,2,0,P|151:225|59:135,1,180,2|0,0:0|0:0,0:0:0:0:
129,59,288936,1,2,0:0:0:0:
129,59,289250,6,0,P|133:110|137:163,1,90,2|0,0:0|0:0,0:0:0:0:
266,261,289878,2,0,P|269:216|273:171,1,90,2|0,0:0|0:0,0:0:0:0:
42,262,290506,2,0,P|98:240|178:316,1,180,2|0,0:0|0:0,0:0:0:0:
434,344,291763,6,0,P|371:349|255:362,1,180,2|0,0:0|0:0,0:0:0:0:
254,362,292705,1,2,0:0:0:0:
326,237,293019,2,0,P|389:242|505:255,1,180,2|0,0:0|0:0,0:0:0:0:
252,49,294276,6,0,P|209:72|221:187,1,180,2|0,0:0|0:0,0:0:0:0:
220,186,295218,1,2,0:0:0:0:
375,110,295532,6,0,P|316:117|252:128,1,107.999996704102,6|0,0:3|1:0,0:0:0:0:
146,261,295847,2,0,P|205:268|269:279,1,107.999996704102,6|0,0:3|1:0,0:0:0:0:
415,316,296161,1,6,0:3:0:0:
288,375,296318,1,0,1:0:0:0:
330,195,296475,1,0,1:0:0:0:
