osu file format v14

[General]
AudioFilename: audio.mp3
AudioLeadIn: 0
PreviewTime: 70156
Countdown: 0
SampleSet: Soft
StackLeniency: 0.9
Mode: 0
LetterboxInBreaks: 0
WidescreenStoryboard: 1

[Editor]
Bookmarks: 183,1439,39135,59240,60497,80601,99450,100706,120811,144685,145942,166046,184895,186151,206256,226361,227617,246465,265313,266491
DistanceSpacing: 1.5
BeatDivisor: 4
GridSize: 4
TimelineZoom: 3.699998

[Metadata]
Title:Vitamins feat. world's end girlfriend
TitleUnicode:Vitamins feat. world's end girlfriend
Artist:Mili
ArtistUnicode:Mili
Creator:ScubDomino
Version:Scub x Kalibe's Insane
Source:
Tags:3rd worlds millenium mother project saihate Records SNCL-00018 SNCL-00017 SNCL-00016 indie dance electronic english full version female vocalist vocals 2018 Cassie Momocashew Wei Yamato HAMO Kasai Yukihito Mitomo 三友行人 Shoto Yoshida 吉田翔人 Ao Fujimori Katsuhiko 前田勝彦 Maeda kalibe 3376777 natsume shiki jungkyuyoung anime girl 8972308 MORNCOLOUR 躲在海的倒影里 藏在心的角落里
BeatmapID:2555507
BeatmapSetID:1229050

[Difficulty]
HPDrainRate:5
CircleSize:3.8
OverallDifficulty:8
ApproachRate:9
SliderMultiplier:1.4
SliderTickRate:1

[Events]
//Background and Video events
0,0,"62740716_p0.png",0,0
//Break Periods
2,10964,12206
2,13320,14091
2,15990,17232
//Storyboard Layer 0 (Background)
//Storyboard Layer 1 (Fail)
//Storyboard Layer 2 (Pass)
//Storyboard Layer 3 (Foreground)
//Storyboard Layer 4 (Overlay)
//Storyboard Sound Samples

[TimingPoints]
241,314.13612565445,4,2,1,55,1,0
14691,-142.857142857143,4,2,100,55,0,0
15319,-142.857142857143,4,2,1,55,0,0
19717,-142.857142857143,4,2,100,50,0,0
20345,-100,4,2,100,60,0,0
24115,-125,4,2,100,60,0,0
30083,-125,4,2,1,30,0,0
30162,-125,4,2,1,40,0,0
30240,-125,4,2,1,50,0,0
30319,-125,4,2,1,60,0,0
30398,-90.9090909090909,4,2,1,70,0,0
39193,-166.666666666667,4,2,1,70,0,0
40450,-125,4,2,1,65,0,0
47989,-111.111111111111,4,2,1,65,0,0
60555,-111.111111111111,4,2,1,55,0,0
61183,-133.333333333333,4,2,100,55,0,0
70293,-83.3333333333333,4,2,100,55,0,0
70607,-83.3333333333333,4,2,1,70,0,0
80659,-83.3333333333333,4,2,1,50,0,0
88827,-83.3333333333333,4,2,100,50,0,0
88905,-83.3333333333333,4,2,1,50,0,0
90712,-83.3333333333333,4,2,100,40,0,0
91968,-181.818181818181,4,2,100,40,0,0
96994,-181.818181818181,4,2,100,30,0,0
99508,-181.818181818181,4,2,100,40,0,0
99822,-181.818181818181,4,2,100,50,0,0
100136,-181.818181818181,4,2,100,60,0,0
100450,-181.818181818181,4,2,100,70,0,0
100764,-117.647058823529,4,2,100,70,0,0
100921,-117.647058823529,4,2,1,70,0,0
101235,-117.647058823529,4,2,100,70,0,0
103277,-117.647058823529,4,2,1,70,0,0
103591,-117.647058823529,4,2,100,70,0,0
105790,-117.647058823529,4,2,1,70,0,0
109560,-90.9090909090909,4,2,1,70,0,0
110816,-58.8235294117647,4,2,1,80,0,0
125738,-133.333333333333,4,2,1,80,0,0
125895,-58.8235294117647,4,2,1,80,0,0
130921,-58.8235294117647,4,2,1,70,0,0
130941,-58.8235294117647,4,2,1,5,0,0
131078,-58.8235294117647,4,2,1,69,0,0
131098,-58.8235294117647,4,2,1,5,0,0
131235,-58.8235294117647,4,2,1,68,0,0
131255,-58.8235294117647,4,2,1,5,0,0
131392,-58.8235294117647,4,2,1,67,0,0
131412,-58.8235294117647,4,2,1,5,0,0
131549,-58.8235294117647,4,2,1,66,0,0
131569,-58.8235294117647,4,2,1,5,0,0
131706,-58.8235294117647,4,2,1,65,0,0
131726,-58.8235294117647,4,2,1,5,0,0
131864,-58.8235294117647,4,2,1,64,0,0
131884,-58.8235294117647,4,2,1,5,0,0
132021,-58.8235294117647,4,2,1,63,0,0
132041,-58.8235294117647,4,2,1,5,0,0
132178,-58.8235294117647,4,2,1,62,0,0
132198,-58.8235294117647,4,2,1,5,0,0
132335,-58.8235294117647,4,2,1,61,0,0
132355,-58.8235294117647,4,2,1,5,0,0
132492,-58.8235294117647,4,2,1,60,0,0
132512,-58.8235294117647,4,2,1,5,0,0
132649,-58.8235294117647,4,2,1,59,0,0
132669,-58.8235294117647,4,2,1,5,0,0
132806,-58.8235294117647,4,2,1,58,0,0
132826,-58.8235294117647,4,2,1,5,0,0
132963,-58.8235294117647,4,2,1,57,0,0
132983,-58.8235294117647,4,2,1,5,0,0
133120,-58.8235294117647,4,2,1,56,0,0
133140,-58.8235294117647,4,2,1,5,0,0
133277,-58.8235294117647,4,2,1,55,0,0
133297,-58.8235294117647,4,2,1,5,0,0
133434,-58.8235294117647,4,2,1,55,0,0
133454,-58.8235294117647,4,2,1,5,0,0
133591,-58.8235294117647,4,2,1,55,0,0
133611,-58.8235294117647,4,2,1,5,0,0
133748,-58.8235294117647,4,2,1,55,0,0
133768,-58.8235294117647,4,2,1,5,0,0
133905,-58.8235294117647,4,2,1,55,0,0
133925,-58.8235294117647,4,2,1,5,0,0
134062,-58.8235294117647,4,2,1,55,0,0
134082,-58.8235294117647,4,2,1,5,0,0
134220,-58.8235294117647,4,2,1,55,0,0
134240,-58.8235294117647,4,2,1,5,0,0
134377,-58.8235294117647,4,2,1,55,0,0
134397,-58.8235294117647,4,2,1,5,0,0
134534,-58.8235294117647,4,2,1,55,0,0
134554,-58.8235294117647,4,2,1,5,0,0
134691,-58.8235294117647,4,2,1,55,0,0
134711,-58.8235294117647,4,2,1,5,0,0
134848,-58.8235294117647,4,2,1,55,0,0
134868,-58.8235294117647,4,2,1,5,0,0
135005,-58.8235294117647,4,2,1,55,0,0
135025,-58.8235294117647,4,2,1,5,0,0
135162,-58.8235294117647,4,2,1,55,0,0
135182,-58.8235294117647,4,2,1,5,0,0
135319,-58.8235294117647,4,2,1,55,0,0
135339,-58.8235294117647,4,2,1,5,0,0
135476,-58.8235294117647,4,2,1,55,0,0
135496,-58.8235294117647,4,2,1,5,0,0
135633,-58.8235294117647,4,2,1,55,0,0
135947,-90.9090909090909,4,2,1,70,0,0
144743,-90.9090909090909,4,2,1,50,0,0
146000,-90.9090909090909,4,2,1,60,0,0
155424,-90.9090909090909,4,2,1,50,0,0
156052,-90.9090909090909,4,2,1,50,0,0
160450,-133.333333333333,4,2,1,50,0,0
165476,-100,4,2,1,60,0,0
166104,-86.9565217391304,4,2,1,70,0,0
171209,-86.9565217391304,4,2,1,5,0,0
171288,-86.9565217391304,4,2,1,70,0,0
185895,-86.9565217391304,4,2,1,55,0,0
185973,-86.9565217391304,4,2,1,60,0,0
186052,-86.9565217391304,4,2,1,65,0,0
186131,-86.9565217391304,4,2,1,70,0,0
186209,-86.9565217391304,4,2,1,55,0,0
186523,-133.333333333333,4,2,1,55,0,0
186837,-133.333333333333,4,2,100,55,0,0
192492,-133.333333333333,4,2,1,65,0,0
193748,-133.333333333333,4,2,100,55,0,0
194377,-50,4,2,100,100,0,0
194455,-50,4,2,100,55,0,0
195005,-100,4,2,1,55,0,0
195162,-100,4,2,100,60,0,0
195633,-83.3333333333333,4,2,100,60,0,0
196261,-83.3333333333333,4,2,1,70,0,0
205057,-100,4,2,1,70,0,0
206314,-333.333333333333,4,2,1,50,0,0
208827,-333.333333333333,4,2,100,50,0,0
211340,-333.333333333333,4,2,1,50,0,0
212597,-333.333333333333,4,2,100,50,0,0
213853,-333.333333333333,4,2,1,50,0,0
215110,-333.333333333333,4,2,100,50,0,0
216366,-333.333333333333,4,2,1,50,0,0
217623,-333.333333333333,4,2,100,50,0,0
221392,-333.333333333333,4,2,1,50,0,0
222649,-333.333333333333,4,2,100,50,0,0
226419,-333.333333333333,4,2,1,45,0,0
227676,-333.333333333333,4,2,100,45,0,0
233958,-333.333333333333,4,2,100,40,0,0
235528,-333.333333333333,4,2,100,50,0,0
235842,-333.333333333333,4,2,100,60,0,0
236156,-333.333333333333,4,2,100,70,0,0
236471,-117.647058823529,4,2,100,70,0,0
238984,-117.647058823529,4,2,1,70,0,0
239298,-117.647058823529,4,2,100,70,0,0
241497,-117.647058823529,4,2,1,70,0,0
245267,-90.9090909090909,4,2,1,70,0,0
246523,-71.4285714285714,4,2,1,80,0,0
251392,-181.818181818181,4,2,1,80,0,0
251549,-71.4285714285714,4,2,1,80,0,0
261445,-181.818181818182,4,2,1,80,0,0
261602,-71.4285714285714,4,2,1,80,0,0
266000,-100,4,2,1,80,0,0
266314,-66.6666666666667,4,2,1,80,0,0
266628,-66.6666666666667,4,2,1,85,0,1
276602,-66.6666666666667,4,2,1,85,0,0
276680,-66.6666666666667,4,2,1,85,0,1
286733,-100,4,2,1,85,0,0
287361,-100,4,2,100,70,0,0
293015,-222.222222222221,4,2,100,70,0,0
294272,-83.3333333333333,4,2,100,70,0,0
295528,-83.3333333333333,4,2,1,85,0,0
296471,-166.666666666667,4,2,1,85,0,0

[Colours]
Combo1 : 103,103,103
Combo2 : 74,187,182
Combo3 : 87,116,183
Combo4 : 218,150,82
Combo5 : 231,192,75
Combo6 : 186,120,170
Combo7 : 158,134,204
Combo8 : 191,191,181

[HitObjects]
112,95,10293,6,0,P|47:118|119:106,1,210,2|0,2:1|0:0,0:0:0:0:
381,301,12806,6,0,P|405:344|392:294,1,140,2|0,2:1|0:0,0:0:0:0:
346,104,14691,54,0,P|365:57|325:98,1,146.999995513916,2|0,2:2|0:0,0:0:0:0:
255,140,15319,102,0,P|206:118|178:15,1,146.999995513916,2|0,2:1|0:0,0:0:0:0:
193,239,17832,6,0,B|176:272|211:333|229:278|203:238,3,97.9999970092774,8|0|0|0,2:1|0:0|0:0|0:0,0:0:0:0:
258,192,18932,1,0,0:0:0:0:
332,172,19089,2,0,L|398:187,3,48.9999985046387,2|0|0|0,2:1|0:0|0:0|0:0,0:0:0:0:
258,192,19717,2,0,L|195:204,1,48.9999985046387,2|0,2:2|0:0,0:0:0:0:
0,145,20031,5,2,2:2:0:0:
0,145,20345,6,0,B|112:118|78:198|221:176,1,210,4|4,3:0|2:3,0:0:0:0:
258,122,20973,101,2,0:3:0:0:
258,122,21288,1,2,2:2:0:0:
394,34,21602,6,0,L|473:43,2,70,4|0|2,2:3|0:0|0:2,0:0:0:0:
394,34,22073,2,0,P|386:95|457:158,1,140,0|0,3:3|0:0,0:0:0:0:
494,209,22544,2,0,P|498:259|481:220,1,140,2|4,0:2|2:3,0:0:0:0:
499,340,23172,101,2,0:2:0:0:
365,293,23330,1,2,0:2:0:0:
365,293,23644,2,0,L|289:307,2,70,2|2|0,0:3|2:2|3:0,0:0:0:0:
296,384,24115,6,0,P|254:348|137:337,1,168,4|0,2:3|0:0,0:0:0:0:
73,378,24743,1,0,3:0:0:0:
12,209,25214,2,0,L|9:176,1,28,0|0,3:0|3:0,0:0:0:0:
8,173,25371,102,0,L|106:190,2,84,4|0|0,3:0|3:0|3:0,0:0:0:0:
102,172,26000,2,0,L|200:189,2,84,2|0|0,3:2|3:0|3:0,0:0:0:0:
217,34,26628,6,0,L|315:51,2,84,4|0|0,3:0|3:0|3:0,0:0:0:0:
311,33,27257,2,0,L|409:50,2,84,2|0|0,3:2|3:0|3:0,0:0:0:0:
412,36,27884,102,0,P|454:88|439:152,1,112,4|0,3:0|3:0,0:0:0:0:
448,213,28356,2,0,L|381:222,1,56,0|0,3:0|0:0,0:0:0:0:
268,258,28670,2,0,B|217:278|210:355|247:383|299:365|256:327,1,168,2|0,3:2|0:0,0:0:0:0:
262,333,30083,70,0,L|241:337,6,14,2|0|0|0|2|0|0,0:0|0:0|0:0|0:0|0:0|0:0|0:0,0:0:0:0:
340,316,30398,70,0,P|380:350|484:344,1,154.000004699707,0|8,1:0|2:2,0:0:0:0:
477,347,30869,1,0,3:3:0:0:
456,186,31026,6,0,P|416:152|329:152,1,115.50000352478,0|0,3:3|0:0,0:0:0:0:
337,152,31340,2,0,L|289:156,2,38.5000011749268,8|0|0,2:2|0:0|3:3,0:0:0:0:
237,47,31654,102,0,B|144:31|166:86|70:72,1,154.000004699707,0|8,1:0|0:0,0:0:0:0:
88,73,32125,1,0,3:3:0:0:
9,208,32282,5,0,3:3:0:0:
92,160,32439,2,0,L|186:189,1,77.0000023498536,0|8,1:0|0:0,0:0:0:0:
9,208,32754,101,0,3:3:0:0:
189,264,32911,2,0,P|187:312|85:360,1,154.000004699707,0|8,1:0|2:2,0:0:0:0:
106,281,33382,1,0,3:3:0:0:
252,373,33539,6,0,P|267:336|312:309,1,77.0000023498536,0|0,3:3|1:0,0:0:0:0:
507,373,33853,2,0,L|379:352,1,115.50000352478,8|0,2:2|0:0,0:0:0:0:
384,350,34167,102,0,L|349:175,1,154.000004699707,0|8,1:0|0:0,0:0:0:0:
353,198,34638,1,0,3:3:0:0:
469,45,34795,6,0,B|439:62|425:106|425:106|436:56|420:8,1,154.000004699707,0|8,3:3|0:0,0:0:0:0:
422,118,35267,1,0,3:3:0:0:
338,0,35424,102,0,L|163:18,2,154.000004699707,0|8|0,1:0|2:2|3:3,0:0:0:0:
338,0,36366,2,0,L|318:94,1,77.0000023498536,8|0,2:2|3:3,0:0:0:0:
174,135,36680,6,0,P|133:85|18:85,1,154.000004699707,0|8,1:0|0:0,0:0:0:0:
48,71,37151,101,0,3:3:0:0:
1,153,37309,1,0,3:3:0:0:
121,218,37466,1,0,1:0:0:0:
174,135,37623,2,0,B|218:97|262:131|262:131|236:131|208:154,1,154.000004699707,8|0,0:0|1:0,0:0:0:0:
211,153,38251,6,0,L|223:243,1,77.0000023498536,8|0,2:2|3:3,0:0:0:0:
301,384,38565,2,0,L|290:307,1,77.0000023498536,0|0,3:3|1:0,0:0:0:0:
224,228,38879,1,8,2:2:0:0:
15,370,39193,102,0,P|51:377|68:386,3,41.9999987182618,0|0|0|0,3:0|0:0|3:0|0:0,0:0:0:0:
152,337,39822,22,0,P|172:339|192:346,1,41.9999987182618,0|0,3:0|0:0,0:0:0:0:
290,307,40136,6,0,P|310:309|330:316,1,41.9999987182618,2|2,2:0|0:0,0:0:0:0:
496,234,40450,70,0,L|373:250,1,112,0|8,1:0|2:2,0:0:0:0:
232,137,40921,2,0,L|355:156,1,112,0|0,3:3|1:0,0:0:0:0:
227,226,41392,1,8,2:2:0:0:
326,181,41549,21,0,3:3:0:0:
326,181,41628,1,0,0:0:0:0:
326,181,41706,2,0,L|346:66,1,112,0|8,1:0|0:0,0:0:0:0:
426,257,42178,2,0,L|400:378,1,112,0|0,3:3|1:0,0:0:0:0:
276,300,42649,1,8,0:0:0:0:
426,257,42806,85,0,3:3:0:0:
411,251,42884,1,0,0:0:0:0:
396,244,42963,2,0,L|326:258,1,56,0|0,1:0|0:0,0:0:0:0:
252,130,43277,2,0,B|197:119|197:119|226:184,1,112,8|0,2:2|3:3,0:0:0:0:
96,278,43748,1,0,1:0:0:0:
21,226,43905,2,0,L|36:159,1,56,8|0,2:2|3:3,0:0:0:0:
33,171,44141,1,0,0:0:0:0:
33,171,44220,2,0,L|130:188,1,84,0|0,1:0|0:0,0:0:0:0:
202,150,44534,22,0,P|243:114|216:64,1,112,8|0,0:0|3:3,0:0:0:0:
361,193,45005,85,0,1:0:0:0:
280,142,45162,2,0,P|301:185|379:179,1,112,8|0,0:0|1:0,0:0:0:0:
460,70,45790,21,0,3:0:0:0:
438,58,45947,1,0,3:0:0:0:
438,58,46261,85,0,1:0:0:0:
337,16,46419,2,0,L|279:26,1,56,8|0,2:2|0:0,0:0:0:0:
175,93,46733,22,0,B|102:78|136:102|55:82,1,112,0|0,1:0|3:0,0:0:0:0:
161,172,47204,2,0,P|201:164|290:156,1,112,0|0,3:0|1:0,0:0:0:0:
123,241,47675,2,0,P|133:269|132:310,1,56,8|0,2:2|0:0,0:0:0:0:
111,327,47989,86,0,L|19:313,1,62.9999980773926,0|0,1:0|3:0,0:0:0:0:
305,246,48303,21,8,2:0:0:0:
399,197,48460,2,0,B|433:259|433:259|362:278,1,125.999996154785,0|0,3:0|1:0,0:0:0:0:
283,170,48932,2,0,L|300:89,1,62.9999980773926,8|0,2:0|3:0,0:0:0:0:
326,82,49246,86,0,L|396:105,1,62.9999980773926,0|0,1:3|3:0,0:0:0:0:
385,101,49481,1,0,0:0:0:0:
385,101,49560,1,8,2:0:0:0:
276,178,49717,2,0,B|227:185|227:185|199:200|199:200|147:206,1,125.999996154785,0|0,3:0|1:0,0:0:0:0:
326,290,50188,1,8,2:0:0:0:
210,374,50345,1,0,3:0:0:0:
215,361,50424,1,0,2:0:0:0:
220,349,50502,1,2,1:3:0:0:
108,123,50816,22,0,L|35:100,1,62.9999980773926,8|0,2:0|3:0,0:0:0:0:
161,194,51131,2,0,L|142:271,1,62.9999980773926,0|0,3:0|1:0,0:0:0:0:
232,133,51445,2,0,L|310:108,1,62.9999980773926,8|0,2:0|3:0,0:0:0:0:
291,113,51680,1,0,0:0:0:0:
291,113,51759,85,0,1:3:0:0:
404,201,51916,1,0,3:0:0:0:
511,46,52073,2,0,P|476:71|481:131,1,94.499997116089,8|0,2:0|0:0,0:0:0:0:
499,193,52387,2,0,L|514:263,1,62.9999980773926,0|0,3:0|1:0,0:0:0:0:
381,123,52701,2,0,L|397:37,1,62.9999980773926,8|0,2:0|3:0,0:0:0:0:
368,30,52937,1,0,0:0:0:0:
352,24,53015,21,0,1:0:0:0:
271,63,53172,2,0,L|280:104,1,31.4999990386963,0|0,3:0|0:0,0:0:0:0:
184,121,53330,85,0,1:0:0:0:
260,167,53487,2,0,L|252:213,1,31.4999990386963,0|0,3:0|0:0,0:0:0:0:
364,245,53644,21,0,1:0:0:0:
274,270,53801,2,0,L|280:314,1,31.4999990386963,0|0,3:0|0:0,0:0:0:0:
196,354,53958,85,0,1:0:0:0:
313,384,54115,1,0,3:0:0:0:
94,363,54272,21,2,0:0:0:0:
183,157,54586,1,10,0:0:0:0:
403,309,54900,85,0,3:0:0:0:
337,223,55057,1,0,1:0:0:0:
448,249,55214,1,10,0:0:0:0:
0,305,55528,101,0,1:0:0:0:
68,272,55686,1,0,3:0:0:0:
138,236,55843,1,0,3:0:0:0:
207,196,56000,1,0,3:0:0:0:
218,209,56471,1,8,1:2:0:0:
512,226,56785,101,0,1:0:0:0:
438,199,56942,1,0,3:0:0:0:
368,159,57099,1,0,3:0:0:0:
294,133,57256,1,0,3:0:0:0:
307,117,57727,1,8,2:2:0:0:
16,9,58042,5,0,1:0:0:0:
94,22,58199,1,0,3:0:0:0:
170,48,58356,1,0,3:0:0:0:
248,64,58513,1,0,3:0:0:0:
260,44,58984,1,8,2:2:0:0:
419,163,59298,102,0,B|444:165|444:165|479:184|479:184|514:187,2,94.499997116089,0|0|0,1:0|0:0|1:0,0:0:0:0:
326,229,59926,6,0,L|307:366,1,125.999996154785,0|0,0:0|3:2,0:0:0:0:
313,357,60319,1,0,0:0:0:0:
317,361,60398,1,0,0:0:0:0:
321,365,60476,1,0,0:0:0:0:
325,368,60555,69,2,0:1:0:0:
74,155,61183,2,0,P|28:195|31:295,1,157.499995193482,2|0,0:2|0:0,0:0:0:0:
139,326,61811,2,0,P|185:286|182:186,1,157.499995193482,2|0,3:2|0:0,0:0:0:0:
29,227,62439,2,0,P|33:278|135:309,1,157.500006008148,2|0,0:2|0:0,0:0:0:0:
107,238,63068,101,0,3:2:0:0:
463,74,63696,2,0,P|456:118|356:119,1,157.500006008148,2|0,0:2|0:0,0:0:0:0:
458,31,64324,2,0,P|478:74|406:163,1,157.500006008148,2|0,3:2|0:0,0:0:0:0:
329,133,64953,2,0,P|309:90|381:1,1,157.500006008148,2|0,0:2|0:0,0:0:0:0:
395,80,65581,6,0,L|428:254,1,157.500006008148,4|0,2:2|0:0,0:0:0:0:
359,265,66209,2,0,B|517:289|517:289|456:306,2,210.000008010865,2|2|2,0:2|3:2|0:2,0:0:0:0:
359,265,67937,1,0,0:0:0:0:
247,362,68094,102,0,P|191:366|121:281,1,157.500006008148,0|0,3:2|0:0,0:0:0:0:
94,218,68722,2,0,B|2:203|2:203|62:251,1,157.500006008148,2|0,0:2|0:0,0:0:0:0:
110,32,69350,6,0,L|212:13,2,78.7500030040742,2|2|2,3:2|0:0|0:0,0:0:0:0:
267,53,69979,86,0,P|271:95|240:143,1,78.7500030040742,2|0,1:2|0:0,0:0:0:0:
248,135,70293,6,0,P|192:129|149:144,1,83.9999974365235,0|0,3:0|3:0,0:0:0:0:
102,249,70528,1,0,3:0:0:0:
102,249,70607,6,0,P|126:349|126:349,1,83.9999974365235,4|0,1:2|0:0,0:0:0:0:
165,135,70921,85,8,2:2:0:0:
213,287,71078,2,0,L|239:395,1,83.9999974365235,0|0,3:3|3:3,0:0:0:0:
343,199,71392,2,0,P|367:99|367:99,1,83.9999974365235,0|8,1:0|2:2,0:0:0:0:
406,313,71706,5,0,3:3:0:0:
454,161,71863,2,0,L|480:53,2,83.9999974365235,0|0|8,1:0|3:3|0:0,0:0:0:0:
407,19,72335,6,0,P|370:59|283:57,1,125.999996154785,0|0,3:3|0:0,0:0:0:0:
227,23,72649,85,0,1:0:0:0:
76,108,72806,1,8,0:0:0:0:
242,203,72963,1,0,3:3:0:0:
175,109,73120,5,2,1:3:0:0:
175,109,73277,2,0,L|164:199,1,83.9999974365235,2|8,0:3|2:2,0:0:0:0:
81,364,73591,6,0,B|82:329|67:275|67:275|89:316|114:338,1,167.999994873047,0|0,3:3|1:0,0:0:0:0:
73,197,74062,2,0,P|41:198|-7:239,1,83.9999974365235,8|0,2:2|3:3,0:0:0:0:
185,26,74377,85,12,1:2:0:0:
482,384,75005,6,0,P|444:369|420:336,1,83.9999974365235,12|0,3:2|1:2,0:0:0:0:
423,337,75476,1,0,0:0:0:0:
302,373,75633,6,0,P|229:338|217:269,1,125.999996154785,4|0,1:2|0:0,0:0:0:0:
267,233,75947,2,0,P|321:202|340:146,1,83.9999974365235,8|0,2:2|3:3,0:0:0:0:
180,224,76183,1,2,0:0:0:0:
180,224,76261,86,0,B|94:201|94:201|133:243,1,125.999996154785,0|2,3:3|0:0,0:0:0:0:
335,215,76576,2,0,P|360:159|352:103,1,83.9999974365235,8|0,2:2|3:3,0:0:0:0:
208,317,76890,6,0,P|230:356|271:379,1,83.9999974365235,0|0,1:0|3:3,0:0:0:0:
161,212,77125,1,2,0:0:0:0:
161,212,77204,2,0,L|43:175,1,83.9999974365235,8|0,0:0|3:3,0:0:0:0:
355,84,77518,6,0,P|374:131|372:181,1,83.9999974365235,0|0,3:3|1:0,0:0:0:0:
306,219,77754,2,0,L|234:243,1,41.9999987182618,2|8,0:0|0:0,0:0:0:0:
314,15,77989,1,0,3:3:0:0:
455,103,78146,86,0,P|459:178|425:242,1,125.999996154785,2|2,1:3|0:0,0:0:0:0:
266,232,78460,2,0,P|260:168|279:118,1,83.9999974365235,8|0,2:2|3:3,0:0:0:0:
512,265,78775,5,0,3:3:0:0:
264,149,79010,1,2,0:0:0:0:
264,149,79089,5,8,2:2:0:0:
355,84,79246,85,0,3:3:0:0:
414,313,79403,2,0,L|428:375,1,41.9999987182618,12|0,1:2|0:0,0:0:0:0:
424,353,80031,69,0,1:2:0:0:
220,383,80345,2,0,P|132:319|95:332,1,125.999996154785,0|0,2:2|0:0,0:0:0:0:
54,354,80659,101,0,3:0:0:0:
245,51,81916,54,0,B|137:35|137:35|202:63,1,167.999994873047,0|0,1:0|0:0,0:0:0:0:
310,121,82387,2,0,B|418:105|418:105|353:133,1,167.999994873047,0|0,1:0|0:0,0:0:0:0:
238,319,83172,6,0,L|230:352,1,20.9999993591309,0|0,3:0|0:0,0:0:0:0:
31,192,84429,6,0,B|35:168|35:168|48:243,1,83.9999974365235,8|0,1:0|0:0,0:0:0:0:
424,263,85686,6,0,L|468:252,2,41.9999987182618,0|0|0,3:0|0:0|0:0,0:0:0:0:
443,272,86942,2,0,B|425:285|425:285|437:219,1,83.9999974365235,8|0,1:0|0:0,0:0:0:0:
496,30,87727,70,0,B|439:-1|439:-1|460:122,1,167.999994873047,0|0,1:0|0:0,0:0:0:0:
456,100,88120,1,0,0:0:0:0:
456,100,88199,1,0,1:0:0:0:
119,123,88827,102,0,L|72:115,1,41.9999987182618,0|0,1:1|0:0,0:0:0:0:
119,123,89455,69,0,3:0:0:0:
77,115,89612,1,0,0:0:0:0:
175,187,89769,5,0,3:0:0:0:
220,177,89926,1,0,0:0:0:0:
313,67,90083,102,0,L|273:58,1,41.9999987182618,2|0,3:2|0:0,0:0:0:0:
308,151,90240,5,2,2:2:0:0:
308,151,90319,2,0,P|348:218|342:140,1,209.999993591309,2|0,2:2|3:0,0:0:0:0:
328,138,91026,101,0,0:0:0:0:
386,231,91340,1,0,0:0:0:0:
483,181,91654,1,0,0:0:0:0:
399,172,91968,6,0,L|387:223,1,38.5000011749268,2|0,0:0|0:0,0:0:0:0:
324,165,92282,2,0,L|311:218,1,38.5000011749268
191,251,92597,2,0,L|179:200,1,38.5000011749268,2|0,0:0|0:0,0:0:0:0:
116,258,92911,2,0,L|103:205,1,38.5000011749268
6,152,93225,101,2,0:0:0:0:
109,100,93539,1,0,0:0:0:0:
12,36,93853,1,2,0:0:0:0:
33,110,94167,2,0,L|25:160,1,38.5000011749268
26,148,94481,5,2,0:0:0:0:
466,212,95110,1,0,2:0:0:0:
466,212,95738,102,0,L|452:124,2,77.0000023498536,0|0|0,2:0|0:0|0:0,0:0:0:0:
411,315,96680,1,0,0:0:0:0:
423,140,96994,6,0,L|443:48,1,77.0000023498536,0|0,2:0|0:0,0:0:0:0:
240,35,98251,102,0,P|198:95|134:69,1,154.000004699707,0|0,2:0|0:0,0:0:0:0:
103,36,99193,1,0,0:0:0:0:
150,104,99508,37,0,3:0:0:0:
241,164,99822,53,0,3:0:0:0:
368,190,100136,101,0,3:0:0:0:
512,172,100450,85,0,3:0:0:0:
194,278,100764,6,0,P|160:331|174:386,1,119.000002269745,4|0,1:1|2:0,0:0:0:0:
259,347,101235,1,0,3:0:0:0:
259,347,101392,102,0,L|344:333,1,59.5000011348725,0|0,3:0|2:0,0:0:0:0:
113,226,101706,2,0,L|28:212,1,59.5000011348725,0|0,3:0|3:0,0:0:0:0:
161,58,102021,2,0,B|283:36|283:36|342:87,1,178.500003404617,0|0,3:0|2:0,0:0:0:0:
333,12,102649,6,0,L|321:92,1,59.5000011348725,0|0,3:0|2:0,0:0:0:0:
191,201,102963,2,0,L|199:142,1,59.5000011348725,0|0,3:0|3:0,0:0:0:0:
423,69,103277,101,2,2:1:0:0:
284,153,103591,1,0,3:0:0:0:
254,332,103905,1,0,3:0:0:0:
325,298,104062,1,0,3:0:0:0:
319,376,104220,1,0,3:0:0:0:
119,285,104534,6,0,P|38:300|11:385,1,178.500003404617,0|0,3:0|2:0,0:0:0:0:
91,377,105162,2,0,L|168:363,2,59.5000011348725,0|0|0,3:0|3:0|3:0,0:0:0:0:
338,285,105790,102,0,B|446:266|398:355|527:331,1,178.500003404617,0|0,1:0|3:0,0:0:0:0:
479,242,106419,1,2,3:0:0:0:
415,186,106576,2,0,L|436:64,1,119.000002269745,0|0,2:0|3:0,0:0:0:0:
167,118,107047,6,0,B|125:67|125:67|238:112,1,178.500003404617,8|0,2:0|3:0,0:0:0:0:
230,109,107675,2,0,L|215:190,1,59.5000011348725,2|0,3:0|2:0,0:0:0:0:
118,58,107989,2,0,L|129:0,1,59.5000011348725,0|0,3:0|2:0,0:0:0:0:
9,218,108303,101,2,1:3:0:0:
10,229,108617,5,2,1:3:0:0:
10,240,108932,101,2,1:3:0:0:
11,251,109246,5,2,1:3:0:0:
73,345,109560,102,0,P|124:373|184:358,1,115.50000352478,2|2,1:3|2:0,0:0:0:0:
201,277,109874,2,0,L|290:264,1,77.0000023498536,8|0,1:2|3:2,0:0:0:0:
355,309,110110,1,2,2:0:0:0:
355,309,110188,5,8,1:2:0:0:
463,144,110345,1,0,3:2:0:0:
490,285,110502,1,8,1:2:0:0:
458,263,110580,1,8,2:0:0:0:
426,241,110659,1,8,3:2:0:0:
394,220,110737,1,8,2:0:0:0:
364,196,110816,6,0,B|399:155|363:98|363:98|366:145|321:181,1,178.500003404617,4|0,1:2|0:0,0:0:0:0:
294,233,111131,1,8,3:2:0:0:
226,78,111288,1,0,3:2:0:0:
434,50,111445,6,0,P|378:15|292:46,1,119.000002269745,0|0,3:2|1:2,0:0:0:0:
151,131,111759,2,0,P|207:166|293:135,1,119.000002269745,8|0,3:2|3:0,0:0:0:0:
442,52,112073,102,0,L|468:248,1,178.500003404617,0|0,1:0|0:0,0:0:0:0:
438,302,112387,2,0,B|360:284|360:284|413:261,1,119.000002269745,8|0,3:2|3:2,0:0:0:0:
287,237,112623,1,0,3:0:0:0:
287,237,112701,5,0,3:2:0:0:
80,314,112858,1,0,1:2:0:0:
231,384,113015,2,0,P|229:302|115:285,1,178.500003404617,8|0,3:2|2:0,0:0:0:0:
219,190,113330,102,0,L|238:46,1,119.000002269745,0|0,1:2|3:2,0:0:0:0:
400,263,113644,2,0,L|426:411,1,119.000002269745,8|0,3:2|3:2,0:0:0:0:
326,9,113958,6,0,L|311:127,1,119.000002269745,0|0,3:2|1:2,0:0:0:0:
512,317,114272,2,0,L|492:200,1,119.000002269745,8|0,3:2|3:0,0:0:0:0:
415,49,114586,102,0,P|427:113|423:40,1,238.00000453949,0|8,1:0|3:2,0:0:0:0:
460,29,115057,1,0,3:2:0:0:
492,199,115214,6,0,P|422:199|356:162,1,119.000002269745,0|0,3:2|1:2,0:0:0:0:
227,330,115528,2,0,B|226:363|256:378|256:378|268:342|232:310,1,119.000002269745,8|2,3:2|3:0,0:0:0:0:
244,322,115843,102,0,P|169:283|19:345,1,238.00000453949,0|8,1:2|3:2,0:0:0:0:
31,329,116314,5,0,3:2:0:0:
152,199,116471,2,0,L|172:68,2,119.000002269745,0|0|8,3:2|1:2|3:2,0:0:0:0:
77,127,116942,1,0,3:0:0:0:
252,41,117099,102,0,B|345:3|345:3|275:78,1,178.500003404617,0|0,1:0|0:0,0:0:0:0:
291,60,117413,2,0,L|155:36,1,119.000002269745,8|0,3:2|3:2,0:0:0:0:
389,82,117727,5,0,3:2:0:0:
344,155,117884,1,0,1:2:0:0:
419,199,118042,1,8,3:2:0:0:
464,126,118199,1,0,3:0:0:0:
501,365,118356,102,0,B|444:377|401:312|401:312|401:359|432:390,1,178.500003404617,0|0,1:2|0:0,0:0:0:0:
442,243,118670,2,0,L|466:111,1,119.000002269745,8|0,3:2|3:2,0:0:0:0:
512,354,118984,5,0,3:2:0:0:
477,121,119141,2,0,P|508:77|494:4,2,119.000002269745,0|8|0,1:2|3:2|3:0,0:0:0:0:
192,103,119612,102,0,L|386:75,1,178.500003404617,0|0,1:0|0:0,0:0:0:0:
378,78,119926,2,0,L|356:195,1,119.000002269745,8|0,3:2|3:2,0:0:0:0:
154,374,120241,5,0,3:2:0:0:
134,280,120398,1,0,1:2:0:0:
61,344,120555,2,0,L|-13:357,2,59.5000011348725,8|0|2,3:2|0:0|3:0,0:0:0:0:
226,308,120869,102,0,B|352:282|352:282|262:334,1,178.500003404617,4|0,1:2|0:0,0:0:0:0:
339,326,121183,1,8,3:2:0:0:
235,225,121340,1,0,3:2:0:0:
373,137,121497,5,0,3:2:0:0:
235,225,121654,2,0,P|205:192|257:135,2,119.000002269745,0|8|0,1:2|3:2|3:0,0:0:0:0:
279,66,122125,102,0,P|230:113|216:31,1,178.500003404617,0|0,1:0|0:0,0:0:0:0:
250,30,122439,1,8,3:2:0:0:
349,4,122597,1,0,3:2:0:0:
442,193,122754,5,0,3:2:0:0:
359,88,122911,1,0,1:2:0:0:
405,194,123068,101,8,3:2:0:0:
510,107,123225,1,0,3:0:0:0:
333,163,123382,6,0,B|208:142|275:188|150:163,1,178.500003404617,0|0,1:2|0:0,0:0:0:0:
177,145,123696,2,0,L|40:158,1,119.000002269745,8|0,3:2|3:2,0:0:0:0:
0,269,124010,1,0,3:2:0:0:
217,295,124167,101,0,1:2:0:0:
92,235,124324,1,8,3:2:0:0:
217,295,124481,1,0,3:0:0:0:
134,349,124638,6,0,B|192:357|192:357|240:317|240:317|331:328,1,178.500003404617,0|0,1:0|0:0,0:0:0:0:
323,355,124953,1,8,3:2:0:0:
417,322,125110,1,0,3:2:0:0:
364,250,125267,101,0,3:2:0:0:
328,107,125424,1,0,1:2:0:0:
382,247,125581,1,8,3:2:0:0:
277,214,125738,6,0,L|284:183,1,26.2500010013581,2|0,3:0|0:0,0:0:0:0:
391,154,125895,102,0,B|511:130|511:130|474:198,1,178.500003404617,0|0,1:2|0:0,0:0:0:0:
505,193,126209,1,8,3:2:0:0:
390,229,126366,1,0,3:2:0:0:
232,128,126523,5,0,3:2:0:0:
232,128,126680,2,0,B|251:56|251:56|210:107,1,119.000002269745,0|8,1:2|3:2,0:0:0:0:
83,219,126994,1,0,3:0:0:0:
71,234,127073,1,0,0:0:0:0:
60,248,127151,101,0,1:0:0:0:
166,205,127309,1,0,3:2:0:0:
54,145,127466,2,0,P|33:84|127:69,1,178.500003404617,8|0,3:2|0:0,0:0:0:0:
107,82,127780,5,0,3:2:0:0:
222,38,127937,1,0,1:2:0:0:
331,126,128094,101,8,3:2:0:0:
222,38,128251,1,0,3:0:0:0:
390,43,128408,6,0,B|297:-4|297:-4|335:143,1,238.00000453949,0|8,1:2|3:2,0:0:0:0:
446,183,128879,2,0,B|510:170|510:170|433:204,1,119.000002269745,0|0,3:2|3:2,0:0:0:0:
262,310,129193,101,0,1:2:0:0:
359,288,129350,1,8,3:2:0:0:
441,342,129508,1,0,3:0:0:0:
311,217,129665,5,0,1:0:0:0:
262,234,129822,1,0,3:2:0:0:
291,126,129979,101,8,3:2:0:0:
219,168,130136,1,0,3:2:0:0:
236,56,130293,85,10,3:2:0:0:
145,159,130450,1,0,1:2:0:0:
161,0,130607,5,8,3:2:0:0:
65,186,130764,1,2,3:0:0:0:
15,255,130921,37,0,3:2:0:0:
29,263,131078,5,0,3:2:0:0:
13,265,131235,101,0,3:2:0:0:
23,269,131392,5,0,3:2:0:0:
24,256,131549,101,0,3:2:0:0:
8,262,131706,5,0,3:2:0:0:
32,269,131864,101,0,3:2:0:0:
14,275,132021,5,0,3:2:0:0:
15,255,132178,101,0,3:2:0:0:
37,262,132335,5,0,3:2:0:0:
28,278,132492,101,0,3:2:0:0:
21,269,132649,5,0,3:2:0:0:
39,272,132806,101,0,3:2:0:0:
14,280,132963,5,0,3:2:0:0:
9,259,133120,101,0,3:2:0:0:
30,261,133277,5,0,3:2:0:0:
27,279,133434,101,0,3:2:0:0:
10,269,133591,5,0,3:2:0:0:
42,270,133748,101,0,3:2:0:0:
22,286,133905,5,0,3:2:0:0:
25,251,134062,101,0,3:2:0:0:
42,281,134220,5,0,3:2:0:0:
10,269,134377,101,0,3:2:0:0:
51,263,134534,5,0,3:2:0:0:
28,293,134691,101,0,3:2:0:0:
32,249,134848,5,0,3:2:0:0:
7,284,135005,101,0,3:2:0:0:
43,286,135162,5,0,3:2:0:0:
12,261,135319,101,0,3:2:0:0:
56,272,135476,5,0,3:2:0:0:
30,281,135633,101,8,3:1:0:0:
335,220,135947,22,0,L|495:211,1,154.000004699707,0|8,1:0|2:2,0:0:0:0:
414,235,136419,2,0,L|245:246,1,154.000004699707,0|0,3:3|1:0,0:0:0:0:
72,190,136890,1,8,2:2:0:0:
72,190,137047,1,0,3:3:0:0:
109,112,137204,6,0,P|131:24|203:46,1,154.000004699707,0|8,1:0|0:0,0:0:0:0:
241,120,137675,2,0,B|221:165|221:165|216:137,1,77.0000023498536,0|0,3:3|3:3,0:0:0:0:
390,58,137989,101,0,1:0:0:0:
241,120,138146,2,0,L|329:136,1,77.0000023498536,8|0,0:0|3:3,0:0:0:0:
161,37,138460,6,0,B|52:41|124:64|3:69,1,154.000004699707,0|8,1:0|2:2,0:0:0:0:
85,33,138932,2,0,B|194:29|122:6|243:1,1,154.000004699707,0|0,3:3|1:0,0:0:0:0:
350,141,139403,1,8,2:2:0:0:
350,141,139560,1,0,3:3:0:0:
484,78,139717,102,0,B|419:66|419:66|459:155,1,154.000004699707,0|8,1:0|0:0,0:0:0:0:
328,215,140188,2,0,B|266:211|266:211|237:231|237:231|174:225,1,154.000004699707,0|0,3:3|1:0,0:0:0:0:
367,365,140659,2,0,L|385:274,1,77.0000023498536,8|0,0:0|3:3,0:0:0:0:
243,113,140973,5,2,1:2:0:0:
261,139,141131,1,2,0:0:0:0:
231,133,141288,1,10,2:2:0:0:
273,117,141445,1,2,3:2:0:0:
217,285,141602,101,2,3:2:0:0:
247,215,141759,1,0,1:2:0:0:
289,274,141916,1,10,2:2:0:0:
176,227,142073,1,2,3:2:0:0:
34,332,142230,6,0,L|132:316,1,77.0000023498536,0|0,1:2|3:2,0:0:0:0:
18,163,142544,101,8,0:0:0:0:
18,163,142701,2,0,B|40:82|40:82|46:175,1,154.000004699707,2|2,3:2|1:2,0:0:0:0:
196,242,143172,2,0,L|341:261,1,115.50000352478,10|0,0:0|0:0,0:0:0:0:
407,297,143487,6,0,B|319:276|319:276|343:350,1,154.000004699707,2|10,1:2|2:2,0:0:0:0:
200,249,143958,2,0,B|112:270|112:270|136:196,1,154.000004699707,2|2,3:2|1:2,0:0:0:0:
297,114,144429,2,0,L|400:98,1,77.0000023498536,10|2,2:2|2:2,0:0:0:0:
373,102,144665,1,0,0:0:0:0:
373,102,144743,102,0,P|400:130|392:179,1,77.0000023498536,2|0,3:2|0:0,0:0:0:0:
218,219,145057,1,0,3:0:0:0:
153,141,145214,54,0,P|173:56|223:83,1,154.000004699707
316,186,145686,2,0,L|301:272,1,77.0000023498536,2|2,2:0|0:0,0:0:0:0:
302,261,145921,1,0,0:0:0:0:
302,261,146000,21,0,1:0:0:0:
87,364,146314,101,0,3:2:0:0:
87,364,146471,1,0,3:2:0:0:
176,245,146942,6,0,L|173:223,2,19.2500005874634
431,325,147256,101,0,1:0:0:0:
431,325,147413,1,0,1:2:0:0:
293,367,148042,1,0,1:0:0:0:
326,198,148199,6,0,L|344:112,1,77.0000023498536,8|0,2:0|0:0,0:0:0:0:
65,251,148513,101,0,1:0:0:0:
65,251,148670,1,0,3:0:0:0:
160,115,148827,6,0,L|152:65,2,38.5000011749268,8|0|0,2:0|0:0|3:0,0:0:0:0:
176,245,149298,102,0,L|173:223,2,19.2500005874634,8|0|0,1:0|0:0|0:0,0:0:0:0:
451,212,149769,5,0,1:0:0:0:
451,212,149926,1,0,1:0:0:0:
451,212,150083,1,0,1:0:0:0:
451,212,150240,1,0,1:0:0:0:
369,20,150712,102,0,L|372:-2,2,19.2500005874634,0|0|0,3:0|0:0|0:0,0:0:0:0:
512,90,151026,38,0,B|496:33|496:33|476:150,1,154.000004699707,0|0,1:0|0:0,0:0:0:0:
293,138,151497,2,0,B|284:107|284:107|273:170,1,77.0000023498536,2|0,3:2|0:0,0:0:0:0:
93,175,151811,2,0,B|77:118|77:118|57:235,1,154.000004699707,2|0,3:2|0:0,0:0:0:0:
0,263,152282,6,0,B|16:206|16:206|36:323,1,154.000004699707,0|0,1:0|0:0,0:0:0:0:
219,311,152754,2,0,B|227:280|227:280|238:343,1,77.0000023498536,2|0,3:2|0:0,0:0:0:0:
419,348,153067,2,0,B|435:291|435:291|455:408,1,154.000004699707,2|0,3:2|0:0,0:0:0:0:
512,268,153539,70,0,L|498:177,1,77.0000023498536,0|2,1:0|1:3,0:0:0:0:
500,191,153853,1,0,3:0:0:0:
379,223,154010,2,0,P|314:236|248:153,1,154.000004699707,2|0,2:0|3:0,0:0:0:0:
252,181,154638,1,0,3:0:0:0:
85,216,154795,102,0,L|18:230,3,38.5000011749268,8|0|8|4,3:2|0:0|0:3|0:3,0:0:0:0:
315,124,155227,2,0,L|386:145,1,38.5000011749268,4|0,0:3|1:1,0:0:0:0:
431,147,155424,6,0,B|451:147|451:147|423:156,7,38.5000011749268,0|0|0|0|0|0|0|0,3:1|3:1|3:1|3:1|3:1|3:1|3:1|3:1,0:0:0:0:
486,231,156052,5,8,1:0:0:0:
293,120,156366,1,8,2:0:0:0:
512,158,156680,5,0,2:0:0:0:
293,197,156994,1,8,2:0:0:0:
486,86,157309,101,0,2:0:0:0:
343,256,157623,1,8,2:0:0:0:
419,47,157937,5,0,2:0:0:0:
419,269,158251,1,8,2:0:0:0:
353,79,158565,101,0,2:0:0:0:
468,216,158879,1,8,2:0:0:0:
336,135,159193,5,0,2:0:0:0:
466,158,159507,1,8,2:0:0:0:
356,174,159821,101,0,2:0:0:0:
435,128,160136,1,8,2:0:0:0:
328,275,160450,6,0,B|309:310|316:352|316:352|336:313|367:297,1,105.000004005432,0|8,2:0|2:0,0:0:0:0:
26,153,161078,101,8,1:0:0:0:
219,264,161392,1,8,2:0:0:0:
0,226,161706,5,0,2:0:0:0:
219,187,162020,1,8,2:0:0:0:
26,298,162335,101,0,2:0:0:0:
169,128,162649,1,8,2:0:0:0:
93,337,162963,5,0,2:0:0:0:
93,115,163277,1,8,2:0:0:0:
158,304,163591,101,0,2:0:0:0:
44,168,163905,1,8,2:0:0:0:
176,249,164219,5,0,2:0:0:0:
46,226,164533,1,8,2:0:0:0:
156,210,164847,101,2,1:3:0:0:
301,145,165162,5,0,1:2:0:0:
427,13,165476,102,0,B|462:-6|504:1|504:1|465:21|449:52,1,105.000004005432,0|0,1:0|0:0,0:0:0:0:
480,94,165790,2,0,B|500:109|524:104|524:104|503:98|490:81,1,70,0|0,1:2|0:0,0:0:0:0:
304,48,166104,22,0,L|208:61,1,80.5000015354157,4|0,1:3|3:0,0:0:0:0:
290,216,166419,2,0,L|309:321,1,80.5000015354157,10|0,1:2|3:0,0:0:0:0:
207,334,166733,2,0,B|148:327|148:327|110:351|110:351|43:343,1,161.000003070831,2|8,1:2|1:2,0:0:0:0:
180,246,167204,5,0,3:0:0:0:
180,246,167361,2,0,P|207:188|198:162,1,80.5000015354157,0|0,1:2|3:0,0:0:0:0:
286,291,167675,2,0,P|321:238|308:199,1,80.5000015354157,8|0,1:2|3:0,0:0:0:0:
499,264,167989,102,0,P|463:326|379:299,1,161.000003070831,0|8,1:2|1:2,0:0:0:0:
285,150,168460,1,0,3:0:0:0:
285,150,168539,1,0,3:0:0:0:
285,150,168617,6,0,L|309:70,1,80.5000015354157,4|0,1:3|3:0,0:0:0:0:
125,166,168932,2,0,L|25:192,1,80.5000015354157,10|0,1:2|3:0,0:0:0:0:
146,242,169246,102,0,L|164:322,1,80.5000015354157,2|0,1:2|3:0,0:0:0:0:
250,121,169560,2,0,L|324:82,1,80.5000015354157,8|0,1:2|3:0,0:0:0:0:
321,83,169795,1,0,3:0:0:0:
321,83,169874,5,2,1:2:0:0:
402,28,170031,1,0,0:0:0:0:
355,120,170188,101,10,1:2:0:0:
459,95,170345,1,0,0:0:0:0:
356,167,170502,5,2,1:2:0:0:
465,220,170659,1,0,0:0:0:0:
313,202,170816,53,10,1:2:0:0:
313,202,171131,2,0,L|302:260,1,40.2500007677078,0|0,1:2|0:0,0:0:0:0:
202,297,171916,53,0,1:0:0:0:
325,225,172073,2,0,B|332:212|332:212|255:224,1,80.5000015354157,8|0,2:0|0:0,0:0:0:0:
52,253,172387,53,0,1:0:0:0:
40,241,172544,1,0,3:0:0:0:
67,251,172701,1,0,3:0:0:0:
47,262,172858,1,0,3:0:0:0:
52,253,173172,53,0,1:0:0:0:
133,155,173330,2,0,L|116:65,1,80.5000015354157,8|0,2:0|0:0,0:0:0:0:
118,75,173644,54,0,P|171:143|230:115,1,161.000003070831,0|0,1:0|0:0,0:0:0:0:
305,152,174115,2,0,P|358:83|417:111,1,161.000003070831,0|0,3:0|1:0,0:0:0:0:
323,227,174586,2,0,L|216:242,1,80.5000015354157,8|0,2:0|0:0,0:0:0:0:
243,238,174822,1,0,0:0:0:0:
243,238,174900,1,0,1:0:0:0:
336,244,175371,54,0,L|505:227,1,161.000003070831,0|0,3:0|1:0,0:0:0:0:
496,227,175843,1,0,2:0:0:0:
216,368,176157,102,0,P|204:332|197:283,1,80.5000015354157,4|0,1:3|3:0,0:0:0:0:
4,156,176471,2,0,P|16:192|16:244,1,80.5000015354157,10|0,1:2|3:0,0:0:0:0:
112,304,176785,2,0,B|112:228|136:272|128:176,1,120.750002303124,2|0,1:2|3:0,0:0:0:0:
170,119,177099,6,0,P|185:87|175:26,1,80.5000015354157,8|0,1:2|3:0,0:0:0:0:
182,42,177335,1,0,3:0:0:0:
182,42,177413,2,0,P|218:51|279:57,1,80.5000015354157,0|0,1:2|3:0,0:0:0:0:
362,200,177727,2,0,P|369:240|387:287,1,80.5000015354157,8|0,1:2|3:0,0:0:0:0:
459,164,178042,2,0,P|499:120|446:75,1,120.750002303124,0|0,1:2|3:0,0:0:0:0:
392,64,178356,2,0,L|312:81,1,80.5000015354157,8|0,1:2|3:0,0:0:0:0:
91,217,178670,101,4,1:3:0:0:
181,176,178827,1,0,3:0:0:0:
83,141,178984,1,2,1:2:0:0:
161,248,179141,1,0,3:0:0:0:
181,176,179298,5,2,1:2:0:0:
98,293,179455,1,0,3:0:0:0:
238,225,179612,101,0,1:2:0:0:
98,293,179769,2,0,L|72:341,2,40.2500007677078,0|0|2,3:0|0:0|1:2,0:0:0:0:
165,351,180083,6,0,P|202:333|256:340,1,80.5000015354157,0|10,0:0|2:0,0:0:0:0:
323,292,180398,2,0,P|360:274|414:281,1,80.5000015354157,0|0,0:0|3:0,0:0:0:0:
475,300,180712,1,2,1:2:0:0:
379,259,180869,70,0,P|444:231|473:302,1,161.000003070831,10|0,2:0|1:0,0:0:0:0:
474,299,181340,1,0,3:0:0:0:
474,299,181497,1,0,3:0:0:0:
474,299,181654,1,0,3:0:0:0:
252,148,182125,38,0,P|224:83|295:54,1,161.000003070831,8|0,2:0|1:0,0:0:0:0:
292,53,182596,1,0,3:0:0:0:
292,53,182753,1,0,3:0:0:0:
292,53,182910,1,0,3:0:0:0:
124,264,183382,70,0,P|59:292|30:221,1,161.000003070831,8|0,2:0|1:0,0:0:0:0:
29,224,183853,1,0,3:0:0:0:
29,224,184010,1,0,3:0:0:0:
29,224,184167,1,0,3:0:0:0:
244,224,184638,38,0,L|252:400,2,161.000003070831,8|0|0,2:0|1:0|0:0,0:0:0:0:
288,112,185424,1,0,1:0:0:0:
320,188,185581,54,0,L|336:276,1,80.5000015354157
152,156,185895,5,2,1:2:0:0:
164,136,185973,1,2,2:0:0:0:
168,96,186052,101,2,2:0:0:0:
184,60,186131,1,2,2:0:0:0:
172,40,186209,69,2,0:1:0:0:
19,361,186837,2,0,B|139:347|139:347|88:335,1,157.500006008148,2|0,0:2|0:0,0:0:0:0:
215,384,187466,1,2,3:2:0:0:
172,40,188722,5,0,3:2:0:0:
393,297,189350,2,0,P|349:290|348:190,1,157.500006008148,2|0,0:2|0:0,0:0:0:0:
436,292,189978,2,0,P|393:312|304:240,1,157.500006008148,2|0,3:2|0:0,0:0:0:0:
334,163,190607,2,0,P|377:143|466:215,1,157.500006008148,2|0,0:2|0:0,0:0:0:0:
512,259,191235,101,4,2:2:0:0:
299,328,191864,2,0,B|179:343|179:343|228:354,1,157.500006008148,2|0,0:2|0:0,0:0:0:0:
96,376,192492,5,0,1:2:0:0:
96,376,192649,1,0,3:0:0:0:
14,255,192806,2,0,L|1:186,2,52.5000020027161,8|0|0,3:2|3:0|3:0,0:0:0:0:
189,224,193277,101,0,1:2:0:0:
6,162,193434,2,0,L|11:188,2,26.2500010013581,8|0|0,3:2|0:0|3:0,0:0:0:0:
290,12,194377,6,0,B|296:63|218:121|258:7|286:6,1,140,2|0,3:2|0:0,0:0:0:0:
416,282,195005,86,0,B|423:333|423:333|427:337|427:337|438:403,2,105,2|2|2,3:2|0:0|0:0,0:0:0:0:
399,202,195633,6,0,B|525:224|525:224|391:294,1,251.999992309571,2|0,1:2|3:0,0:0:0:0:
335,254,196183,1,0,3:0:0:0:
335,254,196261,6,0,L|217:233,1,83.9999974365235,4|0,1:2|0:0,0:0:0:0:
97,316,196576,85,8,2:2:0:0:
181,290,196733,2,0,L|160:408,1,83.9999974365235,0|0,3:3|3:3,0:0:0:0:
200,169,197047,2,0,L|214:86,1,83.9999974365235,0|8,1:0|2:2,0:0:0:0:
284,143,197362,5,0,3:3:0:0:
46,205,197519,2,0,L|128:219,2,83.9999974365235,0|0|8,1:0|3:3|0:0,0:0:0:0:
49,68,197989,6,0,P|73:21|193:35,1,167.999994873047,0|0,3:3|1:0,0:0:0:0:
284,143,198460,2,0,P|342:144|383:105,1,83.9999974365235,8|0,0:0|3:3,0:0:0:0:
420,0,198775,85,2,1:3:0:0:
420,0,198932,2,0,L|436:96,1,83.9999974365235,2|8,0:3|2:2,0:0:0:0:
401,207,199246,6,0,B|441:186|449:129|449:129|469:185|428:225,1,167.999994873047,0|0,3:3|1:0,0:0:0:0:
512,303,199717,2,0,L|429:287,1,83.9999974365235,8|0,2:2|3:3,0:0:0:0:
203,356,200031,5,12,1:2:0:0:
512,171,200659,85,12,3:2:0:0:
192,28,201288,6,0,P|172:88|185:138,1,83.9999974365235,4|0,1:2|0:0,0:0:0:0:
244,155,201523,1,0,0:0:0:0:
244,155,201602,2,0,B|335:170,1,83.9999974365235,8|0,2:2|3:3,0:0:0:0:
86,64,201916,6,0,B|7:48|7:48|59:90,1,125.999996154785,0|2,3:3|0:0,0:0:0:0:
173,107,202230,2,0,B|264:122,1,83.9999974365235,8|0,2:2|3:3,0:0:0:0:
152,279,202544,86,0,P|143:230|169:188,1,83.9999974365235,0|0,1:0|3:3,0:0:0:0:
244,155,202780,1,2,0:0:0:0:
244,155,202858,2,0,B|335:170,1,83.9999974365235,8|0,0:0|3:3,0:0:0:0:
488,58,203172,6,0,P|508:118|468:190,1,125.999996154785,0|2,3:3|0:0,0:0:0:0:
407,222,203487,2,0,B|325:209,1,83.9999974365235,8|0,0:0|3:3,0:0:0:0:
423,0,203801,6,0,P|442:58|416:114,1,125.999996154785,2|2,1:3|0:0,0:0:0:0:
325,209,204115,2,0,L|310:112,1,83.9999974365235,8|0,2:2|3:3,0:0:0:0:
296,44,204350,2,0,L|354:54,1,41.9999987182618,0|0,0:0|3:3,0:0:0:0:
449,321,204665,21,2,0:0:0:0:
449,321,204743,1,8,2:2:0:0:
273,276,204900,5,0,3:3:0:0:
415,114,205057,2,0,L|451:328,1,210,12|0,1:2|0:0,0:0:0:0:
449,321,205686,1,0,1:2:0:0:
512,384,206314,101,2,2:1:0:0:
160,312,207570,2,0,L|152:264,2,41.9999987182618
120,336,208827,5,2,0:0:0:0:
171,244,209141,1,0,0:0:0:0:
108,160,209455,2,0,L|20:136,2,83.9999974365235,0|0|0,0:0|3:0|0:0,0:0:0:0:
26,137,211340,101,0,3:0:0:0:
431,58,212597,1,0,3:0:0:0:
326,30,212911,1,0,0:0:0:0:
401,71,213225,1,0,0:0:0:0:
349,161,213539,1,0,0:0:0:0:
482,223,213853,5,2,3:1:0:0:
482,223,215110,1,0,2:0:0:0:
482,223,216052,2,0,L|475:269,1,41.9999987182618,0|2,2:0|2:1,0:0:0:0:
87,366,217309,101,0,0:0:0:0:
123,262,217623,2,0,L|116:218,1,41.9999987182618,2|0,2:2|0:0,0:0:0:0:
80,188,218251,2,0,L|92:141,1,41.9999987182618
162,35,218879,5,2,2:2:0:0:
206,24,219508,1,0,0:0:0:0:
250,14,220136,1,2,2:2:0:0:
250,14,221078,1,0,0:0:0:0:
463,0,221392,101,2,2:1:0:0:
428,8,221706,1,0,0:0:0:0:
354,70,222021,5,0,0:0:0:0:
322,79,222335,1,0,0:0:0:0:
247,166,222649,53,2,2:2:0:0:
222,174,222963,1,0,0:0:0:0:
198,182,223277,1,0,0:0:0:0:
173,189,223591,1,0,0:0:0:0:
85,293,223905,37,2,2:2:0:0:
62,211,224220,1,0,0:0:0:0:
117,300,224534,5,0,0:0:0:0:
159,216,224848,1,0,0:0:0:0:
87,369,225162,101,2,2:2:0:0:
87,369,225790,1,2,2:2:0:0:
222,324,226104,6,0,L|271:316,1,41.9999987182618,0|2,0:0|2:1,0:0:0:0:
374,41,227361,1,0,0:0:0:0:
427,96,227675,54,0,L|472:103,2,41.9999987182618,2|0|0,2:2|0:0|0:0,0:0:0:0:
370,145,228617,1,0,0:0:0:0:
303,177,228932,38,0,L|258:184,2,41.9999987182618,2|0|0,2:2|0:0|0:0,0:0:0:0:
303,177,230188,1,2,2:2:0:0:
284,320,231445,6,0,L|280:348,7,20.9999993591309,2|0|0|0|0|0|0|0,2:2|0:0|0:0|0:0|0:0|0:0|0:0|0:0,0:0:0:0:
287,307,232701,2,0,L|241:315,1,41.9999987182618,2|0,2:2|0:0,0:0:0:0:
116,384,233958,102,0,P|82:362|-1:370,1,125.999996154785,2|0,2:2|0:0,0:0:0:0:
0,369,235214,37,0,3:0:0:0:
100,377,235528,53,0,3:0:0:0:
230,345,235843,101,0,3:0:0:0:
382,235,236157,85,0,3:0:0:0:
486,4,236471,6,0,P|434:67|482:142,1,178.500003404617,4|0,1:0|3:0,0:0:0:0:
478,140,237099,2,0,L|415:148,1,59.5000011348725,0|0,3:0|2:0,0:0:0:0:
236,253,237413,2,0,L|295:245,1,59.5000011348725,0|0,3:0|3:0,0:0:0:0:
512,366,237727,102,0,B|378:380|378:380|418:356,1,178.500003404617,0|0,3:0|2:0,0:0:0:0:
474,232,238356,2,0,L|461:297,1,59.5000011348725,0|0,3:0|2:0,0:0:0:0:
295,245,238670,2,0,L|282:310,1,59.5000011348725,0|0,3:0|3:0,0:0:0:0:
105,326,238984,5,2,2:1:0:0:
0,134,239298,1,0,3:0:0:0:
214,0,239612,1,0,3:0:0:0:
219,73,239769,1,0,3:0:0:0:
149,41,239926,1,0,3:0:0:0:
359,132,240240,102,0,P|420:111|427:5,1,178.500003404617,0|0,3:0|2:0,0:0:0:0:
463,66,240869,2,0,L|530:82,2,59.5000011348725,0|0|0,3:0|3:0|3:0,0:0:0:0:
304,263,241497,6,0,B|397:247|397:247|332:305,1,178.500003404617,0|0,1:0|3:0,0:0:0:0:
429,329,242125,1,2,3:0:0:0:
254,323,242282,2,0,L|115:289,1,119.000002269745,0|0,2:0|3:0,0:0:0:0:
406,243,242754,102,0,B|514:272|514:272|463:257|449:219,1,178.500003404617,8|0,2:0|3:0,0:0:0:0:
331,197,243382,2,0,L|271:209,1,59.5000011348725,2|0,3:0|2:0,0:0:0:0:
170,110,243696,2,0,L|92:130,1,59.5000011348725,0|0,3:0|2:0,0:0:0:0:
0,0,244010,5,2,1:3:0:0:
19,3,244324,101,2,1:3:0:0:
36,5,244638,5,2,1:3:0:0:
52,8,244953,101,2,1:3:0:0:
238,0,245267,6,0,P|254:43|202:123,1,115.50000352478,2|2,1:3|2:0,0:0:0:0:
173,161,245581,2,0,L|187:259,1,77.0000023498536,8|0,1:2|3:2,0:0:0:0:
261,259,245816,1,2,2:0:0:0:
261,259,245895,101,8,1:2:0:0:
387,81,246052,1,0,3:2:0:0:
229,105,246209,5,8,1:2:0:0:
260,126,246287,1,8,2:0:0:0:
292,148,246366,1,8,3:2:0:0:
323,170,246444,1,8,2:0:0:0:
349,164,246523,6,0,B|369:184|369:184|193:205,1,195.999994018555,4|8,1:2|3:2,0:0:0:0:
405,269,246994,1,0,3:2:0:0:
241,374,247151,5,0,3:2:0:0:
314,272,247309,1,0,1:2:0:0:
241,374,247466,2,0,P|257:344|227:370,1,97.9999970092774,8|0,3:2|3:0,0:0:0:0:
23,298,247780,102,0,B|5:270|-18:248|-18:248|41:283|114:287,1,195.999994018555,0|8,1:0|3:2,0:0:0:0:
218,230,248251,1,0,3:2:0:0:
286,372,248408,5,0,3:2:0:0:
276,296,248565,1,0,1:2:0:0:
289,215,248722,1,8,3:2:0:0:
246,107,248879,1,0,3:0:0:0:
397,70,249036,102,0,B|522:36|522:36|462:115,2,195.999994018555,0|8|0,1:2|3:2|3:2,0:0:0:0:
500,166,249822,1,0,1:2:0:0:
382,231,249979,2,0,B|322:217|322:217|379:193,1,97.9999970092774,8|0,3:2|3:0,0:0:0:0:
325,21,250293,6,0,B|356:89|356:89|299:25,1,146.999995513916,0|0,1:0|0:0,0:0:0:0:
295,21,250607,1,8,3:2:0:0:
374,112,250764,1,0,3:2:0:0:
271,239,250921,101,0,3:2:0:0:
366,189,251078,1,0,1:2:0:0:
289,315,251235,1,8,3:2:0:0:
289,163,251392,6,0,L|292:144,1,19.2500005874634,2|0,3:0|0:0,0:0:0:0:
150,215,251549,102,0,B|188:169|273:174|273:174|233:189|224:230,1,195.999994018555,0|8,1:2|3:2,0:0:0:0:
330,289,252021,2,0,B|400:306|400:306|421:352|421:352|495:369,1,195.999994018555,0|0,3:2|1:2,0:0:0:0:
244,300,252492,1,8,3:2:0:0:
244,300,252649,1,0,3:0:0:0:
87,352,252806,6,0,P|94:263|152:291,1,146.999995513916,0|0,1:0|0:0,0:0:0:0:
125,264,253120,2,0,L|19:252,1,97.9999970092774,8|0,3:2|3:2,0:0:0:0:
168,131,253434,101,0,3:2:0:0:
35,169,253591,1,0,1:2:0:0:
113,27,253748,6,0,L|232:52,1,97.9999970092774,8|0,3:2|3:0,0:0:0:0:
208,47,253984,1,0,0:0:0:0:
208,47,254062,102,0,B|159:73|87:61|87:61|131:79|154:118,1,195.999994018555,0|8,1:2|3:2,0:0:0:0:
263,170,254534,1,0,3:2:0:0:
104,287,254691,5,0,3:2:0:0:
182,174,254848,1,0,1:2:0:0:
104,287,255005,2,0,P|125:261|113:296,1,97.9999970092774,8|0,3:2|3:0,0:0:0:0:
297,351,255319,102,0,B|348:345|348:345|392:353|392:353|452:347,1,146.999995513916,0|0,1:0|0:0,0:0:0:0:
456,346,255633,1,8,3:2:0:0:
345,227,255790,6,0,B|324:209|320:183|320:183|345:129,1,97.9999970092774,0|0,3:2|3:2,0:0:0:0:
370,46,256104,1,0,1:2:0:0:
160,160,256261,6,0,L|49:178,1,97.9999970092774,8|2,3:2|3:0,0:0:0:0:
63,175,256497,1,0,0:0:0:0:
63,175,256576,85,4,1:2:0:0:
208,78,256733,1,0,3:2:0:0:
43,32,256890,2,0,P|94:17|54:56,1,146.999995513916,8|0,3:2|0:0,0:0:0:0:
86,20,257204,6,0,L|195:4,1,97.9999970092774,0|0,3:2|1:2,0:0:0:0:
374,66,257518,2,0,L|484:81,1,97.9999970092774,8|0,3:2|3:0,0:0:0:0:
503,277,257832,102,0,B|456:238|458:184|458:184|427:220|467:270,1,195.999994018555,0|8,1:0|3:2,0:0:0:0:
342,182,258303,1,0,3:2:0:0:
509,283,258460,6,0,P|477:244|426:261,1,97.9999970092774,0|0,3:2|1:2,0:0:0:0:
307,105,258775,2,0,P|300:58|338:30,1,97.9999970092774,8|0,3:2|3:0,0:0:0:0:
338,30,259010,1,0,0:0:0:0:
338,30,259089,2,0,B|243:24|282:72|162:47,1,146.999995513916,0|0,1:2|0:0,0:0:0:0:
92,27,259403,102,0,B|22:17|22:17|58:57,1,97.9999970092774,8|0,3:2|3:2,0:0:0:0:
206,142,259717,2,0,B|276:132|276:132|240:172,1,97.9999970092774,0|0,3:2|1:2,0:0:0:0:
89,322,260031,2,0,B|98:291|98:291|92:258|92:258|110:212,1,97.9999970092774,8|0,3:2|3:0,0:0:0:0:
0,267,260345,6,0,B|71:259|110:294|196:280,1,195.999994018555,0|8,1:0|3:2,0:0:0:0:
283,235,260816,1,0,3:2:0:0:
488,308,260973,101,0,3:2:0:0:
369,256,261131,1,0,1:2:0:0:
451,376,261288,1,8,3:2:0:0:
434,214,261445,6,0,L|429:181,1,19.2500005874634,2|0,3:0|0:0,0:0:0:0:
313,315,261602,102,0,B|275:325|244:346|244:346|242:333|242:333|272:289|284:226,1,195.999994018555,0|8,1:2|3:2,0:0:0:0:
223,110,262073,1,0,3:2:0:0:
339,50,262230,5,0,3:2:0:0:
357,61,262387,1,0,1:2:0:0:
308,147,262544,1,8,3:2:0:0:
337,253,262701,1,0,3:0:0:0:
161,289,262858,102,0,B|102:278|102:278|54:302|80:358,1,146.999995513916,0|0,1:0|0:0,0:0:0:0:
151,381,263172,2,0,L|263:369,1,97.9999970092774,8|0,3:2|3:2,0:0:0:0:
390,186,263487,5,0,3:2:0:0:
230,247,263644,1,0,1:2:0:0:
415,321,263801,102,0,L|517:338,1,97.9999970092774,8|0,3:2|3:0,0:0:0:0:
511,337,264036,1,0,0:0:0:0:
511,337,264115,2,0,B|463:398|386:283|483:226,1,195.999994018555,0|8,1:2|3:2,0:0:0:0:
408,133,264586,6,0,P|390:95|424:116,1,97.9999970092774,0|0,3:2|3:2,0:0:0:0:
249,213,264900,101,0,1:2:0:0:
422,104,265057,2,0,P|381:125|322:113,1,97.9999970092774,8|0,3:2|3:0,0:0:0:0:
153,16,265371,5,0,1:0:0:0:
192,127,265528,1,0,3:2:0:0:
47,14,265686,101,10,3:2:0:0:
0,176,265843,1,2,3:2:0:0:
63,91,266000,85,10,3:2:0:0:
70,94,266078,1,2,2:0:0:0:
77,97,266157,2,0,L|122:107,1,35,0|2,1:2|2:0,0:0:0:0:
268,172,266314,5,10,3:2:0:0:
268,172,266392,1,2,2:0:0:0:
268,172,266471,38,0,L|330:162,1,52.5000020027161,2|2,3:0|2:0,0:0:0:0:
474,78,266628,102,0,P|423:149|441:233,1,157.500006008148,4|2,1:0|2:0,0:0:0:0:
439,298,266942,2,0,B|512:283|512:283|463:329,1,105.000004005432,10|0,3:2|3:2,0:0:0:0:
368,352,267178,1,2,2:0:0:0:
368,352,267256,54,0,L|297:338,1,52.5000020027161,2|0,3:2|2:0,0:0:0:0:
108,295,267413,1,0,1:2:0:0:
232,372,267570,54,0,B|217:340|217:340|241:255|241:255|226:211,1,157.500006008148,10|2,3:2|2:0,0:0:0:0:
148,195,267884,54,0,P|85:184|47:117,1,105.000004005432,0|2,1:0|3:2,0:0:0:0:
360,258,268199,2,0,P|381:318|342:384,1,105.000004005432,10|0,3:2|3:2,0:0:0:0:
283,153,268434,1,2,2:0:0:0:
283,153,268513,54,0,P|297:102|318:84,1,52.5000020027161,0|2,3:2|2:0,0:0:0:0:
267,29,268670,1,0,1:2:0:0:
452,18,268827,2,0,L|339:37,1,105.000004005432,8|0,3:2|1:3,0:0:0:0:
60,126,269141,54,0,L|163:108,1,105.000004005432,0|0,1:2|3:2,0:0:0:0:
285,156,269377,1,2,2:0:0:0:
285,156,269455,2,0,L|389:139,1,105.000004005432,10|0,3:2|3:2,0:0:0:0:
53,264,269769,53,0,3:2:0:0:
53,264,269848,1,2,2:0:0:0:
53,264,269926,2,0,P|29:312|42:370,2,105.000004005432,2|10|2,1:2|3:2|3:2,0:0:0:0:
227,384,270398,54,0,B|214:352|214:352|356:388,1,157.500006008148,0|2,1:0|2:0,0:0:0:0:
417,370,270712,53,8,3:2:0:0:
275,278,270869,1,0,3:2:0:0:
510,309,271026,54,0,L|367:272,2,105.000004005432,0|0|10,3:2|1:2|3:2,0:0:0:0:
510,309,271497,2,0,L|495:242,1,52.5000020027161,2|2,1:3|2:0,0:0:0:0:
411,117,271654,54,0,B|367:32|465:-50|487:64|413:77,1,157.500006008148,4|0,1:2|2:0,0:0:0:0:
331,0,271968,2,0,P|299:39|221:37,1,105.000004005432,10|0,3:2|3:2,0:0:0:0:
6,6,272282,54,0,L|71:18,1,52.5000020027161,2|2,3:2|2:0,0:0:0:0:
236,35,272439,2,0,L|96:68,2,105.000004005432,0|8|2,1:2|3:2|3:2,0:0:0:0:
28,178,272911,54,0,B|57:158|74:115|74:115|68:156|83:201,1,157.500006008148,0|0,1:0|0:0,0:0:0:0:
152,146,273225,1,8,3:2:0:0:
35,271,273382,1,0,3:2:0:0:
35,271,273460,1,2,2:0:0:0:
35,271,273539,54,0,B|20:333|20:333|51:296,1,105.000004005432,2|0,3:2|1:2,0:0:0:0:
190,323,273853,54,0,B|208:384|208:384|216:336,1,105.000004005432,8|2,3:2|1:2,0:0:0:0:
397,318,274167,54,0,B|462:360|462:360|473:276,1,157.500006008148,0|2,1:2|2:0,0:0:0:0:
460,84,274481,2,0,L|443:187,1,105.000004005432,8|0,3:2|3:2,0:0:0:0:
443,187,274717,1,2,2:0:0:0:
443,187,274795,53,0,3:2:0:0:
331,376,274953,53,0,1:2:0:0:
368,144,275110,1,8,3:2:0:0:
472,280,275267,1,2,3:2:0:0:
277,296,275424,54,0,B|165:323|165:323|97:271,1,157.500006008148,0|2,1:0|2:0,0:0:0:0:
55,281,275738,101,10,3:2:0:0:
55,281,275816,1,0,0:0:0:0:
55,281,275895,2,0,L|-5:296,1,52.5000020027161,2|0,1:2|0:0,0:0:0:0:
202,226,276052,85,2,3:2:0:0:
202,226,276130,1,2,2:0:0:0:
202,226,276209,2,0,L|144:203,1,52.5000020027161,2|2,1:2|2:0,0:0:0:0:
350,173,276366,5,10,3:2:0:0:
350,173,276444,1,2,2:0:0:0:
350,173,276523,2,0,L|315:121,1,52.5000020027161,2|2,3:0|2:0,0:0:0:0:
318,49,276680,6,0,P|410:27|474:104,1,157.500006008148,4|2,1:0|2:0,0:0:0:0:
482,138,276994,2,0,B|513:160|513:160|504:236,1,105.000004005432,10|0,3:2|3:2,0:0:0:0:
324,134,277230,1,2,2:0:0:0:
324,134,277309,54,0,B|292:111|292:111|301:35,1,105.000004005432,2|0,3:2|1:2,0:0:0:0:
107,0,277623,2,0,L|84:139,1,105.000004005432,10|0,3:2|3:0,0:0:0:0:
32,238,277858,1,2,2:0:0:0:
32,238,277937,54,0,P|16:181|46:236,1,157.500006008148,0|2,1:0|2:0,0:0:0:0:
92,297,278251,54,0,P|65:342|-15:353,1,105.000004005432,10|0,3:2|3:2,0:0:0:0:
15,166,278487,1,2,2:0:0:0:
15,166,278565,2,0,P|42:121|122:110,1,105.000004005432,0|0,3:2|1:2,0:0:0:0:
215,318,278879,54,0,L|93:341,1,105.000004005432,8|0,3:2|1:3,0:0:0:0:
467,384,279193,54,0,B|483:345|477:307|477:307|485:349|520:384,1,157.500006008148,0|2,1:2|2:0,0:0:0:0:
318,246,279508,2,0,P|307:207|335:129,1,105.000004005432,8|0,3:2|3:2,0:0:0:0:
353,69,279743,1,2,2:0:0:0:
353,69,279822,53,0,3:2:0:0:
484,201,279979,2,0,P|495:240|467:318,1,105.000004005432,2|10,1:2|3:2,0:0:0:0:
317,329,280293,53,2,3:2:0:0:
408,135,280450,2,0,B|494:113|494:113|427:80,1,157.500006008148,0|2,1:0|2:0,0:0:0:0:
353,69,280764,54,0,L|343:-8,1,52.5000020027161,8|0,3:2|0:0,0:0:0:0:
426,0,280921,1,0,3:2:0:0:
191,96,281078,86,0,L|181:19,1,52.5000020027161,0|2,1:2|2:0,0:0:0:0:
264,27,281235,1,0,1:2:0:0:
35,8,281392,6,0,B|16:42|16:42|27:131|27:131|3:169,1,157.500006008148,10|2,3:2|2:0,0:0:0:0:
24,336,281706,70,0,L|50:201,1,105.000004005432,4|0,1:2|3:2,0:0:0:0:
257,227,282021,2,0,L|237:330,1,105.000004005432,10|0,3:2|3:2,0:0:0:0:
167,377,282256,1,2,2:0:0:0:
167,377,282335,53,2,3:2:0:0:
206,170,282492,1,0,1:2:0:0:
361,304,282649,2,0,P|440:325|505:246,1,157.500006008148,8|2,3:2|2:0,0:0:0:0:
502,271,282963,54,0,L|516:191,1,52.5000020027161,0|0,1:0|0:0,0:0:0:0:
451,162,283120,1,0,3:2:0:0:
512,64,283277,2,0,L|372:92,1,105.000004005432,8|0,3:2|3:2,0:0:0:0:
418,93,283513,1,2,2:0:0:0:
418,93,283591,53,2,3:2:0:0:
307,27,283748,1,0,1:2:0:0:
242,138,283905,1,8,3:2:0:0:
352,203,284062,1,2,1:2:0:0:
238,142,284220,54,0,B|148:117|148:117|200:182,1,157.500006008148,0|2,1:2|2:0,0:0:0:0:
67,4,284534,2,0,L|190:34,1,105.000004005432,8|0,3:2|3:2,0:0:0:0:
178,37,284769,1,2,2:0:0:0:
178,37,284848,53,0,3:2:0:0:
253,228,285005,1,0,1:2:0:0:
75,300,285162,1,8,3:2:0:0:
0,109,285319,1,2,3:2:0:0:
78,307,285476,54,0,P|65:348|61:308,1,105.000004005432,0|0,1:0|3:2,0:0:0:0:
330,327,285790,2,0,L|399:339,3,52.5000020027161,10|2|2|2,2:0|2:0|3:2|2:0,0:0:0:0:
180,384,286104,85,10,3:2:0:0:
180,331,286182,5,2,2:0:0:0:
204,287,286261,5,2,1:2:0:0:
246,259,286339,5,2,2:0:0:0:
294,244,286418,53,10,3:2:0:0:
316,222,286496,101,2,2:0:0:0:
318,197,286575,85,2,3:0:0:0:
316,184,286653,5,2,2:0:0:0:
310,177,286732,37,2,3:1:0:0:
51,81,287361,22,0,P|43:34|78:77,1,140,2|0,2:0|0:0,0:0:0:0:
358,93,287989,6,0,B|429:112|453:15|453:15|429:113|508:136,1,280,2|0,3:2|0:0,0:0:0:0:
497,132,288932,1,2,2:0:0:0:
441,281,289246,102,0,P|467:375|412:294,2,280,2|2|2,3:2|2:0|3:2,0:0:0:0:
441,281,290816,2,0,L|516:267,1,70,2|0,2:0|0:0,0:0:0:0:
310,348,291131,2,0,L|378:335,2,70,2|0|0,2:0|0:0|0:0,0:0:0:0:
310,348,291759,22,0,B|310:264|242:166|129:171|129:171|147:209|129:251|200:283,1,420,2|0,3:2|0:0,0:0:0:0:
70,266,293015,2,0,P|44:316|52:395,1,125.999996154785,2|0,2:0|0:0,0:0:0:0:
310,347,294272,6,0,B|266:256|291:112|418:61|418:61|417:112|458:148|396:220,1,503.999984619141,0|0,3:0|0:0,0:0:0:0:
401,215,295528,38,0,L|410:273,1,41.9999987182618,0|0,1:2|0:0,0:0:0:0:
423,336,295686,1,8,2:0:0:0:
269,206,295843,70,0,L|252:262,1,41.9999987182618,0|0,1:2|0:0,0:0:0:0:
237,324,296001,1,8,2:0:0:0:
158,114,296157,38,0,L|119:158,1,41.9999987182618,0|0,1:2|0:0,0:0:0:0:
79,207,296315,1,8,1:2:0:0:
101,0,296471,6,0,L|68:14,2,20.9999993591309,10|0|0,1:0|0:0|0:0,0:0:0:0:
