osu file format v14

[General]
AudioFilename: audio.mp3
AudioLeadIn: 0
PreviewTime:110828
Countdown: 0
SampleSet: Soft
StackLeniency: 0.4
Mode: 0
LetterboxInBreaks: 0
WidescreenStoryboard: 1

[Editor]
Bookmarks:60567,110828,166116,206326,246535,266640
DistanceSpacing: 1
BeatDivisor: 8
GridSize: 32
TimelineZoom: 1.200005

[Metadata]
Title:Vitamins feat. world's end girlfriend
TitleUnicode:Vitamins feat. world's end girlfriend
Artist:Mili
ArtistUnicode:Mili
Creator:Ducky-
Version:Light Insane
Source:
Tags:kyrian xytoper -eresh VGogetto stormi stormiverse 2018 Saihate Records project 3rd album Millennium Mother SNCL-00018 SNCL-00017 SNCL-00016 Cassie Wei momocashew モモカシュー yamatokasai Yamato Kasai HAMOloid 葛西大和 HAMO yukihito mitomo 三友行人 Shoto Yoshida 吉田翔人 worlds Katsuhiko Maeda 前田勝彦 electronic indie dance english female vocalist vocals full size version featured artist fa
BeatmapID:3708288
BeatmapSetID:1808152

[Difficulty]
HPDrainRate:5
CircleSize:3.5
OverallDifficulty:7
ApproachRate:8.5
SliderMultiplier:1.3
SliderTickRate:1

[Events]
//Background and Video events
0,0,"89651217_p0_ccexpress.jpg",0,0
//Break Periods
2,80871,100101
2,206525,235808
//Storyboard Layer 0 (Background)
//Storyboard Layer 1 (Fail)
//Storyboard Layer 2 (Pass)
//Storyboard Layer 3 (Foreground)
//Storyboard Layer 4 (Overlay)
//Storyboard Sound Samples

[TimingPoints]
253,314.13612565445,4,2,1,50,1,0
10305,-100,4,2,1,60,0,0
20357,-133.333333333333,4,2,1,70,0,0
30410,-100,4,2,1,90,0,0
39205,-133.333333333333,4,2,1,60,0,0
40462,-125,4,2,1,70,0,0
42975,-100,4,2,1,70,0,0
46745,-133.333333333333,4,2,1,70,0,0
47687,-100,4,2,1,70,0,0
48001,-111.111111111111,4,2,1,70,0,0
60567,-133.333333333333,4,2,1,50,0,0
61823,-200,4,2,1,50,0,0
70619,-83.3333333333333,4,2,1,75,0,1
80671,-200,4,2,3,50,0,0
100776,-111.111111111111,4,2,3,85,0,0
108315,-66.6666666666667,4,2,3,85,0,0
109572,-76.9230769230769,4,2,3,85,0,0
110828,-83.3333333333333,4,2,2,90,0,1
130933,-200,4,2,2,70,0,0
131090,-200,4,2,2,69,0,0
131247,-200,4,2,2,67,0,0
131404,-200,4,2,2,66,0,0
131561,-200,4,2,2,64,0,0
131718,-200,4,2,2,63,0,0
131876,-200,4,2,2,61,0,0
132033,-200,4,2,2,60,0,0
132190,-200,4,2,2,58,0,0
132347,-200,4,2,2,57,0,0
132504,-200,4,2,2,55,0,0
132661,-200,4,2,2,54,0,0
132818,-200,4,2,2,52,0,0
132975,-200,4,2,2,51,0,0
133132,-200,4,2,2,49,0,0
133289,-200,4,2,2,48,0,0
133446,-200,4,2,2,46,0,0
133603,-200,4,2,2,45,0,0
133760,-200,4,2,2,43,0,0
133917,-200,4,2,2,42,0,0
134074,-200,4,2,2,40,0,0
134389,-200,4,2,2,38,0,0
134703,-200,4,2,2,35,0,0
135017,-200,4,2,2,33,0,0
135331,-200,4,2,2,30,0,0
135959,-100,4,2,1,90,0,0
144755,-133.333333333333,4,2,1,90,0,0
146012,-133.333333333333,4,2,1,70,0,0
149310,-133.333333333333,4,2,4,70,0,0
149781,-133.333333333333,4,2,1,70,0,0
156064,-100,4,2,1,60,0,0
164860,-66.6666666666667,4,2,1,60,0,0
166116,-83.3333333333333,4,2,1,85,0,0
171143,-83.3333333333333,4,2,1,70,0,0
176169,-83.3333333333333,4,2,1,85,0,0
180881,-111.111111111111,4,2,1,85,0,0
186221,-133.333333333333,4,2,1,50,0,0
192504,-133.333333333333,4,2,1,60,0,0
196273,-83.3333333333333,4,2,1,75,0,1
206326,-133.333333333333,4,2,1,50,0,0
236483,-111.111111111111,4,2,3,85,0,0
244022,-66.6666666666667,4,2,3,85,0,0
245279,-76.9230769230769,4,2,3,85,0,0
246535,-83.3333333333333,4,2,2,90,0,1
266561,-83.3333333333333,4,2,2,90,0,0
266640,-76.9230769230769,4,2,3,95,0,1
286745,-200,4,2,3,70,0,0
287373,-133.333333333333,4,2,3,70,0,0
295540,-133.333333333333,4,2,3,80,0,0

[Colours]
Combo1 : 4,79,217
Combo2 : 198,0,114

[HitObjects]
3,365,20357,6,0,P|68:336|75:300,1,97.50000371933,0|2,3:0|0:1,0:0:0:0:
163,264,20985,2,0,P|212:249|260:246,1,97.50000371933
390,52,21614,6,0,P|384:93|371:167,1,97.50000371933,0|0,3:0|0:0,0:0:0:0:
307,217,22085,2,0,P|367:227|413:243,1,97.50000371933,2|0,0:1|0:0,0:0:0:0:
477,201,22556,1,0,3:0:0:0:
386,337,22870,6,0,L|401:394,2,48.750001859665,0|0|0,3:0|0:0|0:0,0:0:0:0:
220,336,23656,1,0,3:0:0:0:
281,274,23813,2,0,L|291:213,1,48.750001859665,2|0,0:1|0:0,0:0:0:0:
237,159,24127,6,0,P|166:149|147:10,1,195.00000743866,0|2,3:0|0:1,0:0:0:0:
277,67,25069,1,0,0:0:0:0:
476,0,25383,6,0,B|493:56|448:73|468:161,1,146.250005578995,0|2,3:0|0:1,0:0:0:0:
382,50,26169,1,0,0:0:0:0:
235,178,26640,6,0,B|218:234|263:251|243:339,1,146.250005578995,0|2,3:0|0:1,0:0:0:0:
329,228,27426,1,0,0:0:0:0:
512,384,27896,6,0,P|431:344|333:335,1,146.250005578995,0|0,3:0|3:0,0:0:0:0:
269,384,28682,2,0,P|253:320|229:262,1,97.50000371933,2|0,0:1|0:0,0:0:0:0:
165,266,29153,1,0,3:0:0:0:
31,69,30095,2,0,L|32:56,6,12.1875004649162
24,79,30410,6,0,P|54:120|72:180,1,97.5,4|0,1:0|0:0,0:0:0:0:
78,183,30724,2,0,P|120:193|153:212,1,65,8|0,0:0|0:0,0:0:0:0:
217,157,31038,1,2,0:1:0:0:
309,278,31352,1,10,0:0:0:0:
309,278,31509,1,2,0:1:0:0:
385,215,31666,2,0,P|393:157|410:64,1,130,2|8,1:0|0:0,0:0:0:0:
287,6,32294,1,2,0:1:0:0:
287,6,32451,1,2,1:0:0:0:
232,73,32609,1,10,0:0:0:0:
232,73,32766,1,2,0:1:0:0:
149,24,32923,6,0,P|76:41|51:48,1,97.5,2|0,1:0|0:0,0:0:0:0:
26,56,33237,2,0,P|39:97|49:138,1,65,8|0,0:0|0:0,0:0:0:0:
124,176,33551,1,2,0:1:0:0:
0,345,33865,1,10,0:0:0:0:
0,345,34022,1,2,0:1:0:0:
61,287,34179,2,0,P|133:300|157:366,1,130,2|8,1:0|0:0,0:0:0:0:
349,384,34807,1,2,0:1:0:0:
349,384,34965,1,2,1:0:0:0:
260,328,35122,1,10,0:0:0:0:
260,328,35279,1,2,0:1:0:0:
319,269,35436,6,0,P|333:210|345:149,1,97.5,2|0,1:0|0:0,0:0:0:0:
370,141,35750,2,0,P|358:90|351:50,1,65,8|0,0:0|1:0,0:0:0:0:
432,4,36064,1,2,1:0:0:0:
499,67,36221,1,0,1:0:0:0:
462,149,36378,5,10,0:0:0:0:
462,149,36535,1,2,0:1:0:0:
512,237,36692,2,0,P|455:245|395:312,1,130,2|8,1:0|0:0,0:0:0:0:
241,358,37321,1,2,0:1:0:0:
241,358,37478,1,2,1:0:0:0:
312,282,37635,2,0,P|322:227|330:197,1,65,10|0,0:0|0:0,0:0:0:0:
265,138,37949,5,2,1:0:0:0:
99,228,38263,1,8,0:0:0:0:
68,36,38577,1,2,0:1:0:0:
68,36,38734,1,0,1:0:0:0:
149,117,38891,2,0,P|166:65|179:14,1,97.5,10|0,0:0|0:0,0:0:0:0:
216,3,39205,6,0,P|245:13|268:21,1,48.750001859665,0|0,1:0|0:0,0:0:0:0:
391,63,39520,2,0,P|420:73|443:81,1,48.750001859665,0|0,1:0|0:0,0:0:0:0:
270,118,39834,2,0,P|299:128|322:136,1,48.750001859665,0|0,1:0|0:0,0:0:0:0:
445,178,40149,2,0,P|474:188|497:196,1,48.750001859665,0|0,1:0|0:0,0:0:0:0:
512,297,40462,6,0,P|441:313|416:346,1,104,4|8,1:0|0:0,0:0:0:0:
348,383,40933,2,0,P|306:352|310:292,1,104,2|0,0:1|1:0,0:0:0:0:
373,262,41404,2,0,P|367:210|365:199,1,52,10|0,0:0|0:0,0:0:0:0:
320,137,41718,6,0,P|270:149|253:208,1,104,0|8,1:0|0:0,0:0:0:0:
158,153,42190,2,0,P|131:196|160:250,1,104,2|0,0:1|1:0,0:0:0:0:
90,308,42661,2,0,P|126:323|153:344,1,52,10|0,0:0|0:0,0:0:0:0:
199,384,42975,5,0,1:0:0:0:
330,259,43289,1,8,0:0:0:0:
158,153,43603,1,2,0:1:0:0:
239,131,43760,1,0,1:0:0:0:
251,49,43917,1,10,0:0:0:0:
60,9,44232,6,0,P|17:36|-23:49,1,65,0|0,1:0|0:0,0:0:0:0:
0,130,44546,2,0,P|43:157|83:170,1,65,8|0,0:0|0:0,0:0:0:0:
69,251,44860,1,2,0:1:0:0:
69,251,45017,1,0,1:0:0:0:
0,310,45174,1,10,0:0:0:0:
187,384,45488,6,0,P|238:338|220:276,1,130,0|0,1:0|0:1,0:0:0:0:
284,218,45959,1,2,0:1:0:0:
138,126,46273,1,0,1:0:0:0:
138,126,46431,2,0,P|187:116|236:95,1,97.5,10|0,0:0|0:0,0:0:0:0:
250,78,46745,6,0,P|256:40|262:17,1,48.750001859665,0|0,1:0|0:0,0:0:0:0:
347,0,47059,1,2,0:1:0:0:
347,0,47216,1,2,0:1:0:0:
465,113,47530,1,0,1:0:0:0:
465,113,47687,2,0,P|390:132|358:148,1,97.5,10|0,0:0|0:0,0:0:0:0:
339,159,48001,6,0,P|346:194|351:230,1,58.4999982147217,0|0,1:0|0:0,0:0:0:0:
219,185,48315,2,0,P|226:220|231:256,1,58.4999982147217,8|0,0:0|0:0,0:0:0:0:
307,299,48629,1,2,0:1:0:0:
307,299,48787,1,0,1:0:0:0:
244,373,48944,2,0,P|216:362|167:351,1,58.4999982147217,10|0,0:0|0:0,0:0:0:0:
92,384,49258,6,0,P|62:350|83:298,1,87.7499973220826,0|0,1:0|0:0,0:0:0:0:
90,289,49572,2,0,P|79:244|76:222,1,58.4999982147217,8|0,0:0|0:1,0:0:0:0:
120,157,49886,1,2,0:1:0:0:
120,157,50043,1,0,1:0:0:0:
46,86,50200,2,0,L|62:29,1,58.4999982147217,10|0,0:0|0:0,0:0:0:0:
157,7,50514,6,0,P|229:26|253:31,1,87.7499973220826,4|0,1:0|0:0,0:0:0:0:
268,54,50828,2,0,P|323:38|346:36,1,58.4999982147217,8|0,0:0|0:0,0:0:0:0:
405,0,51143,1,2,0:1:0:0:
405,0,51300,1,0,1:0:0:0:
467,65,51457,2,0,P|440:97|431:148,1,87.7499973220826,10|0,0:0|0:0,0:0:0:0:
451,161,51771,6,0,P|492:195|477:277,1,116.999996429443,0|8,1:0|0:0,0:0:0:0:
330,372,52399,5,2,0:1:0:0:
330,372,52556,1,0,1:0:0:0:
241,293,52713,2,0,P|306:278|352:271,1,87.7499973220826,10|0,0:0|0:0,0:0:0:0:
358,246,53027,6,0,L|335:171,1,58.4999982147217,0|0,1:0|0:0,0:0:0:0:
264,131,53342,2,0,L|195:144,1,58.4999982147217,0|0,1:0|0:0,0:0:0:0:
334,63,53656,2,0,L|342:-5,1,58.4999982147217,0|0,1:0|0:0,0:0:0:0:
438,102,53970,2,0,L|457:167,1,58.4999982147217,0|0,1:0|0:0,0:0:0:0:
486,16,54284,1,2,0:1:0:0:
324,73,54598,6,0,L|250:62,2,58.4999982147217,8|2|2,0:0|0:1|0:1,0:0:0:0:
358,157,55069,1,2,1:0:0:0:
301,225,55226,2,0,P|318:276|326:305,1,58.4999982147217,10|0,0:0|0:0,0:0:0:0:
278,357,55540,6,0,L|206:340,3,58.4999982147217,0|0|0|0,1:0|1:0|1:0|1:0,0:0:0:0:
195,216,56483,1,10,0:0:0:0:
221,343,56797,6,0,L|149:360,3,58.4999982147217,0|0|0|0,1:0|1:0|1:0|1:0,0:0:0:0:
77,263,57739,1,10,0:0:0:0:
164,356,58054,6,0,L|92:339,3,58.4999982147217,0|0|0|0,1:0|1:0|1:0|1:0,0:0:0:0:
3,354,58996,5,10,0:0:0:0:
96,251,59310,6,0,P|92:183|-15:165,2,175.499994644165,0|0|0,1:0|1:0|1:0,0:0:0:0:
249,0,60567,5,2,0:1:0:0:
243,226,61195,2,0,B|230:182|233:166|215:125,2,97.50000371933,0|0|2,0:0|0:0|0:1,0:0:0:0:
199,380,62451,1,0,0:0:0:0:
381,374,63080,2,0,P|316:354|307:291,1,130,2|0,0:1|0:0,0:0:0:0:
391,269,64022,1,0,0:0:0:0:
466,309,64336,2,0,P|471:337|479:387,2,65,2|0|2,0:1|0:0|0:1,0:0:0:0:
512,0,65593,5,2,0:1:0:0:
341,122,66221,2,0,P|305:114|272:94,1,65
237,26,66849,1,2,0:1:0:0:
512,136,67478,1,0,0:0:0:0:
376,289,67949,1,0,0:0:0:0:
438,231,68106,2,0,P|420:191|364:179,1,97.5,2|0,0:1|0:0,0:0:0:0:
303,130,68734,2,0,P|262:139|230:147,1,65
84,68,69362,6,0,P|94:37|104:13,2,48.75,2|2|0,0:1|0:1|0:0,0:0:0:0:
140,135,69991,2,0,P|147:167|157:196,1,48.75,2|0,0:1|0:0,0:0:0:0:
183,224,70305,1,2,0:0:0:0:
23,369,70619,5,4,1:0:0:0:
23,369,70776,1,0,3:0:0:0:
100,307,70933,2,0,P|199:330|221:344,1,116.999996429443,8|0,0:0|0:0,0:0:0:0:
250,349,71247,2,0,P|279:321|291:271,1,77.999997619629,0|0,0:0|1:0,0:0:0:0:
388,283,71561,2,0,P|379:229|354:200,1,77.999997619629,8|0,0:0|0:0,0:0:0:0:
449,146,71876,6,0,P|433:95|316:88,1,155.999995239258,0|8,1:0|0:0,0:0:0:0:
271,0,72347,2,0,P|204:19|103:47,1,155.999995239258,2|0,0:1|1:0,0:0:0:0:
11,21,72818,2,0,P|25:75|32:114,1,77.999997619629,8|0,0:0|0:0,0:0:0:0:
127,124,73132,6,0,P|122:181|114:229,1,77.999997619629,0|0,1:0|0:0,0:0:0:0:
59,291,73446,1,8,0:0:0:0:
148,356,73603,2,0,B|248:316|179:291|277:264,1,155.999995239258,2|0,0:1|1:0,0:0:0:0:
334,319,74074,2,0,P|383:329|428:343,1,77.999997619629,8|0,0:0|0:0,0:0:0:0:
477,291,74389,6,0,P|492:237|504:201,1,77.999997619629,10|0,1:2|0:0,0:0:0:0:
418,14,75017,1,10,1:2:0:0:
412,100,75174,1,0,1:0:0:0:
315,111,75331,2,0,P|254:130|205:163,1,116.999996429443
143,235,75645,6,0,P|105:206|94:119,1,116.999996429443,0|0,1:2|0:0,0:0:0:0:
120,117,75959,1,8,0:0:0:0:
41,40,76116,2,0,P|118:11|165:-4,1,116.999996429443,2|0,0:1|0:0,0:0:0:0:
189,33,76431,1,0,1:0:0:0:
310,0,76588,2,0,P|319:58|328:117,1,116.999996429443,8|0,0:0|0:0,0:0:0:0:
365,148,76902,6,0,P|332:217|329:250,1,77.999997619629,0|0,1:0|0:0,0:0:0:0:
345,315,77216,1,8,0:0:0:0:
254,279,77373,2,0,P|178:306|157:373,1,155.999995239258,2|0,0:1|1:0,0:0:0:0:
53,374,77844,2,0,P|48:324|44:281,1,77.999997619629,8|0,0:0|0:0,0:0:0:0:
111,232,78158,6,0,P|118:185|127:142,1,77.999997619629,0|0,1:0|0:0,0:0:0:0:
207,119,78472,1,8,0:0:0:0:
6,89,78629,2,0,P|74:78|91:18,1,116.999996429443,2|0,0:1|0:0,0:0:0:0:
79,16,78944,1,0,1:0:0:0:
194,1,79101,2,0,P|263:16|299:29,1,77.999997619629,8|0,0:0|0:0,0:0:0:0:
429,47,79415,5,4,1:0:0:0:
259,216,80043,5,0,1:0:0:0:
392,384,80671,5,2,0:1:0:0:
62,384,100776,6,0,B|45:327|89:310|63:258,1,116.999996429443,4|0,1:3|0:0,0:0:0:0:
125,45,101404,1,2,0:0:0:0:
71,120,101561,1,2,0:0:0:0:
116,192,101718,2,0,P|178:205|217:231,1,87.7499973220826,2|0,0:0|0:0,0:0:0:0:
235,246,102033,6,0,P|298:232|352:225,1,116.999996429443,2|0,0:0|0:0,0:0:0:0:
512,107,102661,1,2,0:0:0:0:
420,134,102818,1,2,0:0:0:0:
358,56,102975,2,0,P|365:23|374:-10,1,58.4999982147217,2|0,0:0|0:0,0:0:0:0:
257,29,103289,6,0,P|268:87|274:135,1,87.7499973220826,2|0,0:0|0:0,0:0:0:0:
266,147,103603,2,0,P|186:159|165:167,1,87.7499973220826,2|0,0:0|0:0,0:0:0:0:
166,182,103917,2,0,P|177:240|183:288,1,87.7499973220826,2|0,0:0|0:0,0:0:0:0:
175,300,104231,2,0,P|95:312|74:320,1,87.7499973220826,2|0,0:0|0:0,0:0:0:0:
50,312,104546,6,0,P|41:264|27:183,1,116.999996429443,2|0,0:0|0:0,0:0:0:0:
18,0,105174,1,2,0:0:0:0:
26,89,105331,1,2,0:0:0:0:
104,129,105488,2,0,P|179:119|209:115,1,87.7499973220826,2|0,0:0|0:0,0:0:0:0:
227,88,105802,5,4,1:3:0:0:
512,76,106431,1,2,0:0:0:0:
418,82,106588,1,2,0:0:0:0:
374,0,106745,1,2,0:0:0:0:
227,88,107059,5,8,0:0:0:0:
374,0,107687,1,2,0:0:0:0:
418,82,107844,1,2,0:0:0:0:
512,76,108001,1,2,0:0:0:0:
512,310,108315,6,0,P|456:325|417:366,1,97.50000371933,4|0,1:3|0:0,0:0:0:0:
319,384,108629,2,0,P|304:328|263:289,1,97.50000371933,4|0,1:3|0:0,0:0:0:0:
245,191,108944,2,0,P|301:176|340:135,1,97.50000371933,4|0,1:3|0:0,0:0:0:0:
438,117,109258,2,0,P|453:173|494:212,1,97.50000371933,4|2,1:3|0:0,0:0:0:0:
373,252,109572,5,4,1:3:0:0:
373,252,109729,1,0,1:0:0:0:
278,299,109886,1,0,1:0:0:0:
278,299,110043,1,0,1:0:0:0:
186,266,110200,2,0,P|144:283|113:323,1,84.4999961318971,0|0,1:0|1:0,0:0:0:0:
19,372,110514,5,0,1:0:0:0:
7,351,110593,1,0,1:0:0:0:
2,324,110671,1,0,1:0:0:0:
7,295,110750,1,0,1:0:0:0:
23,269,110828,6,0,P|65:216|50:158,1,116.999996429443,4|0,1:0|0:0,0:0:0:0:
74,139,111143,2,0,P|135:122|157:115,1,77.999997619629,8|0,0:0|0:0,0:0:0:0:
209,41,111457,1,2,0:0:0:0:
289,112,111614,1,2,1:2:0:0:
382,72,111771,2,0,P|400:19|404:-12,1,77.999997619629,10|0,0:0|0:0,0:0:0:0:
461,130,112085,6,0,P|478:208|495:270,1,116.999996429443,2|0,1:2|0:0,0:0:0:0:
493,283,112399,2,0,P|433:300|404:323,1,77.999997619629,8|0,0:0|0:0,0:0:0:0:
332,266,112713,1,2,0:0:0:0:
289,368,112870,1,2,1:2:0:0:
207,308,113027,2,0,P|219:248|229:220,1,77.999997619629,8|0,0:0|0:0,0:0:0:0:
172,146,113342,5,2,1:2:0:0:
83,205,113499,1,2,0:0:0:0:
185,137,113656,2,0,P|173:63|156:19,1,116.999996429443,10|0,0:2|0:0,0:0:0:0:
130,0,113970,2,0,P|68:22|40:25,1,77.999997619629,2|0,0:2|1:0,0:0:0:0:
272,59,114284,2,0,P|310:50|345:35,1,77.999997619629,10|0,0:2|0:0,0:0:0:0:
456,9,114598,5,2,1:2:0:0:
456,9,114755,1,2,0:0:0:0:
415,93,114912,1,8,0:0:0:0:
481,147,115069,1,0,0:0:0:0:
431,239,115226,2,0,P|386:252|354:265,2,77.999997619629,2|2|10,0:2|1:2|0:2,0:0:0:0:
313,384,115855,6,0,P|250:340|201:339,1,116.999996429443,2|0,1:2|0:0,0:0:0:0:
178,343,116169,2,0,P|163:288|157:255,1,77.999997619629,8|0,0:0|0:0,0:0:0:0:
210,184,116483,1,2,0:0:0:0:
153,108,116640,1,2,1:2:0:0:
211,27,116797,2,0,P|252:40|293:46,1,77.999997619629,8|0,0:0|0:0,0:0:0:0:
111,0,117111,6,0,P|66:15|57:94,1,116.999996429443,2|0,1:2|0:0,0:0:0:0:
27,99,117425,2,0,P|44:149|47:190,1,77.999997619629,8|0,0:0|0:0,0:0:0:0:
82,253,117739,1,2,0:2:0:0:
0,312,117896,1,2,1:2:0:0:
77,384,118054,2,0,P|136:360|184:350,1,77.999997619629,10|0,0:2|0:0,0:0:0:0:
233,311,118368,5,2,1:2:0:0:
316,384,118525,1,2,0:0:0:0:
385,300,118682,2,0,P|390:261|397:223,1,77.999997619629,8|0,0:0|0:0,0:0:0:0:
335,145,118996,1,2,0:0:0:0:
239,108,119153,1,2,1:2:0:0:
302,11,119310,1,10,0:2:0:0:
389,65,119467,1,2,0:0:0:0:
473,0,119624,6,0,P|487:59|503:114,1,116.999996429443,0|0,1:0|0:0,0:0:0:0:
512,140,119938,2,0,P|497:199|495:220,1,77.999997619629,8|0,0:0|0:0,0:0:0:0:
512,347,120252,1,2,0:2:0:0:
435,286,120410,1,2,1:2:0:0:
351,277,120567,1,10,0:2:0:0:
279,306,120724,1,2,0:2:0:0:
189,384,120881,6,0,P|139:365|119:292,1,116.999996429443,4|0,1:0|0:0,0:0:0:0:
151,286,121195,2,0,P|163:220|167:190,1,77.999997619629,8|0,0:0|0:0,0:0:0:0:
85,156,121509,1,2,0:0:0:0:
0,211,121666,1,2,1:2:0:0:
0,104,121823,2,0,P|8:51|18:10,1,77.999997619629,10|0,0:2|0:0,0:0:0:0:
115,66,122137,6,0,P|160:60|180:-20,1,116.999996429443,2|0,1:2|0:0,0:0:0:0:
213,0,122451,2,0,P|258:11|302:22,1,77.999997619629,8|0,0:0|0:0,0:0:0:0:
374,73,122766,1,2,0:2:0:0:
307,159,122923,1,2,1:2:0:0:
381,251,123080,2,0,P|435:244|445:188,1,116.999996429443,10|0,0:2|0:0,0:0:0:0:
435,162,123394,6,0,P|500:149|522:145,1,77.999997619629,2|0,1:2|0:0,0:0:0:0:
369,81,123708,2,0,P|304:68|282:64,1,77.999997619629,10|0,0:2|0:0,0:0:0:0:
220,139,124022,1,2,0:2:0:0:
122,103,124179,1,2,1:2:0:0:
57,179,124336,2,0,P|76:213|93:261,1,77.999997619629,10|0,0:2|0:0,0:0:0:0:
55,355,124650,5,2,1:2:0:0:
55,355,124807,1,2,0:0:0:0:
147,312,124965,1,8,0:0:0:0:
274,357,125122,1,0,0:0:0:0:
353,268,125279,2,0,P|422:257|450:248,2,77.999997619629,2|2|10,0:0|1:2|0:2,0:0:0:0:
191,103,125907,6,0,P|201:27|287:6,1,155.999995239258,2|8,1:2|0:0,0:0:0:0:
328,81,126378,1,0,0:0:0:0:
417,22,126535,1,2,0:2:0:0:
417,22,126692,1,2,1:2:0:0:
476,108,126849,2,0,P|492:158|499:208,1,77.999997619629,8|0,0:0|0:0,0:0:0:0:
450,284,127163,6,0,P|376:302|329:320,1,116.999996429443,2|0,1:2|0:0,0:0:0:0:
322,328,127478,2,0,P|241:313|227:307,1,77.999997619629,8|0,0:0|0:0,0:0:0:0:
180,250,127792,1,2,0:0:0:0:
96,296,127949,1,2,1:2:0:0:
37,375,128106,1,10,0:2:0:0:
37,375,128263,1,0,0:0:0:0:
0,263,128420,5,2,1:2:0:0:
77,183,128577,1,2,0:0:0:0:
15,101,128734,2,0,P|3:52|-2:11,1,77.999997619629,8|0,0:0|0:0,0:0:0:0:
123,84,129048,1,2,0:0:0:0:
194,22,129205,1,2,1:2:0:0:
259,99,129362,1,10,0:2:0:0:
383,59,129520,1,2,0:0:0:0:
457,131,129677,6,0,L|439:227,1,77.999997619629,0|0,1:0|1:0,0:0:0:0:
335,195,129991,2,0,L|355:294,1,77.999997619629,8|0,0:0|1:0,0:0:0:0:
408,362,130305,5,8,0:0:0:0:
248,299,130462,1,0,1:0:0:0:
348,295,130619,1,8,0:0:0:0:
192,384,130776,1,0,1:0:0:0:
120,323,130933,6,0,L|125:281,30,32.5,2|2|2|2|2|2|2|2|2|2|2|2|2|2|2|2|2|2|2|2|2|2|2|2|2|2|2|2|2|2|2,0:0|0:0|0:0|0:0|0:0|0:0|0:0|0:0|0:0|0:0|0:0|0:0|0:0|0:0|0:0|0:0|0:0|0:0|0:0|0:0|0:0|0:0|0:0|0:0|0:0|0:0|0:0|0:0|0:0|0:0|0:0,0:0:0:0:
323,384,135959,6,0,P|362:366|366:307,1,97.5,4|0,1:0|0:0,0:0:0:0:
360,296,136273,2,0,P|318:286|285:267,1,65,8|0,0:0|0:0,0:0:0:0:
218,303,136587,1,2,0:1:0:0:
97,141,136901,1,10,0:0:0:0:
97,141,137058,1,2,0:1:0:0:
21,204,137215,2,0,P|13:262|-4:355,1,130,0|8,1:0|0:0,0:0:0:0:
173,384,137843,1,2,0:1:0:0:
173,384,138000,1,2,1:0:0:0:
228,317,138158,1,10,0:0:0:0:
228,317,138315,1,2,0:1:0:0:
311,366,138472,6,0,P|384:349|409:342,1,97.5,0|0,1:0|0:0,0:0:0:0:
425,331,138786,2,0,P|412:290|402:249,1,65,8|0,0:0|0:0,0:0:0:0:
334,216,139100,1,2,0:1:0:0:
480,106,139414,1,10,0:0:0:0:
480,106,139571,1,2,0:1:0:0:
419,48,139728,2,0,P|347:61|323:127,1,130,0|8,1:0|0:0,0:0:0:0:
163,0,140356,1,2,0:1:0:0:
163,0,140514,1,0,1:0:0:0:
252,56,140671,1,10,0:0:0:0:
252,56,140828,1,2,0:1:0:0:
193,115,140985,6,0,P|179:174|167:235,1,97.5,0|0,1:0|0:0,0:0:0:0:
142,243,141299,2,0,P|154:294|161:334,1,65,8|0,0:0|0:0,0:0:0:0:
80,380,141613,1,2,3:1:0:0:
13,317,141770,1,0,0:0:0:0:
50,235,141927,5,10,0:0:0:0:
50,235,142084,1,2,0:1:0:0:
0,147,142241,2,0,P|57:139|117:72,1,130,0|8,1:0|0:0,0:0:0:0:
271,26,142870,1,2,0:1:0:0:
271,26,143027,1,0,1:0:0:0:
200,102,143184,2,0,P|190:157|182:187,1,65,10|0,0:0|0:0,0:0:0:0:
247,246,143498,5,2,1:0:0:0:
413,156,143812,1,8,0:0:0:0:
444,348,144126,1,2,0:1:0:0:
444,348,144283,1,0,0:0:0:0:
363,267,144440,2,0,P|346:319|333:370,1,97.5,10|0,0:0|0:0,0:0:0:0:
296,381,144755,6,0,P|267:371|244:363,1,48.750001859665,2|0,0:1|0:0,0:0:0:0:
121,321,145069,2,0,P|92:311|69:303,1,48.750001859665,0|2,0:0|0:1,0:0:0:0:
242,266,145383,2,0,P|213:256|190:248,1,48.750001859665,2|2,0:1|0:1,0:0:0:0:
67,206,145698,2,0,P|38:196|15:188,1,48.750001859665,2|0,0:1|0:0,0:0:0:0:
0,87,146012,6,0,P|71:71|96:38,1,97.50000371933,0|2,1:0|0:1,0:0:0:0:
164,1,146482,2,0,P|206:32|202:92,1,97.50000371933,2|0,0:1|0:0,0:0:0:0:
139,122,146953,2,0,P|145:174|147:185,1,48.750001859665
154,251,147268,5,0,1:0:0:0:
154,251,147425,1,2,0:1:0:0:
456,384,148054,5,0,1:0:0:0:
512,327,148212,1,10,0:0:0:0:
436,0,148525,6,0,L|444:54,1,48.750001859665,0|2,1:0|0:1,0:0:0:0:
443,133,148839,2,0,L|326:110,1,97.50000371933,8|0,0:0|0:0,0:0:0:0:
260,96,149310,1,2,0:0:0:0:
0,241,149781,6,0,L|65:228,3,48.750001859665,0|2|2|2,1:0|0:1|0:1|0:1,0:0:0:0:
222,384,150724,2,0,L|236:311,1,73.1250027894975,0|2,0:0|0:1,0:0:0:0:
268,287,151038,5,0,1:0:0:0:
268,287,152294,2,0,L|260:216,3,48.750001859665,0|0|0|2,1:0|0:0|0:0|0:1,0:0:0:0:
335,142,153080,1,0,0:0:0:0:
335,142,153551,6,0,L|271:156,3,48.750001859665,0|2|2|0,1:0|0:1|0:1|0:0,0:0:0:0:
190,98,154336,1,2,0:1:0:0:
4,344,154807,6,0,L|59:331,1,48.750001859665,0|2,1:0|0:0,0:0:0:0:
78,309,155043,1,2,0:0:0:0:
78,309,155122,2,0,L|133:296,1,48.750001859665
153,268,155357,1,2,0:0:0:0:
153,268,155436,2,0,L|180:261,7,24.3750009298325,2|2|2|2|2|2|2|2,0:0|0:0|0:0|0:0|0:0|0:0|0:0|0:0,0:0:0:0:
215,226,156064,6,0,P|287:231|313:296,1,130,0|8,1:0|0:0,0:0:0:0:
512,238,156692,2,0,P|440:243|414:308,1,130,0|8,0:0|0:0,0:0:0:0:
368,189,157163,1,0,0:0:0:0:
368,189,157321,2,0,P|346:92|342:53,1,130,0|8,0:0|0:0,0:0:0:0:
169,89,157949,2,0,P|191:186|195:225,1,130,0|8,0:0|0:0,0:0:0:0:
0,324,158577,6,0,P|87:345|108:379,1,130,0|8,3:0|0:0,0:0:0:0:
190,384,159048,1,0,0:0:0:0:
190,384,159205,2,0,P|201:342|208:300,1,65
273,275,159520,1,8,0:0:0:0:
70,289,159834,2,0,P|139:276|164:209,2,130,0|8|0,0:0|0:0|0:0,0:0:0:0:
206,160,160776,1,8,0:0:0:0:
384,279,161090,6,0,P|437:260|516:250,1,130,0|8,1:0|0:0,0:0:0:0:
495,170,161561,1,0,0:0:0:0:
495,170,161718,2,0,P|479:124|477:98,1,65
389,72,162033,2,0,P|373:26|371:0,1,65,8|0,0:0|0:0,0:0:0:0:
351,162,162347,6,0,P|293:172|202:194,1,130,0|8,0:0|0:0,0:0:0:0:
164,66,162975,2,0,P|222:56|313:34,1,130,0|8,0:0|0:0,0:0:0:0:
154,255,163603,6,0,P|96:265|5:287,2,130,0|8|0,3:0|0:0|0:0,0:0:0:0:
361,384,164546,1,8,0:0:0:0:
248,320,164860,6,0,P|290:322|303:252,1,97.50000371933,0|0,1:0|0:0,0:0:0:0:
420,284,165174,2,0,P|422:242|352:229,1,97.50000371933,0|0,1:0|0:0,0:0:0:0:
382,110,165488,2,0,P|340:108|327:178,1,97.50000371933,0|0,1:0|0:0,0:0:0:0:
210,146,165802,2,0,P|208:188|278:201,1,97.50000371933,0|0,1:0|0:0,0:0:0:0:
322,285,166116,6,0,P|333:351|340:398,2,77.999997619629,4|2|8,1:0|0:0|1:2,0:0:0:0:
377,217,166588,1,2,0:0:0:0:
315,151,166745,2,0,P|277:155|230:192,1,77.999997619629,0|2,1:0|0:0,0:0:0:0:
172,105,167059,2,0,P|134:150|134:196,1,77.999997619629,8|2,1:2|0:0,0:0:0:0:
30,144,167373,6,0,P|54:243|73:322,2,155.999995239258,0|8|0,1:0|1:2|1:0,0:0:0:0:
77,57,168158,1,2,0:0:0:0:
155,100,168315,2,0,P|198:92|240:76,1,77.999997619629,8|2,1:2|0:0,0:0:0:0:
276,4,168629,5,0,1:0:0:0:
485,113,168944,1,8,1:2:0:0:
343,131,169258,5,0,1:0:0:0:
492,332,169573,1,8,1:2:0:0:
450,219,169886,6,0,B|394:234|429:264|350:297,1,116.999996429443,0|0,1:0|0:0,0:0:0:0:
334,315,170200,2,0,P|294:286|311:200,1,116.999996429443,8|0,1:2|0:0,0:0:0:0:
268,206,170514,2,0,P|212:218|160:227,1,77.999997619629,0|0,1:0|0:0,0:0:0:0:
119,299,170828,2,0,P|63:287|11:278,1,77.999997619629,8|0,1:2|0:0,0:0:0:0:
172,384,171143,5,4,1:0:0:0:
0,201,171928,1,0,1:0:0:0:
63,139,172085,1,10,0:0:0:0:
212,0,172399,6,0,L|228:88,3,77.999997619629,0|0|0|2,1:0|0:0|0:0|0:1,0:0:0:0:
379,202,173184,1,0,1:0:0:0:
415,121,173342,1,10,0:0:0:0:
512,238,173656,5,0,1:2:0:0:
301,384,174127,1,2,0:1:0:0:
136,232,174441,1,0,1:0:0:0:
223,272,174598,1,10,0:0:0:0:
337,0,174912,6,0,P|296:57|300:154,1,155.999995239258,0|0,1:0|0:0,0:0:0:0:
365,207,175383,2,0,P|407:177|421:130,2,77.999997619629,2|0|0,0:1|0:1|1:0,0:0:0:0:
276,225,175855,1,8,0:0:0:0:
221,296,176012,1,2,0:1:0:0:
133,316,176169,6,0,P|141:353|165:384,2,77.999997619629,4|2|8,1:0|0:0|1:2,0:0:0:0:
45,280,176640,1,2,0:0:0:0:
95,201,176797,2,0,P|120:147|122:108,1,77.999997619629,0|2,1:0|0:0,0:0:0:0:
220,142,177111,2,0,P|214:82|196:47,1,77.999997619629,10|2,1:2|0:0,0:0:0:0:
130,20,177425,6,0,P|40:60|24:129,2,155.999995239258,0|8|0,1:0|1:2|1:0,0:0:0:0:
207,66,178211,1,2,0:0:0:0:
301,65,178368,2,0,L|430:14,1,116.999996429443,10|0,1:2|0:0,0:0:0:0:
425,22,178682,6,0,L|446:129,1,77.999997619629,0|0,1:0|0:0,0:0:0:0:
341,144,178996,2,0,L|362:251,1,77.999997619629,8|0,1:2|0:0,0:0:0:0:
491,186,179310,2,0,L|512:293,1,77.999997619629,0|0,1:0|0:0,0:0:0:0:
407,308,179624,2,0,L|428:415,1,77.999997619629,10|0,1:2|0:0,0:0:0:0:
297,286,179938,5,0,1:0:0:0:
7,233,180252,1,8,0:0:0:0:
80,189,180410,2,0,L|109:83,2,77.999997619629,2|2|0,0:1|0:1|1:0,0:0:0:0:
143,255,180881,2,0,L|163:360,1,87.7499973220826,10|0,0:0|0:0,0:0:0:0:
171,367,181195,6,0,L|253:349,3,58.4999982147217,0|0|0|0,1:0|1:0|1:0|1:0,0:0:0:0:
343,256,182137,1,10,0:0:0:0:
241,343,182451,6,0,L|298:355,3,58.4999982147217,0|0|0|0,1:0|1:0|1:0|1:0,0:0:0:0:
437,254,183394,1,10,0:0:0:0:
313,365,183708,6,0,L|395:347,3,58.4999982147217,0|0|0|0,1:0|1:0|1:0|1:1,0:0:0:0:
512,294,184650,1,10,0:0:0:0:
421,251,184965,6,0,P|403:178|386:119,1,116.999996429443,0|0,1:0|0:0,0:0:0:0:
365,61,185436,2,0,P|293:77|231:87,1,116.999996429443,0|0,1:0|0:0,0:0:0:0:
185,32,185907,2,0,L|70:51,1,116.999996429443,0|2,1:0|0:1,0:0:0:0:
11,222,186849,1,0,0:0:0:0:
11,222,187163,1,0,0:0:0:0:
93,254,187478,6,0,P|127:251|153:306,1,97.50000371933
512,337,188734,6,0,P|478:334|452:389,1,97.50000371933
365,310,189362,2,0,P|421:275|419:199,1,146.250005578995
359,138,189991,2,0,P|283:126|244:120,2,97.50000371933
116,5,191247,6,0,P|52:12|38:52,1,97.50000371933
118,145,191876,1,0,0:0:0:0:
118,145,192190,1,0,0:0:0:0:
22,256,192504,6,0,L|140:269,1,97.50000371933
223,372,193132,1,0,0:0:0:0:
265,300,193289,1,0,0:0:0:0:
351,343,193446,2,0,L|415:335,1,48.750001859665
449,269,193760,1,0,0:0:0:0:
512,0,194389,6,0,L|509:17,1,12.1875004649162
332,185,195017,6,0,P|309:137|309:105,2,73.1250027894975
420,191,195645,2,0,L|473:206,1,48.750001859665
499,280,195959,2,0,L|477:371,1,73.1250027894975
489,369,196273,5,4,1:0:0:0:
489,369,196430,1,0,1:0:0:0:
412,307,196587,2,0,P|313:330|291:344,1,116.999996429443,8|0,0:0|0:0,0:0:0:0:
262,349,196901,2,0,P|233:321|221:271,1,77.999997619629,2|0,0:1|1:0,0:0:0:0:
124,283,197215,2,0,P|133:229|158:200,1,77.999997619629,8|0,0:0|0:0,0:0:0:0:
63,146,197530,6,0,P|79:95|196:88,1,155.999995239258,0|8,1:0|0:0,0:0:0:0:
241,0,198001,2,0,P|308:19|409:47,1,155.999995239258,2|0,0:1|1:0,0:0:0:0:
501,21,198472,2,0,P|487:75|480:114,1,77.999997619629,8|0,0:0|0:0,0:0:0:0:
385,124,198786,6,0,P|390:181|398:229,1,77.999997619629,0|0,1:0|1:0,0:0:0:0:
453,291,199100,1,8,0:0:0:0:
364,356,199257,2,0,B|264:316|333:291|235:264,1,155.999995239258,2|0,0:1|1:0,0:0:0:0:
178,319,199728,2,0,P|129:329|84:343,1,77.999997619629,8|0,0:0|0:0,0:0:0:0:
35,291,200043,6,0,P|20:237|8:201,1,77.999997619629,10|0,1:2|0:0,0:0:0:0:
133,12,200671,1,10,1:2:0:0:
135,111,200828,1,2,0:1:0:0:
219,136,200985,2,0,P|270:153|296:178,1,77.999997619629,2|0,0:1|0:0,0:0:0:0:
369,235,201299,6,0,P|407:206|418:119,1,116.999996429443,0|0,1:2|0:0,0:0:0:0:
392,117,201613,1,8,0:0:0:0:
471,40,201770,2,0,P|394:11|347:-4,1,116.999996429443,2|0,0:1|0:0,0:0:0:0:
323,33,202085,1,0,1:0:0:0:
202,0,202242,2,0,P|193:58|184:117,1,116.999996429443,8|0,0:0|0:0,0:0:0:0:
147,148,202556,6,0,P|180:217|183:250,1,77.999997619629,0|0,1:0|0:0,0:0:0:0:
167,315,202870,1,8,0:0:0:0:
258,279,203027,2,0,P|334:306|355:373,1,155.999995239258,2|0,0:1|1:0,0:0:0:0:
459,374,203498,2,0,P|464:324|468:281,1,77.999997619629,8|0,0:0|0:0,0:0:0:0:
401,232,203812,6,0,P|394:185|385:142,1,77.999997619629,0|2,1:0|0:1,0:0:0:0:
497,185,204126,1,8,0:0:0:0:
506,89,204283,2,0,P|438:78|421:18,1,116.999996429443,2|0,0:1|0:0,0:0:0:0:
433,16,204598,1,0,1:0:0:0:
318,1,204755,2,0,P|249:16|213:29,1,77.999997619629,8|0,0:0|0:0,0:0:0:0:
83,47,205069,5,4,1:1:0:0:
253,216,205697,5,0,1:0:0:0:
120,384,206325,5,2,0:1:0:0:
126,0,236483,6,0,P|136:63|206:82,1,116.999996429443,4|0,1:3|0:0,0:0:0:0:
380,158,237111,1,2,0:0:0:0:
284,135,237268,1,2,0:0:0:0:
216,209,237425,2,0,P|242:265|253:309,1,87.7499973220826,2|0,0:0|0:0,0:0:0:0:
240,327,237739,6,0,P|180:330|138:289,1,116.999996429443,2|0,0:0|0:0,0:0:0:0:
63,145,238368,1,2,0:0:0:0:
5,218,238525,1,2,0:0:0:0:
40,313,238682,2,0,P|89:301|131:289,1,87.7499973220826,2|0,0:0|0:0,0:0:0:0:
140,293,238996,6,0,P|152:250|161:228,1,58.4999982147217,2|0,0:0|0:0,0:0:0:0:
256,162,239310,2,0,P|268:119|277:97,1,58.4999982147217,2|0,0:0|0:0,0:0:0:0:
170,162,239624,1,2,0:0:0:0:
247,254,239781,1,0,0:0:0:0:
341,201,239938,2,0,P|395:186|447:176,1,87.7499973220826,2|0,0:0|0:0,0:0:0:0:
456,169,240252,6,0,P|466:114|472:92,2,58.4999982147217,2|0|0,0:0|0:0|0:0,0:0:0:0:
344,118,240724,1,0,0:0:0:0:
397,55,240881,2,0,L|378:-3,1,58.4999982147217,2|2,0:0|0:0,0:0:0:0:
279,31,241195,2,0,L|260:86,1,58.4999982147217,2|0,0:0|0:0,0:0:0:0:
176,131,241509,5,4,1:3:0:0:
258,384,242137,1,2,0:0:0:0:
316,312,242294,1,2,0:0:0:0:
264,243,242451,1,2,0:0:0:0:
176,131,242766,5,8,0:0:0:0:
258,384,243394,1,2,0:0:0:0:
316,312,243551,1,2,0:0:0:0:
264,243,243708,1,2,0:0:0:0:
0,298,244022,6,0,L|111:277,1,97.50000371933,4|0,1:3|0:0,0:0:0:0:
208,384,244336,2,0,L|187:273,1,97.50000371933,4|0,1:3|0:0,0:0:0:0:
294,176,244650,2,0,L|183:197,1,97.50000371933,4|2,1:3|0:0,0:0:0:0:
86,90,244965,2,0,L|107:201,1,97.50000371933,4|2,1:3|0:0,0:0:0:0:
187,99,245279,5,4,1:3:0:0:
187,99,245436,1,0,1:0:0:0:
299,50,245593,1,0,1:0:0:0:
299,50,245750,1,0,1:0:0:0:
389,105,245907,2,0,L|488:85,1,84.4999961318971,0|0,1:0|1:0,0:0:0:0:
512,232,246221,1,0,1:0:0:0:
493,263,246300,1,0,1:0:0:0:
461,278,246378,1,0,1:0:0:0:
430,284,246457,1,0,1:0:0:0:
386,289,246535,6,0,P|344:236|359:178,1,116.999996429443,4|0,1:0|0:0,0:0:0:0:
324,166,246850,2,0,P|263:149|241:142,1,77.999997619629,8|0,0:0|0:0,0:0:0:0:
172,199,247164,1,2,0:0:0:0:
104,137,247321,1,2,1:2:0:0:
178,77,247478,2,0,P|160:24|156:-7,1,77.999997619629,10|0,0:0|0:0,0:0:0:0:
282,21,247792,6,0,P|265:99|248:161,1,116.999996429443,2|0,1:2|0:0,0:0:0:0:
306,216,248106,2,0,P|366:233|395:256,1,77.999997619629,8|0,0:0|0:0,0:0:0:0:
433,339,248420,1,2,0:0:0:0:
512,281,248577,1,2,1:2:0:0:
472,195,248734,2,0,P|460:135|450:107,1,77.999997619629,8|0,0:0|0:0,0:0:0:0:
394,39,249049,5,2,1:2:0:0:
341,116,249206,1,2,0:0:0:0:
260,9,249363,2,0,P|241:64|233:122,1,116.999996429443,10|0,0:2|0:0,0:0:0:0:
156,170,249677,2,0,P|118:162|83:147,1,77.999997619629,2|0,0:2|1:0,0:0:0:0:
201,285,249991,2,0,P|163:276|128:261,1,77.999997619629,10|0,0:2|0:0,0:0:0:0:
25,384,250305,5,2,1:2:0:0:
25,384,250462,1,2,0:0:0:0:
53,278,250619,1,8,0:0:0:0:
0,198,250776,1,0,0:0:0:0:
79,136,250933,2,0,P|124:123|156:110,2,77.999997619629,2|2|10,0:2|1:2|0:2,0:0:0:0:
199,384,251562,6,0,P|262:340|311:339,1,116.999996429443,2|0,1:2|0:0,0:0:0:0:
321,355,251876,2,0,P|366:331|368:290,1,77.999997619629,8|0,0:0|0:0,0:0:0:0:
303,234,252190,1,2,0:0:0:0:
362,153,252347,1,2,1:2:0:0:
287,59,252504,2,0,P|246:72|205:78,1,77.999997619629,8|0,0:0|0:0,0:0:0:0:
359,1,252818,6,0,P|404:16|413:95,1,116.999996429443,2|0,1:2|0:0,0:0:0:0:
429,100,253132,2,0,P|479:83|520:80,1,77.999997619629,8|0,0:0|0:0,0:0:0:0:
512,184,253446,1,2,0:2:0:0:
433,241,253603,1,2,1:2:0:0:
354,164,253761,2,0,P|295:140|247:130,1,77.999997619629,10|0,0:2|0:0,0:0:0:0:
191,195,254075,5,2,1:2:0:0:
100,139,254232,1,2,0:0:0:0:
164,77,254389,2,0,P|159:38|152:0,1,77.999997619629,8|0,0:0|0:0,0:0:0:0:
262,132,254703,1,2,0:0:0:0:
330,52,254860,1,2,1:2:0:0:
365,182,255017,1,10,0:2:0:0:
286,247,255174,1,2,0:0:0:0:
362,360,255331,6,0,P|421:346|476:330,1,116.999996429443,0|0,1:0|0:0,0:0:0:0:
493,300,255645,2,0,P|488:262|476:224,1,77.999997619629,8|0,0:0|0:0,0:0:0:0:
512,126,255959,1,2,0:2:0:0:
435,65,256117,1,2,1:2:0:0:
351,56,256274,1,10,0:2:0:0:
279,85,256431,1,2,0:2:0:0:
196,176,256588,6,0,P|146:157|126:84,1,116.999996429443,4|0,1:0|0:0,0:0:0:0:
102,76,256902,2,0,P|90:10|86:-20,1,77.999997619629,8|0,0:0|0:0,0:0:0:0:
0,106,257216,1,2,0:0:0:0:
57,181,257373,1,2,1:2:0:0:
26,281,257530,2,0,P|64:276|102:268,1,77.999997619629,10|0,0:2|0:0,0:0:0:0:
167,341,257844,6,0,P|212:335|232:255,1,116.999996429443,2|0,1:2|0:0,0:0:0:0:
265,275,258158,2,0,P|310:286|354:297,1,77.999997619629,8|0,0:0|0:0,0:0:0:0:
400,368,258473,1,2,0:2:0:0:
496,306,258630,1,2,1:2:0:0:
443,226,258787,2,0,P|389:219|379:163,1,116.999996429443,10|0,0:2|0:0,0:0:0:0:
362,137,259101,6,0,P|297:124|275:120,1,77.999997619629,2|0,1:2|0:0,0:0:0:0:
244,26,259415,2,0,P|205:33|167:41,1,77.999997619629,10|0,0:2|0:0,0:0:0:0:
61,12,259729,1,2,0:2:0:0:
24,109,259886,1,2,1:2:0:0:
121,139,260043,2,0,P|140:173|157:221,1,77.999997619629,10|0,0:2|0:0,0:0:0:0:
97,339,260357,5,2,1:2:0:0:
97,339,260514,1,2,0:0:0:0:
189,296,260672,1,8,0:0:0:0:
288,349,260829,1,0,0:0:0:0:
385,303,260986,2,0,P|396:234|405:206,2,77.999997619629,2|2|10,0:0|1:2|0:2,0:0:0:0:
280,148,261614,6,0,P|270:72|184:51,1,155.999995239258,2|8,1:2|0:0,0:0:0:0:
181,60,262085,1,0,0:0:0:0:
89,16,262242,1,2,0:2:0:0:
89,16,262399,1,2,1:2:0:0:
21,90,262556,2,0,P|5:140|-2:190,1,77.999997619629,8|0,0:0|0:0,0:0:0:0:
0,280,262870,6,0,P|74:298|121:316,1,116.999996429443,2|0,1:2|0:0,0:0:0:0:
132,334,263185,2,0,P|213:319|227:313,1,77.999997619629,8|0,0:0|0:0,0:0:0:0:
297,259,263499,1,2,0:0:0:0:
381,305,263656,1,2,1:2:0:0:
440,384,263813,1,10,0:2:0:0:
440,384,263970,1,0,0:0:0:0:
512,312,264127,5,2,1:2:0:0:
455,235,264284,1,2,0:0:0:0:
496,142,264441,2,0,P|508:93|513:52,1,77.999997619629,8|0,0:0|0:0,0:0:0:0:
408,85,264755,1,2,0:0:0:0:
321,14,264912,1,2,1:2:0:0:
250,90,265069,1,10,0:2:0:0:
129,59,265227,1,2,0:0:0:0:
55,131,265384,6,0,L|73:227,1,77.999997619629,8|0,0:0|1:0,0:0:0:0:
177,195,265698,2,0,L|157:294,1,77.999997619629,8|0,0:0|1:0,0:0:0:0:
104,362,266012,5,8,0:0:0:0:
264,299,266169,1,8,0:0:0:0:
164,295,266326,1,8,0:0:0:0:
320,384,266483,1,0,1:0:0:0:
412,313,266640,6,0,P|428:235|451:179,1,126.749994197846,4|0,1:0|0:0,0:0:0:0:
474,162,266954,2,0,P|451:108|449:67,1,84.4999961318971,8|2,0:0|0:0,0:0:0:0:
344,16,267268,1,2,0:0:0:0:
306,109,267425,1,2,1:2:0:0:
214,53,267582,2,0,P|139:78|75:97,1,126.749994197846,8|2,0:0|0:0,0:0:0:0:
71,100,267896,6,0,P|86:174|96:214,1,84.4999961318971,0|0,1:0|0:0,0:0:0:0:
206,178,268211,2,0,L|181:275,1,84.4999961318971,8|0,0:0|0:0,0:0:0:0:
97,305,268525,1,0,0:0:0:0:
151,384,268682,1,2,1:2:0:0:
251,339,268839,2,0,L|348:323,1,84.4999961318971,8|0,0:0|0:0,0:0:0:0:
476,384,269153,6,0,P|422:333|441:276,1,126.749994197846,0|2,1:0|0:0,0:0:0:0:
462,276,269467,2,0,L|477:190,1,84.4999961318971,8|0,0:0|0:0,0:0:0:0:
381,147,269781,1,2,0:0:0:0:
322,239,269938,1,0,1:2:0:0:
239,164,270095,2,0,P|220:102|208:50,1,84.4999961318971,8|0,0:0|0:2,0:0:0:0:
130,16,270410,5,0,1:0:0:0:
44,86,270567,1,0,3:0:0:0:
145,125,270724,1,8,0:0:0:0:
76,220,270881,1,2,0:0:0:0:
134,297,271038,2,0,P|176:303|218:312,2,84.4999961318971,2|0|8,0:0|1:2|0:0,0:0:0:0:
56,372,271509,1,10,0:0:0:0:
14,264,271666,6,0,P|39:194|104:195,1,126.749994197846,4|0,1:0|0:0,0:0:0:0:
107,203,271980,2,0,L|203:215,1,84.4999961318971,8|0,0:0|0:0,0:0:0:0:
285,195,272294,1,2,0:0:0:0:
227,108,272451,1,2,1:2:0:0:
308,51,272609,2,0,L|418:34,1,84.4999961318971,8|0,0:0|0:0,0:0:0:0:
485,0,272923,6,0,P|490:62|500:108,1,84.4999961318971,2|0,1:2|0:0,0:0:0:0:
420,149,273237,2,0,P|425:211|435:257,1,84.4999961318971,8|0,0:0|3:0,0:0:0:0:
485,319,273551,1,2,0:0:0:0:
403,377,273708,1,0,1:0:0:0:
333,303,273865,1,8,0:0:0:0:
248,354,274022,1,0,3:0:0:0:
153,313,274179,6,0,P|149:253|208:212,1,126.749994197846,0|2,1:0|0:0,0:0:0:0:
224,226,274493,2,0,P|254:190|254:142,1,84.4999961318971,8|0,0:0|0:0,0:0:0:0:
184,86,274807,1,2,0:0:0:0:
101,153,274965,1,2,1:2:0:0:
37,82,275122,1,8,0:0:0:0:
109,4,275279,1,8,0:0:0:0:
182,65,275436,6,0,L|300:42,1,84.4999961318971,0|0,1:0|0:0,0:0:0:0:
287,29,275671,1,2,0:0:0:0:
287,29,275750,2,0,P|344:37|388:43,1,84.4999961318971,8|0,0:0|1:0,0:0:0:0:
461,102,276064,1,8,0:0:0:0:
402,176,276221,1,8,0:0:0:0:
479,250,276378,1,8,0:0:0:0:
486,282,276457,1,8,0:0:0:0:
480,316,276535,1,8,0:0:0:0:
471,343,276614,1,8,0:0:0:0:
457,356,276692,6,0,P|369:334|299:319,1,126.749994197846,4|0,1:0|0:0,0:0:0:0:
314,325,277006,2,0,P|304:276|299:233,1,84.4999961318971,8|0,0:0|0:0,0:0:0:0:
200,216,277321,1,2,0:0:0:0:
193,113,277478,1,2,1:2:0:0:
305,52,277635,2,0,P|366:67|428:77,1,126.749994197846,8|2,0:0|0:0,0:0:0:0:
441,100,277949,6,0,P|426:174|416:214,1,84.4999961318971,0|2,1:0|0:0,0:0:0:0:
306,178,278264,2,0,L|331:275,1,84.4999961318971,8|0,0:0|0:0,0:0:0:0:
415,305,278578,1,0,0:0:0:0:
361,384,278735,1,2,1:2:0:0:
261,339,278892,2,0,L|164:323,1,84.4999961318971,8|0,0:0|0:0,0:0:0:0:
36,384,279206,6,0,P|90:333|71:276,1,126.749994197846,0|0,1:0|0:0,0:0:0:0:
50,276,279520,2,0,L|35:190,1,84.4999961318971,8|0,0:0|0:0,0:0:0:0:
131,147,279834,1,2,0:0:0:0:
190,239,279991,1,0,1:0:0:0:
273,164,280148,2,0,P|292:102|304:50,1,84.4999961318971,8|0,0:0|0:0,0:0:0:0:
382,16,280463,5,0,1:0:0:0:
468,86,280620,1,2,3:2:0:0:
367,125,280777,1,8,0:0:0:0:
436,220,280934,1,0,0:0:0:0:
378,297,281091,2,0,P|336:303|294:312,2,84.4999961318971,2|0|8,0:0|1:0|0:0,0:0:0:0:
456,372,281562,1,2,0:0:0:0:
498,264,281719,6,0,P|473:194|408:195,1,126.749994197846,4|0,1:0|0:0,0:0:0:0:
405,203,282033,2,0,L|309:215,1,84.4999961318971,8|0,0:0|0:0,0:0:0:0:
227,195,282347,1,2,0:0:0:0:
285,108,282504,1,2,1:2:0:0:
204,51,282662,2,0,L|94:34,1,84.4999961318971,8|2,0:0|0:2,0:0:0:0:
27,0,282976,6,0,P|22:62|12:108,1,84.4999961318971,0|0,1:0|0:0,0:0:0:0:
92,149,283290,2,0,P|87:211|77:257,1,84.4999961318971,8|0,0:0|0:0,0:0:0:0:
27,319,283603,1,2,0:0:0:0:
109,377,283761,1,0,1:0:0:0:
179,303,283918,1,8,0:0:0:0:
264,354,284075,1,0,3:0:0:0:
359,313,284232,6,0,P|363:253|304:212,1,126.749994197846,0|2,1:0|0:0,0:0:0:0:
288,226,284546,2,0,P|258:190|258:142,1,84.4999961318971,8|0,0:0|0:0,0:0:0:0:
328,86,284860,1,2,0:0:0:0:
411,153,285018,1,2,1:2:0:0:
475,82,285175,1,8,0:0:0:0:
403,4,285332,1,8,0:0:0:0:
330,65,285489,6,0,L|212:42,1,84.4999961318971,0|0,1:0|1:0,0:0:0:0:
225,29,285724,1,2,0:0:0:0:
225,29,285803,2,0,P|168:37|124:43,1,84.4999961318971,10|0,0:0|1:0,0:0:0:0:
51,102,286117,1,8,0:0:0:0:
110,176,286274,1,0,1:0:0:0:
33,250,286431,1,8,0:0:0:0:
26,282,286510,1,8,1:2:0:0:
32,316,286588,1,0,1:0:0:0:
41,343,286667,1,0,1:0:0:0:
60,352,286745,6,0,P|126:322|188:305,1,130,4|2,1:0|0:0,0:0:0:0:
361,384,287687,2,0,P|375:302|383:272,1,97.50000371933,2|2,0:0|0:0,0:0:0:0:
256,0,288629,5,0,0:0:0:0:
482,134,288944,1,2,0:0:0:0:
402,33,289258,6,0,P|346:52|338:180,2,195.00000743866,2|2|2,0:0|0:0|0:0,0:0:0:0:
0,3,291771,6,0,P|91:20|153:120,1,195.00000743866,2|2,0:0|0:0,0:0:0:0:
264,234,292713,1,2,0:0:0:0:
162,370,293027,2,0,P|148:285|120:177,1,195.00000743866,2|2,0:0|0:0,0:0:0:0:
512,0,294284,6,0,P|459:46|323:41,1,195.00000743866,2|2,0:0|0:0,0:0:0:0:
182,90,295226,1,2,0:0:0:0:
400,102,295540,6,0,L|421:162,1,48.750001859665,0|8,1:0|0:1,0:0:0:0:
308,168,295855,2,0,L|287:228,1,48.750001859665,0|8,1:0|0:1,0:0:0:0:
179,211,296169,2,0,L|200:271,1,48.750001859665,0|8,1:0|0:1,0:0:0:0:
81,275,296483,1,8,0:1:0:0:
