osu file format v14

[General]
AudioFilename: audio.mp3
AudioLeadIn: 0
PreviewTime:110828
Countdown: 0
SampleSet: Soft
StackLeniency: 0.2
Mode: 0
LetterboxInBreaks: 0
WidescreenStoryboard: 1

[Editor]
Bookmarks: 60567,110828,166116,206326,246535,266640
DistanceSpacing: 1
BeatDivisor: 8
GridSize: 32
TimelineZoom: 5.600002

[Metadata]
Title:Vitamins feat. world's end girlfriend
TitleUnicode:Vitamins feat. world's end girlfriend
Artist:Mili
ArtistUnicode:Mili
Creator:Ducky-
Version:Insane
Source:
Tags:kyrian xytoper -eresh VGogetto stormi stormiverse 2018 Saihate Records project 3rd album Millennium Mother SNCL-00018 SNCL-00017 SNCL-00016 Cassie Wei momocashew モモカシュー yamatokasai Yamato Kasai HAMOloid 葛西大和 HAMO yukihito mitomo 三友行人 Shoto Yoshida 吉田翔人 worlds Katsuhiko Maeda 前田勝彦 electronic indie dance english female vocalist vocals full size version featured artist fa
BeatmapID:3708287
BeatmapSetID:1808152

[Difficulty]
HPDrainRate:5
CircleSize:3.8
OverallDifficulty:8
ApproachRate:9
SliderMultiplier:1.4
SliderTickRate:1

[Events]
//Background and Video events
0,0,"89651217_p0_ccexpress.jpg",0,0
//Break Periods
//Storyboard Layer 0 (Background)
//Storyboard Layer 1 (Fail)
//Storyboard Layer 2 (Pass)
//Storyboard Layer 3 (Foreground)
//Storyboard Layer 4 (Overlay)
//Storyboard Sound Samples

[TimingPoints]
253,314.13612565445,4,2,1,50,1,0
10305,-100,4,2,1,60,0,0
20357,-133.333333333333,4,2,1,70,0,0
30410,-100,4,2,1,90,0,0
39205,-133.333333333333,4,2,1,60,0,0
40462,-125,4,2,1,70,0,0
42975,-100,4,2,1,70,0,0
46745,-133.333333333333,4,2,1,70,0,0
47687,-100,4,2,1,70,0,0
48001,-111.111111111111,4,2,1,70,0,0
54873,-111.111111111111,4,2,1,5,0,0
54912,-111.111111111111,4,2,1,70,0,0
55030,-111.111111111111,4,2,1,5,0,0
55069,-111.111111111111,4,2,1,70,0,0
60567,-133.333333333333,4,2,1,50,0,0
61823,-200,4,2,1,50,0,0
70619,-83.3333333333333,4,2,1,75,0,1
80671,-200,4,2,3,50,0,0
84441,-200,4,2,3,100,0,0
84461,-200,4,2,3,50,0,0
86954,-200,4,2,3,100,0,0
86974,-200,4,2,3,50,0,0
88839,-200,4,2,3,100,0,0
88859,-200,4,2,3,50,0,0
100776,-111.111111111111,4,2,3,85,0,0
108315,-66.6666666666667,4,2,3,85,0,0
109572,-76.9230769230769,4,2,3,85,0,0
110828,-66.6666666666667,4,2,2,90,0,1
130933,-200,4,2,2,70,0,0
131090,-200,4,2,2,69,0,0
131247,-200,4,2,2,67,0,0
131404,-200,4,2,2,66,0,0
131561,-200,4,2,2,64,0,0
131718,-200,4,2,2,63,0,0
131876,-200,4,2,2,61,0,0
132033,-200,4,2,2,60,0,0
132190,-200,4,2,2,58,0,0
132347,-200,4,2,2,57,0,0
132504,-200,4,2,2,55,0,0
132661,-200,4,2,2,54,0,0
132818,-200,4,2,2,52,0,0
132975,-200,4,2,2,51,0,0
133132,-200,4,2,2,49,0,0
133289,-200,4,2,2,48,0,0
133446,-200,4,2,2,46,0,0
133603,-200,4,2,2,45,0,0
133760,-200,4,2,2,43,0,0
133917,-200,4,2,2,42,0,0
134074,-200,4,2,2,40,0,0
134389,-200,4,2,2,38,0,0
134703,-200,4,2,2,35,0,0
135017,-200,4,2,2,33,0,0
135331,-200,4,2,2,30,0,0
135959,-100,4,2,1,90,0,0
146012,-100,4,2,1,70,0,0
146326,-181.818181818181,4,2,1,70,0,0
149310,-181.818181818181,4,2,4,70,0,0
149781,-181.818181818181,4,2,1,70,0,0
156064,-100,4,2,1,60,0,0
164860,-66.6666666666667,4,2,1,60,0,0
166116,-83.3333333333333,4,2,1,85,0,0
171143,-83.3333333333333,4,2,1,70,0,0
176169,-83.3333333333333,4,2,1,85,0,0
180881,-111.111111111111,4,2,1,85,0,0
185907,-50,4,2,1,85,0,0
186221,-133.333333333333,4,2,1,50,0,0
192504,-133.333333333333,4,2,1,60,0,0
196273,-83.3333333333333,4,2,1,75,0,1
206326,-133.333333333333,4,2,1,50,0,0
231457,-200,4,2,1,50,0,0
236483,-111.111111111111,4,2,3,85,0,0
244022,-66.6666666666667,4,2,3,85,0,0
245279,-76.9230769230769,4,2,3,85,0,0
246535,-66.6666666666667,4,2,2,90,0,1
266561,-66.6666666666667,4,2,2,90,0,0
266640,-66.6666666666667,4,2,3,95,0,1
286745,-66.6666666666667,4,2,3,70,0,0
287373,-133.333333333333,4,2,3,70,0,0
295540,-133.333333333333,4,2,3,80,0,0

[Colours]
Combo1 : 4,79,217
Combo2 : 198,0,114

[HitObjects]
81,0,20357,6,0,P|121:24|145:89,1,105.000004005432,0|2,3:0|0:1,0:0:0:0:
144,75,20828,1,2,0:1:0:0:
416,348,21614,6,0,B|376:366|376:366|342:345|342:345|321:258,1,157.500006008148,0|2,3:0|0:1,0:0:0:0:
324,273,22556,1,0,3:0:0:0:
488,286,22870,6,0,P|457:277|416:259,2,52.5000020027161,0|2|2,3:0|0:1|0:1,0:0:0:0:
431,185,23656,1,0,3:0:0:0:
401,205,23813,1,2,0:1:0:0:
0,348,24127,6,0,P|65:367|116:398,1,105.000004005432,0|0,3:0|0:0,0:0:0:0:
185,384,24598,1,0,0:0:0:0:
258,357,24755,1,2,0:1:0:0:
56,153,25226,5,2,0:1:0:0:
45,143,25305,1,2,0:1:0:0:
41,131,25383,2,0,P|52:89|121:79,1,105.000004005432,0|0,3:0|0:0,0:0:0:0:
187,65,25855,2,0,P|161:61|121:-10,1,105.000004005432,2|0,0:1|0:0,0:0:0:0:
447,0,26640,6,0,P|436:42|367:52,1,105.000004005432,0|0,3:0|0:0,0:0:0:0:
301,66,27111,2,0,P|327:70|367:141,1,105.000004005432,2|0,0:1|0:0,0:0:0:0:
500,277,27896,6,0,L|429:302,1,52.5000020027161,0|0,3:0|0:0,0:0:0:0:
490,384,28211,2,0,L|336:334,1,157.500006008148,0|2,3:0|0:1,0:0:0:0:
340,335,29153,5,0,3:0:0:0:
60,270,30095,6,0,L|61:280,12,6.56250025033952
50,384,30410,6,0,B|76:342|149:350|139:281,1,140,4|8,1:0|0:0,0:0:0:0:
139,287,30881,1,0,0:0:0:0:
235,239,31038,2,0,P|198:230|168:193,1,70,2|0,0:1|1:0,0:0:0:0:
209,89,31352,1,10,0:0:0:0:
205,100,31509,1,2,0:1:0:0:
64,119,31666,6,0,P|120:135|152:145,1,70,2|0,1:0|0:0,0:0:0:0:
261,162,31980,2,0,P|294:151|328:142,1,70,8|0,0:0|0:0,0:0:0:0:
472,96,32294,5,2,0:1:0:0:
468,108,32451,1,2,1:0:0:0:
385,65,32609,1,10,0:0:0:0:
293,47,32766,1,2,0:1:0:0:
512,0,32923,6,0,P|472:16|365:68,1,140,2|8,1:0|0:0,0:0:0:0:
336,134,33394,1,0,0:0:0:0:
458,192,33551,6,0,P|418:206|377:234,2,70,2|0|10,0:1|1:0|0:0,0:0:0:0:
381,315,34022,1,2,0:1:0:0:
362,312,34179,2,0,P|315:299|289:283,1,70,2|0,1:0|0:0,0:0:0:0:
512,361,34493,2,0,P|465:374|439:390,1,70,8|0,0:0|0:0,0:0:0:0:
319,384,34807,5,2,0:1:0:0:
321,373,34965,1,2,1:0:0:0:
241,367,35122,1,10,0:0:0:0:
162,347,35279,1,2,0:1:0:0:
70,264,35436,6,0,B|79:241|67:210|67:210|112:231|122:270,1,140,2|8,1:0|0:0,0:0:0:0:
122,270,35907,1,0,1:0:0:0:
24,383,36064,2,0,P|65:355|83:329,1,70,2|0,0:1|1:0,0:0:0:0:
176,199,36378,5,10,0:0:0:0:
184,191,36535,1,2,0:1:0:0:
197,313,36692,2,0,P|225:354|251:372,1,70,2|0,1:0|0:0,0:0:0:0:
315,301,37006,2,0,P|363:310|394:304,1,70,8|0,0:0|0:0,0:0:0:0:
510,367,37321,5,2,0:1:0:0:
474,290,37478,1,2,1:0:0:0:
445,206,37635,2,0,L|479:86,1,105,10|0,0:0|0:0,0:0:0:0:
473,92,37949,6,0,L|385:118,1,70,2|0,1:0|0:0,0:0:0:0:
291,201,38263,2,0,L|212:169,1,70,8|0,0:0|0:0,0:0:0:0:
300,22,38577,6,0,L|329:145,1,105,2|0,1:1|0:0,0:0:0:0:
326,134,38891,2,0,L|343:63,1,70,10|0,0:0|0:0,0:0:0:0:
159,0,39205,6,0,P|165:26|177:73,3,52.5000020027161,0|0|0|0,1:0|0:0|1:0|0:0,0:0:0:0:
132,126,39834,6,0,P|126:152|114:199,1,52.5000020027161,0|0,1:0|0:0,0:0:0:0:
62,249,40148,6,0,P|68:275|80:322,1,52.5000020027161,0|0,1:0|0:0,0:0:0:0:
139,384,40462,6,0,B|174:309|242:342|180:360,1,112,4|8,1:0|0:0,0:0:0:0:
276,306,40933,1,2,0:1:0:0:
198,254,41090,2,0,P|186:217|174:187,1,56,0|0,0:0|1:0,0:0:0:0:
283,209,41404,2,0,P|289:177|325:94,1,112,10|0,0:0|1:0,0:0:0:0:
68,167,42033,6,0,L|9:179,2,56,8|2|0,0:0|0:1|0:0,0:0:0:0:
199,132,42504,1,0,1:0:0:0:
199,132,42661,2,0,P|183:110|118:112,1,84,10|0,0:0|0:0,0:0:0:0:
100,91,42975,6,0,L|123:10,1,70,0|0,1:0|0:0,0:0:0:0:
19,221,43289,2,0,L|-4:140,1,70,8|2,0:0|0:1,0:0:0:0:
112,297,43603,5,0,0:0:0:0:
114,288,43760,1,0,1:0:0:0:
0,384,43917,6,0,B|36:369|35:370|46:332|133:306,1,140,10|0,0:0|1:0,0:0:0:0:
397,384,44546,6,0,P|359:375|315:351,1,70,8|0,0:0|0:0,0:0:0:0:
194,304,44860,2,0,P|232:313|276:337,1,70,2|0,0:1|1:0,0:0:0:0:
337,283,45174,1,10,0:0:0:0:
80,192,45488,5,0,1:0:0:0:
80,192,45802,2,0,L|99:111,1,70,2|2,0:1|0:1,0:0:0:0:
288,35,46273,5,0,1:0:0:0:
288,35,46431,2,0,L|309:-18,1,35,10|0,0:0|0:0,0:0:0:0:
153,49,46745,6,0,P|238:41|250:120,1,157.500006008148,0|2,1:0|0:1,0:0:0:0:
300,3,47530,5,0,1:0:0:0:
300,3,47687,2,0,L|287:35,1,35,10|0,0:0|0:0,0:0:0:0:
252,103,47844,2,0,L|239:135,1,35,0|0,3:0|0:0,0:0:0:0:
126,209,48001,6,0,L|198:200,1,62.9999980773926,0|0,1:0|0:0,0:0:0:0:
307,272,48315,2,0,L|368:291,1,62.9999980773926,8|0,0:0|0:0,0:0:0:0:
458,384,48629,5,0,0:0:0:0:
466,374,48787,1,0,1:0:0:0:
512,279,48944,2,0,P|477:254|472:187,1,94.499997116089,10|0,0:0|0:0,0:0:0:0:
458,179,49258,6,0,B|434:165|434:165|353:155|353:155|337:135,1,125.999996154785,0|8,1:0|0:0,0:0:0:0:
343,143,49729,1,2,0:1:0:0:
393,23,49886,2,0,L|410:96,1,62.9999980773926,0|0,0:0|1:0,0:0:0:0:
273,213,50200,2,0,P|237:177|209:165,1,62.9999980773926,10|0,0:0|0:0,0:0:0:0:
212,165,50436,1,2,0:1:0:0:
200,158,50514,6,0,P|194:123|210:78,1,62.9999980773926,4|2,1:0|0:1,0:0:0:0:
71,84,50828,2,0,P|83:50|160:3,1,125.999996154785,8|0,0:0|0:0,0:0:0:0:
263,35,51300,1,0,1:0:0:0:
192,101,51457,2,0,P|143:123|124:153,1,62.9999980773926,10|2,0:0|0:1,0:0:0:0:
0,170,51771,6,0,P|46:178|102:199,1,94.499997116089,0|0,1:0|0:0,0:0:0:0:
106,208,52085,2,0,P|128:265|130:284,1,62.9999980773926,8|0,0:0|0:0,0:0:0:0:
29,372,52399,5,0,0:0:0:0:
31,357,52556,1,2,1:0:0:0:
114,359,52713,2,0,L|201:338,1,62.9999980773926,10|0,0:0|0:0,0:0:0:0:
302,284,53027,6,0,L|309:246,1,31.4999990386963,0|0,1:0|0:0,0:0:0:0:
379,366,53184,1,0,0:0:0:0:
448,266,53342,6,0,L|441:228,1,31.4999990386963,0|0,1:0|0:0,0:0:0:0:
369,342,53499,1,0,0:0:0:0:
300,242,53656,6,0,L|307:204,1,31.4999990386963,0|0,1:0|0:0,0:0:0:0:
377,324,53813,1,0,0:0:0:0:
446,224,53970,6,0,L|439:186,1,31.4999990386963,0|0,1:0|0:0,0:0:0:0:
364,299,54127,1,0,0:0:0:0:
369,124,54284,6,0,B|347:78|359:44|341:21,1,94.499997116089,2|0,0:1|0:0,0:0:0:0:
359,10,54598,1,8,0:0:0:0:
268,65,54755,1,2,0:1:0:0:
141,45,54912,1,2,0:1:0:0:
211,0,55069,1,2,1:0:0:0:
113,130,55226,6,0,B|63:106|92:83|16:68,1,94.499997116089,10|0,0:0|0:0,0:0:0:0:
22,67,55540,5,0,1:0:0:0:
16,48,55698,1,0,1:0:0:0:
10,30,55855,1,0,1:0:0:0:
4,12,56012,1,0,1:0:0:0:
141,45,56483,5,10,0:0:0:0:
22,67,56797,5,0,1:0:0:0:
16,48,56954,1,0,1:0:0:0:
10,30,57111,1,0,1:0:0:0:
4,12,57268,1,0,1:0:0:0:
141,45,57739,5,10,0:0:0:0:
22,67,58054,5,0,1:0:0:0:
16,48,58211,1,0,1:0:0:0:
10,30,58368,1,0,1:0:0:0:
4,12,58525,1,0,1:0:0:0:
141,45,58996,5,10,0:0:0:0:
0,256,59310,6,0,B|5:300|83:225|107:347|126:416,1,188.999994232178,0|0,1:0|1:0,0:0:0:0:
97,218,60252,2,0,P|72:182|59:155,1,62.9999980773926,0|0,1:0|0:0,0:0:0:0:
69,151,60567,6,0,B|95:142|225:109|171:94|86:163|43:244,1,210.000008010865,2|0,0:1|0:0,0:0:0:0:
123,384,61509,1,0,0:0:0:0:
165,258,61823,2,0,P|221:243|252:237,1,70,2|0,0:1|0:0,0:0:0:0:
249,320,62451,2,0,P|283:327|316:337,1,70
458,384,63080,2,0,P|407:361|401:278,1,140,2|0,0:1|0:0,0:0:0:0:
400,276,64022,1,0,0:0:0:0:
295,246,64336,6,0,P|304:195|312:164,2,70,2|0|2,0:1|0:0|0:1,0:0:0:0:
150,0,65593,6,0,P|101:-8|65:77,1,140,2|0,0:1|0:0,0:0:0:0:
201,92,66535,1,0,0:0:0:0:
145,171,66849,2,0,P|104:155|78:138,1,70,2|0,0:1|0:0,0:0:0:0:
204,245,67478,2,0,P|163:262|133:269,1,70
30,370,67949,1,0,0:0:0:0:
15,284,68106,6,0,P|93:300|121:356,1,140,2|0,0:1|0:0,0:0:0:0:
201,384,69048,1,0,0:0:0:0:
296,340,69362,6,0,P|309:297|312:288,2,52.5,2|2|0,0:1|0:1|0:0,0:0:0:0:
236,280,69991,6,0,L|226:198,1,70,2|2,0:1|0:0,0:0:0:0:
28,0,70619,6,0,P|52:51|95:58,2,83.9999974365235,4|0|8,1:0|0:0|0:0,0:0:0:0:
232,62,71090,1,2,0:1:0:0:
147,126,71247,1,0,0:0:0:0:
147,32,71404,1,0,1:0:0:0:
261,147,71561,2,0,B|310:162|321:195|388:219,1,125.999996154785,8|0,0:0|0:0,0:0:0:0:
390,196,71876,6,0,P|405:142|414:101,1,83.9999974365235,0|0,1:0|0:0,0:0:0:0:
385,10,72190,1,8,0:0:0:0:
475,38,72347,2,0,P|497:114|514:180,1,125.999996154785,2|0,0:1|0:0,0:0:0:0:
495,180,72661,1,0,1:0:0:0:
354,295,72818,2,0,P|298:274|254:263,1,83.9999974365235,8|0,0:0|0:0,0:0:0:0:
456,384,73132,6,0,P|502:338|455:288,1,125.999996154785,0|0,1:0|0:0,0:0:0:0:
454,286,73446,1,8,0:0:0:0:
384,198,73603,2,0,P|389:141|403:92,1,83.9999974365235,2|0,0:1|0:0,0:0:0:0:
288,240,73917,1,0,1:0:0:0:
269,149,74074,6,0,P|186:163|168:261,1,167.999994873047,8|10,0:0|1:2,0:0:0:0:
281,384,74703,1,2,0:1:0:0:
33,281,75017,1,10,1:2:0:0:
23,272,75174,1,0,1:0:0:0:
76,196,75331,2,0,P|93:124|116:51,1,125.999996154785,2|0,0:1|0:0,0:0:0:0:
179,0,75645,6,0,P|187:64|240:113,1,125.999996154785,0|0,1:2|0:0,0:0:0:0:
247,103,75959,1,8,0:0:0:0:
361,47,76116,2,0,P|424:61|469:77,2,83.9999974365235,2|0|0,0:1|0:0|1:0,0:0:0:0:
504,16,76588,5,8,0:0:0:0:
490,140,76745,1,2,0:1:0:0:
391,147,76902,6,0,B|359:211|321:187|314:269,1,125.999996154785,0|0,1:0|0:0,0:0:0:0:
373,293,77216,1,8,0:0:0:0:
305,384,77373,2,0,P|264:344|267:300,1,83.9999974365235,2|0,0:1|0:0,0:0:0:0:
106,370,77687,1,0,1:0:0:0:
170,311,77844,2,0,P|183:244|192:173,1,125.999996154785,8|0,0:0|0:0,0:0:0:0:
124,136,78158,6,0,P|73:125|59:9,1,167.999994873047,0|8,1:0|0:0,0:0:0:0:
127,50,78629,2,0,P|185:35|222:27,1,83.9999974365235,2|0,0:1|0:0,0:0:0:0:
349,41,78944,1,0,1:0:0:0:
265,101,79101,2,0,P|348:126|436:174,1,167.999994873047,8|4,0:0|1:0,0:0:0:0:
247,278,80043,5,0,1:0:0:0:
1,380,80357,5,0,0:0:0:0:
85,242,80671,6,0,P|92:276|98:312,2,70,2|0|0,0:1|0:0|0:0,0:0:0:0:
263,98,81928,6,0,P|276:76|252:91,1,70,0|0,3:1|0:0,0:0:0:0:
167,181,82399,2,0,P|154:159|178:174,1,70,0|0,3:0|0:0,0:0:0:0:
392,384,83027,5,0,0:0:0:0:
398,374,83106,1,0,0:0:0:0:
405,359,83184,2,0,P|393:322|384:282,2,70,2|0|2,0:0|0:0|0:0,0:0:0:0:
512,0,84441,5,0,1:0:0:0:
117,42,85698,6,0,L|118:36,8,4.375,2|0|0|0|0|0|0|0|0,0:0|0:0|0:0|0:0|0:0|0:0|0:0|0:0|0:0,0:0:0:0:
512,193,86954,5,0,1:0:0:0:
512,193,87739,1,0,3:0:0:0:
406,242,88054,1,2,0:0:0:0:
395,237,88132,1,2,0:0:0:0:
387,227,88211,2,0,P|377:181|390:150,1,70,2|0,0:0|0:0,0:0:0:0:
512,107,88839,6,0,P|477:75|443:71,1,70,8|0,0:0|0:0,0:0:0:0:
319,62,89467,6,0,B|344:54|344:54|349:40,3,35,2|0|0|0,0:0|0:0|0:0|0:0,0:0:0:0:
444,75,90095,1,2,0:0:0:0:
247,14,90252,5,0,0:0:0:0:
242,18,90331,1,0,0:0:0:0:
236,25,90410,1,2,0:0:0:0:
137,30,90567,5,0,0:0:0:0:
134,35,90646,1,0,0:0:0:0:
131,42,90725,1,2,0:0:0:0:
172,118,91038,1,0,0:0:0:0:
78,181,91352,1,0,0:0:0:0:
53,92,91666,1,2,0:0:0:0:
180,203,91980,6,0,P|202:210|217:215,3,35,2|0|0|0,0:0|0:0|0:0|0:0,0:0:0:0:
281,158,92609,2,0,P|303:151|318:146,3,35,2|0|0|0,0:0|0:0|0:0|0:0,0:0:0:0:
379,84,93237,6,0,P|433:89|459:163,2,140,2|2|2,0:0|0:0|0:0,0:0:0:0:
476,184,95122,1,2,0:0:0:0:
320,375,95750,6,0,B|323:328|271:317|269:233,1,140,2|0,0:0|0:0,0:0:0:0:
350,209,96692,1,2,0:0:0:0:
272,164,97006,2,0,P|243:174|197:185,1,70,2|0,0:0|0:0,0:0:0:0:
0,0,98263,6,0,L|79:15,1,70,2|0,0:0|0:0,0:0:0:0:
137,79,98891,6,0,L|217:61,1,70,2|0,0:0|0:0,0:0:0:0:
244,148,99520,6,0,L|323:163,1,70,2|2,0:0|0:0,0:0:0:0:
381,227,100148,6,0,L|461:209,1,70,2|2,0:0|0:0,0:0:0:0:
0,87,100776,6,0,P|88:74|151:-13,1,188.999994232178,4|0,1:3|0:0,0:0:0:0:
53,6,101404,1,2,0:0:0:0:
118,81,101561,1,2,0:0:0:0:
216,68,101718,1,2,0:0:0:0:
268,12,101876,1,0,0:0:0:0:
387,72,102033,6,0,P|384:136|267:151,1,188.999994232178,2|0,0:0|0:0,0:0:0:0:
153,183,102661,1,0,0:0:0:0:
231,230,102818,1,0,0:0:0:0:
281,292,102975,1,2,0:0:0:0:
307,362,103132,1,0,0:0:0:0:
478,384,103289,6,0,P|457:322|435:244,1,125.999996154785,2|2,0:0|0:0,0:0:0:0:
397,106,103917,2,0,P|379:166|359:226,1,125.999996154785,2|2,0:0|0:0,0:0:0:0:
0,384,104546,6,0,P|9:342|104:340,1,125.999996154785,2|0,0:0|0:0,0:0:0:0:
142,384,105017,1,0,0:0:0:0:
196,326,105174,2,0,P|212:270|217:251,2,62.9999980773926,2|2|2,0:0|0:0|0:0,0:0:0:0:
0,104,105802,6,0,P|80:126|93:232,1,188.999994232178,4|0,1:3|0:0,0:0:0:0:
213,265,106431,1,2,0:0:0:0:
232,176,106588,1,2,0:0:0:0:
173,116,106745,1,2,0:0:0:0:
98,220,107059,6,0,P|85:131|0:104,1,188.999994232178,8|0,0:0|0:0,0:0:0:0:
0,18,107687,1,2,0:0:0:0:
141,0,107844,1,2,0:0:0:0:
85,91,108001,1,2,0:0:0:0:
172,108,108158,1,2,0:0:0:0:
320,0,108315,6,0,B|380:45|372:106|372:106|325:128,1,157.500006008148,4|0,1:3|0:0,0:0:0:0:
260,126,108629,2,0,B|251:144|251:144|303:171|288:211,1,105.000004005432,4|0,1:3|0:0,0:0:0:0:
452,264,108944,6,0,B|378:243|369:302|369:300|385:319|331:367,1,157.500006008148,4|0,1:3|0:0,0:0:0:0:
321,384,109258,1,4,1:3:0:0:
242,304,109415,1,2,0:0:0:0:
148,367,109572,6,0,P|65:346|41:339,1,90.9999958343508,4|0,1:3|1:0,0:0:0:0:
199,233,109886,2,0,P|282:212|306:205,1,90.9999958343508,0|0,1:0|1:0,0:0:0:0:
310,200,110122,1,0,1:0:0:0:
329,186,110200,2,0,P|341:156|345:127,1,45.4999979171754,0|0,1:0|0:0,0:0:0:0:
468,143,110357,2,0,P|454:118|434:91,1,45.4999979171754,0|0,1:0|0:0,0:0:0:0:
500,20,110514,2,0,P|485:12|446:9,3,45.4999979171754,0|0|0|0,1:0|1:0|1:0|1:0,0:0:0:0:
512,0,110828,6,0,B|478:-10|478:-10|444:32|271:38,1,210.000008010865,4|8,1:0|0:0,0:0:0:0:
217,80,111300,1,0,0:0:0:0:
300,191,111457,2,0,P|321:140|385:135,1,105.000004005432,2|0,0:0|1:2,0:0:0:0:
209,192,111771,2,0,P|290:231|303:328,1,157.500006008148,10|0,0:0|0:0,0:0:0:0:
452,295,112085,6,0,P|312:331|252:361,1,210.000008010865,2|8,1:2|0:0,0:0:0:0:
189,307,112556,1,0,0:0:0:0:
65,308,112713,6,0,P|55:275|45:249,1,52.5000020027161,2|0,0:0|0:0,0:0:0:0:
43,340,112870,2,0,P|67:371|141:373,1,105.000004005432,2|8,1:2|0:0,0:0:0:0:
216,283,113184,1,2,0:0:0:0:
133,241,113342,6,0,P|144:190|159:140,1,105.000004005432,2|0,1:2|0:0,0:0:0:0:
230,0,113656,2,0,P|239:51|275:159,1,157.500006008148,10|0,0:2|0:0,0:0:0:0:
291,158,113970,1,2,0:2:0:0:
304,271,114127,1,0,1:0:0:0:
460,237,114284,2,0,P|418:228|355:197,1,105.000004005432,10|0,0:2|0:0,0:0:0:0:
216,283,114598,6,0,P|225:332|273:351,1,105.000004005432,2|0,1:2|0:0,0:0:0:0:
214,200,114912,1,8,0:0:0:0:
151,373,115069,1,0,0:0:0:0:
128,266,115226,1,2,0:2:0:0:
112,256,115383,1,2,1:2:0:0:
304,271,115540,2,0,P|323:261|310:170,1,105.000004005432,10|0,0:2|0:0,0:0:0:0:
78,107,115855,6,0,B|50:131|31:178|31:178|86:140|168:119,1,210.000008010865,2|8,1:2|0:0,0:0:0:0:
188,6,116326,1,2,0:0:0:0:
101,37,116483,2,0,P|31:5|-20:-3,1,105.000004005432,2|0,0:0|1:0,0:0:0:0:
190,117,116797,2,0,P|245:87|339:83,1,157.500006008148,8|0,0:0|0:0,0:0:0:0:
349,90,117111,6,0,P|394:63|403:7,1,105.000004005432,2|0,1:2|0:0,0:0:0:0:
287,176,117425,2,0,P|376:203|440:290,1,157.500006008148,8|0,0:0|0:0,0:0:0:0:
423,263,117739,1,2,0:2:0:0:
512,203,117896,1,2,1:2:0:0:
503,289,118054,1,10,0:2:0:0:
436,147,118211,1,0,0:0:0:0:
322,241,118368,6,0,P|271:249|200:270,1,105.000004005432,2|0,1:2|0:0,0:0:0:0:
343,378,118682,2,0,B|347:318|402:332|414:243,1,157.500006008148,8|0,0:0|0:0,0:0:0:0:
432,234,118996,1,0,0:0:0:0:
499,347,119153,2,0,P|470:359|444:367,1,52.5000020027161,2|0,1:2|0:0,0:0:0:0:
344,286,119310,1,10,0:2:0:0:
452,223,119467,1,2,0:0:0:0:
434,106,119624,2,0,B|438:52|459:59|469:9,1,105.000004005432,0|0,1:0|0:0,0:0:0:0:
333,276,119938,6,0,B|305:202|354:203|297:110,1,157.500006008148,8|0,0:0|0:0,0:0:0:0:
256,10,120252,1,2,0:2:0:0:
172,53,120410,1,2,1:2:0:0:
279,124,120567,1,10,0:2:0:0:
136,138,120724,2,0,B|100:140|114:158|78:156,1,52.5000020027161,2|0,0:2|0:0,0:0:0:0:
0,128,120881,6,0,P|127:155|208:188,1,210.000008010865,4|8,1:0|0:0,0:0:0:0:
202,268,121352,1,0,0:0:0:0:
101,241,121509,2,0,P|29:264|-3:272,1,105.000004005432,2|0,0:0|1:0,0:0:0:0:
98,363,121823,2,0,P|160:360|194:260,1,157.500006008148,10|0,0:2|0:0,0:0:0:0:
121,221,122137,6,0,P|216:246|337:293,1,210.000008010865,2|8,1:2|0:0,0:0:0:0:
264,355,122609,1,0,0:0:0:0:
399,364,122766,2,0,P|424:336|456:322,1,52.5000020027161,2|0,0:2|0:0,0:0:0:0:
473,258,122923,2,0,P|479:311|519:351,1,105.000004005432,2|10,1:2|0:2,0:0:0:0:
392,231,123237,1,2,0:0:0:0:
477,173,123394,6,0,P|495:106|510:57,1,105.000004005432,2|0,1:2|0:0,0:0:0:0:
294,0,123708,2,0,P|308:50|322:101,1,105.000004005432,10|0,0:2|0:0,0:0:0:0:
464,173,124022,6,0,P|482:106|497:57,1,105.000004005432,2|0,0:2|1:0,0:0:0:0:
281,0,124336,2,0,P|295:50|309:101,1,105.000004005432,10|0,0:2|0:0,0:0:0:0:
297,240,124650,6,0,P|335:199|383:164,2,105.000004005432,2|0|8,1:2|0:0|0:0,0:0:0:0:
224,150,125122,1,0,0:0:0:0:
137,202,125279,2,0,P|148:227|171:274,1,52.5000020027161,2|0,0:0|0:0,0:0:0:0:
233,296,125436,2,0,P|222:321|199:368,1,52.5000020027161,2|0,1:2|0:0,0:0:0:0:
127,384,125593,6,0,P|63:358|111:287,1,157.500006008148,10|0,0:2|0:0,0:0:0:0:
118,288,125907,6,0,B|109:180|151:168|125:66,1,210.000008010865,2|8,1:2|0:0,0:0:0:0:
139,79,126378,1,2,0:0:0:0:
93,0,126535,2,0,P|47:7|62:78,1,105.000004005432,2|0,0:2|1:2,0:0:0:0:
0,151,126849,2,0,P|94:161|141:220,1,157.500006008148,8|0,0:0|0:0,0:0:0:0:
133,217,127163,6,0,P|192:222|199:172,1,105.000004005432,2|0,1:2|0:0,0:0:0:0:
208,12,127478,2,0,P|151:25|183:103,1,157.500006008148,8|0,0:0|0:0,0:0:0:0:
188,114,127792,6,0,P|211:108|254:103,1,52.5000020027161,2|0,0:0|0:0,0:0:0:0:
312,140,127949,1,2,1:2:0:0:
350,41,128106,1,10,0:2:0:0:
454,10,128263,1,0,0:0:0:0:
509,179,128420,6,0,B|495:158|495:158|514:66,2,105.000004005432,2|0|8,1:2|0:0|0:0,0:0:0:0:
421,223,128891,1,2,0:0:0:0:
508,378,129048,6,0,P|458:359|382:333,1,105.000004005432,2|0,0:0|1:2,0:0:0:0:
397,239,129362,1,10,0:2:0:0:
315,381,129520,1,2,0:0:0:0:
253,256,129677,5,0,1:0:0:0:
253,256,129834,1,0,1:0:0:0:
329,167,129991,6,0,L|344:109,1,52.5000020027161,8|0,0:0|0:0,0:0:0:0:
314,46,130148,1,0,1:0:0:0:
193,124,130305,6,0,L|178:66,1,52.5000020027161,8|0,0:0|0:0,0:0:0:0:
208,3,130462,1,0,1:0:0:0:
248,204,130619,5,8,0:0:0:0:
216,278,130776,1,0,1:0:0:0:
183,352,130933,6,0,L|195:384,30,35,2|2|2|2|2|2|2|2|2|2|2|2|2|2|2|2|2|2|2|2|2|2|2|2|2|2|2|2|2|2|2,0:0|0:0|0:0|0:0|0:0|0:0|0:0|0:0|0:0|0:0|0:0|0:0|0:0|0:0|0:0|0:0|0:0|0:0|0:0|0:0|0:0|0:0|0:0|0:0|0:0|0:0|0:0|0:0|0:0|0:0|0:0,0:0:0:0:
119,313,135959,6,0,P|133:257|168:167,1,140,4|8,1:0|0:0,0:0:0:0:
161,180,136431,1,0,0:0:0:0:
100,119,136588,2,0,P|52:120|24:92,1,70,2|0,0:1|1:0,0:0:0:0:
163,35,136902,1,10,0:0:0:0:
154,53,137059,1,2,0:1:0:0:
231,110,137216,6,0,P|287:127|320:137,1,70,0|0,1:0|0:0,0:0:0:0:
431,187,137530,2,0,P|483:172|516:163,1,70,8|0,0:0|0:0,0:0:0:0:
390,116,137844,5,2,0:1:0:0:
399,99,138001,1,2,1:0:0:0:
342,203,138158,1,10,0:0:0:0:
250,213,138315,1,2,0:1:0:0:
166,167,138472,6,0,P|189:121|217:3,1,140,0|8,1:0|0:0,0:0:0:0:
213,36,138944,1,0,0:0:0:0:
87,0,139101,2,0,P|102:37|149:46,2,70,2|0|10,0:1|1:0|0:0,0:0:0:0:
0,160,139572,1,2,0:1:0:0:
11,149,139729,2,0,L|100:126,1,70,0|0,1:0|0:0,0:0:0:0:
153,195,140043,2,0,P|201:215|243:229,1,70,8|0,0:0|0:0,0:0:0:0:
75,230,140357,5,2,0:1:0:0:
66,216,140514,1,0,1:0:0:0:
0,280,140671,1,10,0:0:0:0:
40,356,140828,1,2,0:1:0:0:
127,381,140985,6,0,P|173:367|212:358,1,70,0|0,1:0|0:0,0:0:0:0:
367,316,141300,2,0,P|413:302|452:293,1,70,8|0,0:0|0:0,0:0:0:0:
291,384,141614,6,0,P|277:338|268:299,1,70,0|0,3:1|0:0,0:0:0:0:
246,228,141928,1,10,0:0:0:0:
243,217,142085,1,2,0:1:0:0:
367,139,142242,6,0,P|358:172|347:206,1,70,0|0,1:0|0:0,0:0:0:0:
127,298,142556,2,0,P|135:264|146:230,1,70,8|0,0:0|0:0,0:0:0:0:
227,92,142870,5,2,0:1:0:0:
231,74,143027,1,0,1:0:0:0:
67,114,143184,2,0,P|131:141|177:153,1,105,10|0,0:0|0:0,0:0:0:0:
165,142,143499,6,0,P|139:105|129:64,1,70,2|0,1:0|0:0,0:0:0:0:
293,1,143813,2,0,P|305:33|326:61,1,70,8|0,0:0|0:0,0:0:0:0:
410,94,144127,1,2,0:1:0:0:
410,94,144284,1,0,0:0:0:0:
335,192,144441,6,0,L|342:140,1,35,10|0,0:0|0:0,0:0:0:0:
458,157,144598,2,0,L|499:131,1,35,2|0,0:1|0:0,0:0:0:0:
487,308,144755,5,2,0:1:0:0:
419,237,144912,2,0,B|414:273|394:264|384:327,2,70,0|0|2,0:0|0:0|0:1,0:0:0:0:
301,295,145383,1,2,0:1:0:0:
385,327,145540,1,2,0:1:0:0:
472,357,145698,1,2,0:1:0:0:
512,384,145855,1,0,0:0:0:0:
500,368,146012,5,0,1:0:0:0:
216,384,146326,2,0,P|229:362|238:351,1,38.5000011749268,2|2,0:1|0:1,0:0:0:0:
449,236,146954,5,0,0:0:0:0:
152,114,147268,6,0,L|155:149,1,19.2500005874634,0|0,1:0|0:0,0:0:0:0:
159,99,147425,2,0,L|162:134,1,19.2500005874634,2|0,0:1|0:0,0:0:0:0:
72,384,148054,5,0,1:0:0:0:
14,281,148211,2,0,B|17:292|17:292|87:309,1,77.0000023498536,10|0,0:0|1:0,0:0:0:0:
171,353,148682,5,2,0:1:0:0:
171,353,148839,2,0,L|144:232,1,115.50000352478,8|2,0:0|0:0,0:0:0:0:
408,15,149781,6,0,L|403:59,3,38.5000011749268,0|2|2|2,1:0|0:1|0:1|0:1,0:0:0:0:
322,89,150724,6,0,L|319:82,8,4.81250014686585,0|0|0|0|0|0|0|0|2,0:0|0:0|0:0|0:0|0:0|0:0|0:0|0:0|0:1,0:0:0:0:
512,338,151038,6,0,P|451:336|441:380,1,115.50000352478,0|2,1:0|0:1,0:0:0:0:
365,333,151823,1,0,0:0:0:0:
440,379,152294,6,0,P|459:329|512:338,1,115.50000352478,0|2,1:0|0:1,0:0:0:0:
365,333,153080,1,0,0:0:0:0:
100,342,153551,6,0,L|109:389,3,38.5000011749268,0|2|2|0,1:0|0:1|0:1|0:0,0:0:0:0:
141,271,154336,1,2,0:1:0:0:
84,37,154807,6,0,L|90:89,1,38.5000011749268,0|2,1:0|0:0,0:0:0:0:
91,93,155043,1,2,0:0:0:0:
94,110,155122,1,0,0:0:0:0:
211,151,155279,2,0,L|218:127,2,19.2500005874634,2|2|0,0:0|0:0|0:0,0:0:0:0:
178,189,155514,1,2,0:0:0:0:
160,193,155593,1,2,0:0:0:0:
145,198,155671,1,2,0:0:0:0:
133,203,155750,2,0,L|105:211,3,19.2500005874634,2|2|2|2,0:0|0:0|0:0|0:0,0:0:0:0:
97,214,156064,5,0,1:0:0:0:
220,384,156378,1,8,0:0:0:0:
199,270,156692,5,0,0:0:0:0:
389,355,157006,1,8,0:0:0:0:
305,263,157321,5,0,0:0:0:0:
512,241,157635,1,8,0:0:0:0:
334,148,157949,6,0,P|317:93|309:56,1,70
431,166,158263,1,8,0:0:0:0:
431,166,158420,1,0,3:0:0:0:
211,134,158577,2,0,P|230:54|256:-21,1,140,0|8,3:0|0:0,0:0:0:0:
268,196,159205,1,0,0:0:0:0:
0,309,159520,6,0,P|6:251|55:242,1,105,8|0,0:0|0:0,0:0:0:0:
104,143,159834,2,0,P|128:225|158:298,2,140,0|8|0,0:0|0:0|0:0,0:0:0:0:
104,143,160776,1,8,0:0:0:0:
512,0,161090,6,0,B|473:8|473:8|447:52|447:52|382:65,1,140,0|8,1:0|0:0,0:0:0:0:
294,82,161561,1,0,0:0:0:0:
303,59,161718,2,0,P|273:69|310:63,1,140,0|8,0:0|0:0,0:0:0:0:
67,282,162347,6,0,B|106:290|106:290|132:334|132:334|197:347,1,140,0|8,0:0|0:0,0:0:0:0:
292,346,162818,1,0,0:0:0:0:
283,323,162975,2,0,P|313:333|276:327,1,140,0|8,0:0|0:0,0:0:0:0:
260,132,163603,6,0,B|264:196|220:214|227:279,2,140,0|8|0,3:0|0:0|0:0,0:0:0:0:
260,132,164546,1,8,0:0:0:0:
170,0,164860,6,0,B|158:23|153:55|153:55|164:34|177:10,1,105.000004005432,0|0,1:0|0:0,0:0:0:0:
342,0,165174,2,0,B|354:23|359:55|359:55|348:34|335:10,1,105.000004005432,0|0,1:0|0:0,0:0:0:0:
117,132,165488,6,0,B|94:120|62:115|62:115|83:126|107:139,1,105.000004005432,0|0,1:0|0:0,0:0:0:0:
395,132,165802,2,0,B|418:120|450:115|450:115|429:126|405:139,1,105.000004005432,0|0,1:0|0:0,0:0:0:0:
246,201,166116,6,0,P|262:271|268:303,1,83.9999974365235,4|2,1:0|0:0,0:0:0:0:
476,378,166431,2,0,P|484:336|494:296,1,83.9999974365235,8|2,1:2|0:0,0:0:0:0:
383,261,166745,1,0,1:0:0:0:
378,248,166902,1,2,0:0:0:0:
265,374,167059,2,0,P|190:344|180:285,1,125.999996154785,8|0,1:2|0:0,0:0:0:0:
126,248,167373,6,0,P|84:268|42:274,1,83.9999974365235,0|2,1:0|0:0,0:0:0:0:
213,119,167687,2,0,P|175:137|134:144,1,83.9999974365235,8|2,1:2|0:0,0:0:0:0:
318,178,168001,1,0,1:0:0:0:
324,167,168158,1,2,0:0:0:0:
266,25,168315,5,8,1:2:0:0:
345,78,168472,1,2,0:0:0:0:
472,17,168629,6,0,P|509:5|539:-1,1,41.9999987182618,0|0,1:0|0:0,0:0:0:0:
431,86,168787,1,2,0:0:0:0:
471,180,168944,6,0,P|509:188|538:197,1,41.9999987182618,8|0,1:2|0:0,0:0:0:0:
400,219,169101,1,2,0:0:0:0:
384,321,169258,6,0,P|412:347|433:370,1,41.9999987182618,0|0,1:0|0:0,0:0:0:0:
303,319,169415,1,0,0:0:0:0:
195,382,169572,2,0,B|176:329|149:346|143:271,1,125.999996154785,8|2,1:2|0:0,0:0:0:0:
209,233,169886,5,0,1:0:0:0:
248,139,170043,1,0,0:0:0:0:
155,96,170200,2,0,P|115:109|76:126,1,83.9999974365235,8|0,1:2|0:0,0:0:0:0:
188,0,170514,2,0,P|265:39|333:49,1,125.999996154785,0|0,1:0|0:0,0:0:0:0:
379,0,170828,6,0,P|392:65|409:111,1,83.9999974365235,8|0,1:2|0:0,0:0:0:0:
512,127,171143,1,4,1:0:0:0:
283,373,171928,5,0,1:0:0:0:
366,347,172085,2,0,B|356:283|310:278|292:224,1,125.999996154785,10|0,0:0|0:0,0:0:0:0:
276,226,172399,5,0,1:0:0:0:
300,145,172556,1,0,0:0:0:0:
224,101,172713,1,0,0:0:0:0:
188,182,172870,1,2,0:1:0:0:
14,8,173184,5,0,1:0:0:0:
76,53,173342,2,0,P|63:100|33:182,1,125.999996154785,10|2,0:0|0:0,0:0:0:0:
0,259,173656,6,0,P|82:278|143:359,2,167.999994873047,0|2|2,1:2|0:1|0:1,0:0:0:0:
149,226,174441,1,0,1:0:0:0:
222,316,174598,2,0,P|239:242|266:181,1,125.999996154785,10|0,0:0|0:0,0:0:0:0:
346,160,174912,6,0,B|287:130|302:55|219:36,1,167.999994873047,0|0,1:0|0:0,0:0:0:0:
230,48,175383,1,0,0:0:0:0:
356,33,175540,6,0,B|420:18|411:8|346:23,1,83.9999974365235,2|0,0:1|1:0,0:0:0:0:
427,105,175855,1,8,0:0:0:0:
358,155,176012,1,0,0:0:0:0:
490,289,176169,6,0,P|480:226|457:189,1,83.9999974365235,4|2,1:0|0:0,0:0:0:0:
287,235,176483,2,0,P|235:197|192:187,1,83.9999974365235,8|2,1:2|0:0,0:0:0:0:
384,312,176797,1,0,1:0:0:0:
375,332,176954,1,2,0:0:0:0:
244,384,177111,2,0,P|186:349|156:262,1,125.999996154785,10|0,1:2|0:0,0:0:0:0:
81,301,177425,6,0,P|75:240|80:194,1,83.9999974365235,0|2,1:0|0:0,0:0:0:0:
196,111,177739,2,0,P|222:66|254:36,1,83.9999974365235,8|2,1:2|0:0,0:0:0:0:
102,128,178054,1,0,1:0:0:0:
89,112,178211,1,2,0:0:0:0:
6,0,178368,2,0,P|-22:-10|5:4,1,83.9999974365235,10|2,1:2|0:0,0:0:0:0:
99,28,178682,6,0,P|123:30|156:39,1,41.9999987182618,0|0,1:0|0:0,0:0:0:0:
191,92,178839,1,0,0:0:0:0:
414,113,178996,6,0,P|390:115|357:124,1,41.9999987182618,8|0,1:2|0:0,0:0:0:0:
322,177,179153,1,0,0:0:0:0:
138,207,179310,6,0,P|162:209|195:218,1,41.9999987182618,0|0,1:0|0:0,0:0:0:0:
230,271,179467,1,0,0:0:0:0:
399,319,179624,6,0,P|375:321|342:330,1,41.9999987182618,10|0,1:2|0:0,0:0:0:0:
307,383,179781,1,0,0:0:0:0:
135,381,179938,6,0,P|52:337|-9:321,1,125.999996154785,0|0,1:0|0:0,0:0:0:0:
3,294,180252,5,8,0:0:0:0:
105,226,180410,1,2,0:1:0:0:
22,151,180567,1,2,0:1:0:0:
6,73,180724,1,0,1:0:0:0:
100,80,180881,6,0,B|159:58|129:42|201:22,1,94.499997116089,10|0,0:0|0:0,0:0:0:0:
208,0,181195,5,0,1:0:0:0:
226,6,181352,1,0,1:0:0:0:
244,12,181509,1,0,1:0:0:0:
263,18,181666,1,0,1:0:0:0:
446,0,182137,5,10,0:0:0:0:
208,0,182451,5,0,1:0:0:0:
226,6,182609,1,0,1:0:0:0:
244,12,182766,1,0,1:0:0:0:
263,18,182923,1,0,1:0:0:0:
446,0,183394,5,10,0:0:0:0:
208,0,183708,5,0,1:0:0:0:
226,6,183865,1,0,1:0:0:0:
244,12,184022,1,0,1:0:0:0:
263,18,184179,1,0,1:1:0:0:
446,0,184650,5,10,0:0:0:0:
413,384,184965,6,0,P|461:374|489:300,1,125.999996154785,0|0,1:0|0:0,0:0:0:0:
414,275,185436,2,0,B|365:302|335:288|293:308,1,125.999996154785,0|0,1:0|0:0,0:0:0:0:
212,297,185907,6,0,L|216:274,12,17.5,0|0|0|0|0|0|0|0|0|0|0|0|0,1:0|0:0|0:0|0:0|0:0|0:0|0:0|0:0|0:0|0:0|0:0|0:0|0:0,0:0:0:0:
281,384,186221,6,0,P|261:288|234:175,1,210.000008010865,2|0,0:1|0:0,0:0:0:0:
271,108,187163,1,0,0:0:0:0:
191,8,187478,6,0,P|204:40|211:-2,1,105.000004005432,2|0,0:1|0:0,0:0:0:0:
0,127,188734,6,0,B|19:212|73:164|121:215|123:279,1,210.000008010865,2|0,0:1|0:0,0:0:0:0:
19,349,189677,2,0,P|29:316|41:292,1,52.5000020027161
74,154,189991,2,0,P|51:196|-12:213,2,105.000004005432,2|0|2,0:1|0:0|0:1,0:0:0:0:
512,384,191247,6,0,P|467:320|337:312,1,210.000008010865,2|0,0:1|0:0,0:0:0:0:
284,366,192190,1,0,0:0:0:0:
173,254,192504,6,0,P|162:216|151:192,1,52.5000020027161,0|0,1:0|0:0,0:0:0:0:
254,275,192818,1,8,0:0:0:0:
102,375,193132,5,0,0:0:0:0:
80,292,193289,1,0,1:0:0:0:
166,322,193446,2,0,L|177:264,1,52.5000020027161,10|0,0:0|0:0,0:0:0:0:
202,135,193760,1,2,0:1:0:0:
505,12,194389,6,0,L|513:-5,1,13.125000500679,2|0,0:1|0:0,0:0:0:0:
210,0,195017,6,0,P|224:37|259:52,2,78.7500030040742,4|0|0,1:3|0:0|0:0,0:0:0:0:
345,64,195645,6,0,P|230:92|142:111,1,183.750007009506
132,101,196273,5,4,1:0:0:0:
70,14,196431,1,0,1:0:0:0:
25,108,196588,2,0,P|38:172|59:251,1,125.999996154785,8|0,0:0|0:0,0:0:0:0:
98,293,196902,6,0,P|149:252|145:220,1,83.9999974365235,2|0,0:1|1:0,0:0:0:0:
317,197,197216,2,0,P|372:181|426:174,1,83.9999974365235,8|0,0:0|0:0,0:0:0:0:
249,133,197530,2,0,P|237:178|238:278,1,125.999996154785,0|0,1:0|0:0,0:0:0:0:
263,288,197844,1,8,0:0:0:0:
329,383,198001,6,0,B|400:357|353:323|442:299,1,125.999996154785,2|0,0:1|0:0,0:0:0:0:
457,312,198315,1,0,1:0:0:0:
512,236,198472,2,0,P|501:182|491:128,1,83.9999974365235,8|0,0:0|0:0,0:0:0:0:
449,0,198787,5,0,1:0:0:0:
502,71,198944,1,0,1:0:0:0:
422,142,199101,2,0,P|352:82|360:12,1,167.999994873047,8|0,0:0|0:0,0:0:0:0:
266,86,199572,1,0,1:0:0:0:
200,28,199729,2,0,P|149:36|80:48,1,83.9999974365235,8|0,0:0|0:0,0:0:0:0:
0,226,200043,6,0,P|94:193|82:101,1,167.999994873047,10|0,1:2|0:0,0:0:0:0:
101,135,200671,2,0,P|199:144|209:222,1,167.999994873047,10|0,1:2|0:0,0:0:0:0:
367,384,201300,6,0,P|374:342|382:288,1,83.9999974365235,0|0,1:2|0:0,0:0:0:0:
459,250,201614,1,8,0:0:0:0:
314,234,201771,2,0,P|300:179|278:93,1,125.999996154785,2|0,0:1|0:0,0:0:0:0:
293,84,202085,1,0,1:0:0:0:
390,144,202242,2,0,P|431:144|462:117,1,83.9999974365235,8|0,0:0|0:0,0:0:0:0:
376,39,202556,6,0,P|293:3|224:5,1,125.999996154785,0|0,1:0|0:0,0:0:0:0:
239,16,202870,1,8,0:0:0:0:
113,0,203027,2,0,P|131:34|150:77,1,83.9999974365235,2|0,0:1|0:0,0:0:0:0:
235,112,203342,1,0,1:0:0:0:
125,172,203499,2,0,P|211:209|241:265,1,125.999996154785,8|0,0:0|0:0,0:0:0:0:
251,244,203813,5,0,1:0:0:0:
346,202,203970,2,0,B|410:218|391:247|463:266,1,125.999996154785,2|0,1:1|0:0,0:0:0:0:
482,259,204284,2,0,P|493:220|507:166,1,83.9999974365235,2|0,1:1|0:0,0:0:0:0:
460,93,204598,1,0,1:0:0:0:
376,119,204755,2,0,P|302:92|308:25,1,125.999996154785,8|0,0:0|0:0,0:0:0:0:
359,9,205069,5,4,1:1:0:0:
129,69,205697,5,0,1:0:0:0:
27,36,206326,5,2,0:1:0:0:
106,73,206640,1,0,0:0:0:0:
150,156,206954,1,0,0:0:0:0:
143,236,207268,1,0,0:0:0:0:
63,259,207582,6,0,P|69:216|114:154,2,105.000004005432,2|0|0,0:1|0:0|0:0,0:0:0:0:
480,364,208682,1,2,0:1:0:0:
475,353,208760,1,2,0:1:0:0:
464,340,208839,6,0,P|411:328|354:326,1,105.000004005432,2|0,0:1|0:0,0:0:0:0:
237,308,209467,2,0,P|261:368|306:383,1,105.000004005432,2|0,0:1|0:0,0:0:0:0:
223,384,210095,6,0,P|287:365|284:242,1,210.000008010865,2|0,0:1|0:0,0:0:0:0:
488,206,211038,1,0,0:0:0:0:
350,197,211352,6,0,B|354:228|367:230|373:267,3,52.5000020027161,2|0|0|0,0:1|0:0|0:0|0:0,0:0:0:0:
421,167,211980,2,0,B|422:151|435:149|439:118,3,52.5000020027161
340,101,212609,6,0,B|307:31|350:49|326:-10,2,105.000004005432,2|0|0,0:1|0:0|0:0,0:0:0:0:
243,198,213551,1,0,0:0:0:0:
180,146,213708,5,2,0:1:0:0:
170,135,213787,1,2,0:1:0:0:
159,125,213865,2,0,P|163:71|223:48,1,105.000004005432,2|0,0:1|0:0,0:0:0:0:
208,53,214493,6,0,P|151:48|123:-4,1,105.000004005432,2|0,0:1|0:0,0:0:0:0:
133,11,215122,6,0,P|122:46|54:78,1,105.000004005432,2|0,0:1|0:1,0:0:0:0:
42,85,215750,5,2,0:1:0:0:
174,196,216064,1,2,0:1:0:0:
102,246,216221,5,2,0:1:0:0:
103,256,216300,1,2,0:1:0:0:
97,268,216378,1,2,0:1:0:0:
0,316,216692,1,0,0:0:0:0:
80,355,217006,1,0,0:0:0:0:
50,384,217321,1,2,0:1:0:0:
63,380,217635,6,0,B|53:336|81:332|63:266,2,105.000004005432,2|0|2,0:1|0:0|0:1,0:0:0:0:
146,281,218577,1,0,0:0:0:0:
253,384,218734,5,0,0:0:0:0:
241,382,218813,1,0,0:0:0:0:
232,377,218891,2,0,P|228:327|275:289,1,105.000004005432,2|0,0:1|0:0,0:0:0:0:
403,261,219520,2,0,P|385:311|329:317,1,105.000004005432,2|0,0:1|0:0,0:0:0:0:
507,383,220148,6,0,P|470:362|391:352,2,105.000004005432,2|0|0,0:1|0:0|0:1,0:0:0:0:
396,256,221090,1,2,0:1:0:0:
97,268,221404,5,2,0:1:0:0:
0,316,221718,1,0,0:0:0:0:
80,355,222032,1,0,0:0:0:0:
50,384,222347,1,2,0:1:0:0:
63,380,222661,6,0,B|53:336|81:332|63:266,2,105.000004005432,2|0|2,0:1|0:0|0:1,0:0:0:0:
146,281,223603,1,0,0:0:0:0:
253,384,223760,5,0,0:0:0:0:
241,382,223839,1,0,0:0:0:0:
232,377,223917,2,0,P|228:327|275:289,1,105.000004005432,2|0,0:1|0:0,0:0:0:0:
403,261,224546,2,0,P|385:311|329:317,1,105.000004005432,2|0,0:1|0:0,0:0:0:0:
507,383,225174,6,0,P|470:362|391:352,2,105.000004005432,2|0|0,0:1|0:0|0:1,0:0:0:0:
396,256,226116,1,2,0:1:0:0:
97,268,226431,5,2,0:1:0:0:
0,316,226745,1,0,0:0:0:0:
80,355,227059,1,0,0:0:0:0:
50,384,227374,1,2,0:1:0:0:
63,380,227688,6,0,B|53:336|81:332|63:266,2,105.000004005432,2|0|2,0:1|0:0|0:1,0:0:0:0:
146,281,228630,1,0,0:0:0:0:
253,384,228787,5,0,0:0:0:0:
241,382,228866,1,0,0:0:0:0:
232,377,228944,2,0,P|228:327|275:289,1,105.000004005432,2|0,0:1|0:0,0:0:0:0:
403,261,229573,2,0,P|385:311|329:317,1,105.000004005432,2|0,0:1|0:0,0:0:0:0:
507,383,230201,6,0,P|470:362|391:352,2,105.000004005432,2|0|0,0:1|0:0|0:0,0:0:0:0:
396,256,231143,1,2,0:1:0:0:
299,338,231457,6,0,P|297:355|295:373,7,35,0|2|0|2|0|2|0|2,0:0|0:1|0:0|0:1|0:0|0:1|0:0|0:1,0:0:0:0:
298,325,232713,6,0,P|257:329|218:342,1,70,0|2,0:0|0:1,0:0:0:0:
223,344,233970,5,2,0:1:0:0:
207,356,234284,5,0,0:1:0:0:
171,377,234598,5,2,0:1:0:0:
95,384,234912,5,0,0:1:0:0:
30,337,235226,5,2,0:1:0:0:
16,242,235540,5,2,0:1:0:0:
131,183,235855,5,2,0:1:0:0:
109,36,236169,5,2,0:1:0:0:
304,0,236483,6,0,P|405:46|437:127,1,188.999994232178,4|0,1:3|0:0,0:0:0:0:
355,149,237111,5,2,0:0:0:0:
375,48,237268,1,2,0:0:0:0:
441,21,237425,1,2,0:0:0:0:
494,17,237582,1,0,0:0:0:0:
485,186,237739,6,0,P|435:240|310:257,1,188.999994232178,2|0,0:0|0:0,0:0:0:0:
334,384,238368,5,2,0:0:0:0:
265,324,238525,1,2,0:0:0:0:
188,285,238682,1,2,0:0:0:0:
138,278,238839,1,0,0:0:0:0:
58,384,238996,6,0,P|40:323|11:261,1,125.999996154785,2|2,0:0|0:0,0:0:0:0:
232,86,239624,2,0,P|214:146|187:203,1,125.999996154785,2|2,0:0|0:0,0:0:0:0:
331,384,240252,6,0,P|393:361|391:308,1,125.999996154785,2|0,0:0|0:0,0:0:0:0:
448,248,240724,1,0,0:0:0:0:
383,186,240881,2,0,P|341:204|308:217,2,62.9999980773926,2|2|2,0:0|0:0|0:0,0:0:0:0:
511,70,241509,6,0,P|423:80|387:0,1,188.999994232178,4|0,1:3|0:0,0:0:0:0:
304,50,242137,1,2,0:0:0:0:
288,138,242294,1,2,0:0:0:0:
365,175,242451,1,2,0:0:0:0:
387,0,242766,6,0,P|423:80|511:70,1,188.999994232178,8|0,0:0|0:0,0:0:0:0:
365,175,243394,1,2,0:0:0:0:
288,138,243551,1,2,0:0:0:0:
304,50,243708,1,2,0:0:0:0:
228,15,243865,1,2,0:0:0:0:
0,38,244022,6,0,B|52:59|43:115|43:115|54:145|102:149,1,157.500006008148,4|0,1:3|0:0,0:0:0:0:
152,203,244336,2,0,B|128:184|128:184|129:142|189:127,1,105.000004005432,4|0,1:3|0:0,0:0:0:0:
313,370,244650,6,0,B|306:350|312:314|312:314|246:288|208:358,1,157.500006008148,4|0,1:3|0:0,0:0:0:0:
218,367,244965,1,4,1:3:0:0:
138,341,245122,1,2,0:0:0:0:
31,380,245279,6,0,P|55:316|73:258,1,90.9999958343508,4|0,1:3|1:0,0:0:0:0:
196,247,245593,2,0,P|187:203|174:159,1,90.9999958343508,0|0,1:0|1:0,0:0:0:0:
165,155,245828,1,0,0:0:0:0:
155,152,245907,2,0,P|141:144|104:137,1,45.4999979171754,0|0,1:0|0:0,0:0:0:0:
242,73,246064,2,0,P|233:55|207:27,1,45.4999979171754,0|0,1:0|0:0,0:0:0:0:
357,60,246221,2,0,P|367:34|372:3,3,45.4999979171754,0|0|0|0,1:0|1:0|1:0|1:0,0:0:0:0:
463,56,246535,6,0,B|427:44|289:133|322:220,1,210.000008010865,4|8,1:0|0:0,0:0:0:0:
414,194,247006,1,0,0:0:0:0:
301,270,247163,2,0,P|247:258|233:204,1,105.000004005432,2|0,0:0|1:2,0:0:0:0:
296,378,247478,2,0,P|315:309|411:326,1,157.500006008148,10|0,0:0|0:0,0:0:0:0:
442,384,247792,6,0,B|416:276|465:276|411:166,1,210.000008010865,2|8,1:2|0:0,0:0:0:0:
336,169,248263,1,0,0:0:0:0:
457,56,248420,6,0,P|481:37|508:34,1,52.5000020027161,2|0,0:0|0:0,0:0:0:0:
474,127,248577,2,0,P|416:83|360:62,1,105.000004005432,2|8,1:2|0:0,0:0:0:0:
214,47,248891,1,2,0:0:0:0:
331,0,249048,6,0,P|310:61|292:116,1,105.000004005432,2|0,1:2|0:0,0:0:0:0:
155,117,249362,2,0,P|186:207|217:311,1,157.500006008148,10|0,0:2|0:0,0:0:0:0:
197,283,249677,1,2,0:2:0:0:
303,193,249834,1,0,0:0:0:0:
383,342,249991,2,0,B|344:325|363:309|295:271,1,105.000004005432,10|0,0:2|0:0,0:0:0:0:
168,366,250305,6,0,P|90:355|94:280,1,157.500006008148,2|0,1:2|0:0,0:0:0:0:
101,292,250619,1,8,0:0:0:0:
0,359,250776,1,0,0:0:0:0:
133,211,250933,1,2,0:2:0:0:
131,193,251090,1,2,1:2:0:0:
199,301,251247,2,0,P|211:249|233:181,1,105.000004005432,10|0,0:2|0:0,0:0:0:0:
27,210,251561,6,0,B|-9:100|25:72|-7:-17,1,210.000008010865,2|8,1:2|0:0,0:0:0:0:
64,89,252033,1,2,0:0:0:0:
142,37,252190,2,0,P|191:42|217:0,1,105.000004005432,2|0,0:0|1:0,0:0:0:0:
144,166,252504,2,0,P|206:137|309:126,1,157.500006008148,8|0,0:0|0:0,0:0:0:0:
318,109,252818,6,0,P|362:142|422:149,1,105.000004005432,2|0,1:2|0:0,0:0:0:0:
249,209,253132,2,0,P|285:300|334:358,1,157.500006008148,8|0,0:0|0:0,0:0:0:0:
333,349,253446,5,2,0:2:0:0:
509,293,253603,1,2,1:2:0:0:
384,277,253760,1,10,0:2:0:0:
481,384,253917,1,0,0:0:0:0:
418,204,254074,6,0,P|397:144|384:83,1,105.000004005432,2|0,1:2|0:0,0:0:0:0:
512,73,254389,2,0,B|442:53|467:28|369:10,1,157.500006008148,8|0,0:0|0:0,0:0:0:0:
351,20,254703,1,0,0:0:0:0:
267,152,254860,2,0,P|269:135|274:87,1,52.5000020027161,2|0,1:2|0:0,0:0:0:0:
225,6,255017,1,10,0:2:0:0:
360,120,255174,1,2,0:0:0:0:
177,89,255331,2,0,P|125:75|128:10,1,105.000004005432,0|0,1:0|0:0,0:0:0:0:
183,202,255645,6,0,P|111:223|28:287,1,157.500006008148,8|0,0:0|0:0,0:0:0:0:
33,264,255959,1,2,0:2:0:0:
117,382,256116,1,2,1:2:0:0:
214,304,256273,1,10,0:2:0:0:
318,322,256431,2,0,B|336:320|328:298|375:284,1,52.5000020027161,2|0,0:2|0:0,0:0:0:0:
372,384,256588,6,0,P|343:312|299:177,1,210.000008010865,4|8,1:0|0:0,0:0:0:0:
443,205,257059,1,0,0:0:0:0:
434,87,257216,2,0,P|378:109|391:168,1,105.000004005432,2|0,0:0|1:0,0:0:0:0:
233,232,257530,2,0,P|156:177|176:91,1,157.500006008148,10|0,0:2|0:0,0:0:0:0:
248,114,257844,6,0,B|168:95|167:40|53:21,1,210.000008010865,2|8,1:2|0:0,0:0:0:0:
157,22,258315,1,0,0:0:0:0:
48,109,258472,2,0,P|24:120|7:140,1,52.5000020027161,2|0,0:2|0:0,0:0:0:0:
120,140,258629,2,0,P|28:101|10:59,1,105.000004005432,2|8,1:2|0:2,0:0:0:0:
159,222,258944,1,2,0:0:0:0:
76,281,259101,6,0,P|92:356|100:400,1,105.000004005432,2|0,1:2|0:0,0:0:0:0:
323,307,259415,2,0,P|313:255|301:204,1,105.000004005432,10|0,0:2|0:0,0:0:0:0:
89,273,259729,6,0,P|105:348|113:392,1,105.000004005432,2|0,0:2|1:0,0:0:0:0:
336,299,260043,2,0,P|326:247|314:196,1,105.000004005432,10|0,0:2|0:0,0:0:0:0:
147,177,260357,6,0,P|190:226|241:213,2,105.000004005432,2|0|8,1:2|0:0|0:0,0:0:0:0:
262,137,260828,1,0,0:0:0:0:
135,77,260985,6,0,P|112:60|93:30,1,52.5000020027161,2|0,0:0|0:0,0:0:0:0:
230,50,261143,2,0,P|238:22|251:-5,1,52.5000020027161,2|0,1:2|0:0,0:0:0:0:
324,67,261300,2,0,P|400:50|480:112,1,157.500006008148,10|0,0:2|0:0,0:0:0:0:
503,0,261614,6,0,P|416:28|392:162,1,210.000008010865,2|8,1:2|0:0,0:0:0:0:
381,133,262085,1,2,0:0:0:0:
512,248,262242,2,0,P|489:230|404:213,1,105.000004005432,2|0,0:2|1:2,0:0:0:0:
361,384,262556,2,0,B|334:330|373:312|325:222,1,157.500006008148,8|0,0:0|0:0,0:0:0:0:
307,219,262870,6,0,P|240:196|258:150,1,105.000004005432,2|0,1:2|0:0,0:0:0:0:
321,25,263184,2,0,P|285:81|200:71,1,157.500006008148,8|0,0:0|0:0,0:0:0:0:
193,65,263499,6,0,P|187:37|175:9,1,52.5000020027161,2|0,0:0|0:0,0:0:0:0:
100,9,263656,1,2,1:2:0:0:
79,82,263813,1,10,0:2:0:0:
145,138,263970,1,0,0:0:0:0:
89,231,264127,6,0,P|32:225|-4:187,2,105.000004005432,2|0|8,1:2|0:0|0:0,0:0:0:0:
190,347,264598,1,2,0:0:0:0:
101,319,264755,6,0,P|50:334|0:348,1,105.000004005432,2|0,0:0|1:2,0:0:0:0:
197,246,265069,1,10,0:2:0:0:
280,354,265226,1,2,0:0:0:0:
315,235,265383,5,8,0:0:0:0:
301,221,265540,1,0,1:0:0:0:
238,89,265698,6,0,P|212:84|187:77,1,52.5000020027161,8|0,0:0|0:0,0:0:0:0:
124,117,265855,1,0,1:0:0:0:
335,0,266012,6,0,P|340:26|347:51,1,52.5000020027161,8|0,0:0|0:0,0:0:0:0:
445,15,266169,2,0,P|440:41|433:66,1,52.5000020027161,8|0,0:0|0:0,0:0:0:0:
499,171,266326,2,0,P|466:163|375:142,1,105.000004005432,8|0,0:0|1:0,0:0:0:0:
310,126,266561,1,0,1:0:0:0:
321,120,266640,6,0,P|381:165|379:243,1,157.500006008148,4|0,1:0|0:0,0:0:0:0:
379,271,266954,2,0,P|289:252|286:200,1,157.500006008148,8|2,0:0|0:0,0:0:0:0:
299,199,267268,5,2,0:0:0:0:
189,236,267425,1,2,1:0:0:0:
112,161,267582,6,0,P|117:100|148:51,1,105.000004005432,8|0,0:0|0:0,0:0:0:0:
179,258,267896,2,0,P|75:283|48:335,1,157.500006008148,0|0,1:0|0:0,0:0:0:0:
39,336,268211,6,0,P|19:313|7:269,1,52.5000020027161,8|0,0:0|0:0,0:0:0:0:
42,216,268368,1,2,0:0:0:0:
153,353,268525,1,0,0:0:0:0:
231,298,268682,1,2,1:2:0:0:
237,312,268760,1,0,0:0:0:0:
230,321,268839,6,0,P|162:301|151:213,1,157.500006008148,8|0,0:0|0:0,0:0:0:0:
166,215,269153,6,0,B|184:184|236:167|236:167|240:125,1,105.000004005432,0|2,1:0|0:0,0:0:0:0:
270,20,269467,2,0,B|264:55|316:88|318:132,1,105.000004005432,8|0,0:0|0:0,0:0:0:0:
325,113,269703,1,2,0:0:0:0:
338,108,269781,1,0,0:0:0:0:
372,195,269938,1,0,1:0:0:0:
228,141,270095,2,0,P|157:121|105:106,1,105.000004005432,8|2,0:0|0:2,0:0:0:0:
10,1,270410,6,0,B|22:47|22:47|42:62|42:62|48:93,2,105.000004005432,0|0|8,1:0|0:0|0:0,0:0:0:0:
135,92,270881,1,2,0:0:0:0:
20,213,271038,6,0,P|13:198|4:155,1,52.5000020027161,2|0,0:0|0:0,0:0:0:0:
100,182,271195,2,0,P|104:152|119:129,1,52.5000020027161,2|0,1:2|0:0,0:0:0:0:
177,233,271352,2,0,P|225:186|317:225,1,157.500006008148,8|8,0:0|0:0,0:0:0:0:
319,227,271666,6,0,B|205:246|275:297|141:351,1,210.000008010865,4|8,1:0|0:0,0:0:0:0:
163,250,272137,1,2,0:0:0:0:
82,384,272294,2,0,P|77:350|66:324,1,52.5000020027161,2|0,0:0|0:0,0:0:0:0:
15,270,272451,1,0,1:0:0:0:
174,349,272609,2,0,P|229:329|300:324,1,105.000004005432,8|0,0:0|0:0,0:0:0:0:
256,229,272923,6,0,P|366:252|424:270,1,157.500006008148,2|2,1:2|0:0,0:0:0:0:
421,281,273237,1,8,0:0:0:0:
488,214,273394,1,0,3:0:0:0:
349,125,273551,1,2,0:0:0:0:
512,45,273708,2,0,P|497:79|484:116,1,52.5000020027161,0|0,1:0|0:0,0:0:0:0:
480,204,273865,2,0,L|453:159,1,52.5000020027161,8|0,0:0|0:0,0:0:0:0:
358,110,274022,2,0,L|415:92,1,52.5000020027161,0|0,3:0|0:0,0:0:0:0:
492,118,274179,6,0,B|407:88|453:40|355:17,1,157.500006008148,0|0,1:0|0:0,0:0:0:0:
350,18,274493,2,0,P|324:20|290:28,1,52.5000020027161,10|0,0:0|0:0,0:0:0:0:
206,0,274650,2,0,P|216:25|227:59,1,52.5000020027161,2|0,3:2|0:0,0:0:0:0:
303,111,274807,6,0,P|236:146|228:200,1,105.000004005432,0|2,3:0|0:2,0:0:0:0:
235,179,275043,1,2,0:0:0:0:
247,182,275122,1,8,0:0:0:0:
155,113,275279,1,10,0:2:0:0:
35,152,275436,6,0,P|7:92|41:43,1,105.000004005432,0|0,1:0|3:0,0:0:0:0:
108,219,275750,2,0,P|156:191|210:190,1,105.000004005432,8|0,0:0|1:0,0:0:0:0:
305,261,276064,5,8,0:0:0:0:
267,356,276221,1,8,0:0:0:0:
178,280,276378,1,8,0:0:0:0:
223,204,276535,1,8,0:0:0:0:
238,213,276614,1,8,0:0:0:0:
240,225,276692,6,0,P|206:276|166:385,1,157.500006008148,4|2,1:0|0:0,0:0:0:0:
156,376,277006,2,0,P|99:361|96:311,1,105.000004005432,8|0,0:0|0:0,0:0:0:0:
103,315,277321,5,2,0:0:0:0:
11,240,277478,1,0,1:0:0:0:
157,199,277635,2,0,B|98:174|98:140|30:125,1,105.000004005432,8|0,0:0|0:0,0:0:0:0:
217,298,277949,6,0,P|249:211|298:151,1,157.500006008148,0|0,1:0|0:0,0:0:0:0:
303,154,278263,2,0,P|337:147|362:143,1,52.5000020027161,10|0,0:0|0:0,0:0:0:0:
448,160,278420,1,2,0:0:0:0:
338,42,278577,1,2,0:0:0:0:
442,24,278734,1,0,1:0:0:0:
452,17,278813,1,2,0:0:0:0:
454,0,278891,2,0,B|479:52|422:60|462:168,1,157.500006008148,8|0,0:0|0:0,0:0:0:0:
495,238,279205,6,0,P|454:207|407:224,1,105.000004005432,0|2,1:0|0:0,0:0:0:0:
283,359,279520,2,0,P|323:328|370:345,1,105.000004005432,8|0,0:0|0:0,0:0:0:0:
391,353,279755,1,2,0:0:0:0:
406,344,279834,1,2,0:0:0:0:
409,236,279991,1,0,1:0:0:0:
300,249,280148,2,0,P|243:232|179:208,1,105.000004005432,8|0,0:0|0:0,0:0:0:0:
109,293,280462,6,0,B|121:335|154:347|172:421,2,105.000004005432,0|2|8,1:0|0:0|0:0,0:0:0:0:
32,265,280933,1,0,0:0:0:0:
181,208,281090,6,0,P|192:185|201:153,1,52.5000020027161,2|0,3:2|0:0,0:0:0:0:
113,152,281247,2,0,P|105:127|82:94,1,52.5000020027161,0|0,1:0|0:0,0:0:0:0:
4,141,281404,2,0,P|-17:164|12:143,1,105.000004005432,10|2,0:0|0:0,0:0:0:0:
120,283,281718,6,0,P|142:157|176:52,1,210.000008010865,4|8,1:0|0:0,0:0:0:0:
174,73,282190,1,2,0:0:0:0:
329,66,282347,2,0,P|321:48|292:16,1,52.5000020027161,2|0,0:0|0:0,0:0:0:0:
220,0,282504,1,0,1:0:0:0:
254,121,282661,2,0,P|292:158|358:155,1,105.000004005432,8|2,0:0|0:2,0:0:0:0:
414,267,282975,6,0,B|421:190|486:146|489:105,1,157.500006008148,0|2,1:0|0:0,0:0:0:0:
470,108,283289,1,8,0:0:0:0:
350,139,283446,1,0,0:0:0:0:
378,22,283603,1,2,0:0:0:0:
454,155,283760,6,0,P|441:127|435:84,1,52.5000020027161,0|0,1:0|0:0,0:0:0:0:
314,10,283917,2,0,P|341:26|385:32,1,52.5000020027161,8|0,0:0|0:0,0:0:0:0:
504,13,284074,2,0,P|477:21|434:44,1,52.5000020027161,0|0,3:0|0:0,0:0:0:0:
347,160,284232,6,0,P|273:135|261:96,1,105.000004005432,0|0,1:0|0:0,0:0:0:0:
272,105,284467,1,2,0:0:0:0:
284,102,284546,6,0,P|291:121|289:164,1,52.5000020027161,8|0,0:0|0:0,0:0:0:0:
201,176,284703,2,0,P|180:195|144:212,1,52.5000020027161,2|0,0:0|0:0,0:0:0:0:
98,159,284860,1,2,0:0:0:0:
98,159,284938,1,2,0:0:0:0:
98,159,285017,1,2,1:2:0:0:
18,14,285174,6,0,P|38:52|63:96,1,52.5000020027161,8|0,0:0|0:0,0:0:0:0:
123,22,285331,2,0,P|132:64|132:94,1,52.5000020027161,8|0,0:0|0:0,0:0:0:0:
6,141,285488,6,0,P|1:203|79:235,1,157.500006008148,0|2,1:0|0:0,0:0:0:0:
198,240,285802,5,10,0:0:0:0:
219,250,285881,1,2,0:0:0:0:
231,275,285959,1,2,1:0:0:0:
229,295,286038,1,2,0:0:0:0:
215,313,286116,2,0,L|157:325,3,52.5000020027161,8|0|0|0,0:0|0:0|1:0|0:0,0:0:0:0:
337,382,286431,2,0,L|279:370,3,52.5000020027161,8|8|0|0,0:0|1:2|1:0|1:0,0:0:0:0:
410,342,286745,5,4,1:0:0:0:
354,0,287373,6,0,P|375:49|435:57,1,105.000004005432,2|2,0:0|0:0,0:0:0:0:
497,129,288001,2,0,P|443:105|302:149,1,210.000008010865,2|0,0:0|0:0,0:0:0:0:
64,292,288944,6,0,P|37:276|30:245,1,52.5000020027161,2|0,0:0|0:0,0:0:0:0:
0,384,289258,2,0,B|79:358|49:315|183:268,2,210.000008010865,2|2|2,0:0|0:0|0:0,0:0:0:0:
243,331,290828,6,0,P|254:285|265:265,1,52.5000020027161
146,221,291143,2,0,P|155:245|159:271,2,52.5000020027161
392,381,291771,6,0,P|393:314|515:279,1,210.000008010865,2|2,0:0|0:0,0:0:0:0:
385,179,292713,2,0,P|343:195|322:205,1,52.5000020027161,2|0,0:0|0:0,0:0:0:0:
504,288,293027,6,0,P|434:225|468:112,1,210.000008010865,2|2,0:0|0:0,0:0:0:0:
345,50,293813,2,0,P|361:95|366:111,2,52.5000020027161,2|2|0,0:0|0:0|0:0,0:0:0:0:
97,15,294284,6,0,P|192:51|222:165,1,210.000008010865,2|2,0:0|0:0,0:0:0:0:
81,133,295226,2,0,P|113:120|152:115,1,52.5000020027161,2|0,0:0|0:0,0:0:0:0:
235,149,295540,5,0,1:0:0:0:
157,268,295698,2,0,L|139:226,1,26.2500010013581,8|0,0:1|0:0,0:0:0:0:
173,287,295855,5,0,1:0:0:0:
315,295,296013,2,0,L|287:331,1,26.2500010013581,8|0,0:1|0:0,0:0:0:0:
332,291,296169,5,0,1:0:0:0:
267,164,296327,2,0,L|312:169,1,26.2500010013581,8|0,0:1|0:0,0:0:0:0:
420,185,296483,5,8,0:1:0:0:
