osu file format v14

[General]
AudioFilename: audio.mp3
AudioLeadIn: 0
PreviewTime: 92430
Countdown: 0
SampleSet: Soft
StackLeniency: 0.7
Mode: 0
LetterboxInBreaks: 0
WidescreenStoryboard: 1

[Editor]
DistanceSpacing: 0.2
BeatDivisor: 4
GridSize: 16
TimelineZoom: 2.6

[Metadata]
Title:Utopiosphere -Platonism-
TitleUnicode:Utopiosphere -Platonism-
Artist:Mili
ArtistUnicode:Mili
Creator:celerih
Version:defiance's Insane
Source:Deemo
Tags:thicc bish Sharu Icekalt Nemis defiance osuskrub quanhitter39 Ultima Fox Miracle Milk
BeatmapID:2022377
BeatmapSetID:928652

[Difficulty]
HPDrainRate:6
CircleSize:5
OverallDifficulty:7.6
ApproachRate:8.2
SliderMultiplier:1.3
SliderTickRate:1

[Events]
//Background and Video events
0,0,"Utopiosphere BG.jpg",0,0
//Break Periods
//Storyboard Layer 0 (Background)
//Storyboard Layer 1 (Fail)
//Storyboard Layer 2 (Pass)
//Storyboard Layer 3 (Foreground)
//Storyboard Sound Samples

[TimingPoints]
130,340.909090909091,4,2,0,60,1,0
10698,-71.4285714285714,4,2,0,60,0,0
10953,-100,4,2,0,5,0,0
11039,-100,4,2,0,60,0,0
24675,-133.333333333333,4,2,0,60,0,0
46493,340.909090909091,3,2,0,60,1,0
71038,340.909090909091,4,2,0,60,1,0
71038,-142.857142857143,4,2,0,60,0,0
91492,-66.6666666666667,4,2,0,30,0,0
92515,-50,4,2,0,30,0,0
92770,-55.5555555555556,4,2,0,5,0,0
92856,-90.9090909090909,4,2,0,60,0,1
107856,-66.6666666666667,4,2,0,60,0,1
111947,-55.5555555555556,4,2,0,60,0,1
114674,-100,4,2,0,60,0,0

[Colours]
Combo1 : 166,166,210
Combo2 : 189,214,177
Combo3 : 222,180,215
Combo4 : 221,200,172

[HitObjects]
124,97,130,5,0,0:0:0:0:
68,49,470,1,0,0:0:0:0:
231,318,1493,5,0,0:0:0:0:
287,270,1833,1,0,0:0:0:0:
256,55,2857,5,0,0:0:0:0:
200,103,3197,1,0,0:0:0:0:
418,262,4220,5,0,0:0:0:0:
474,310,4560,1,0,0:0:0:0:
104,200,5584,5,0,0:0:0:0:
48,248,5924,1,0,0:0:0:0:
284,350,6948,5,0,0:0:0:0:
340,302,7288,1,0,0:0:0:0:
178,47,8311,5,0,0:0:0:0:
234,95,8651,1,0,0:0:0:0:
438,241,9675,5,0,0:0:0:0:
382,289,10015,1,0,0:0:0:0:
144,154,10698,6,0,B|186:149|210:172|229:191|283:178,1,136.499995834351,2|0,0:0|0:0,0:0:0:0:
308,65,11039,6,0,P|215:167|338:289,1,325,4|0,1:0|0:0,0:0:0:0:
375,240,12061,1,2,1:2:0:0:
310,211,12232,1,2,1:2:0:0:
390,327,12402,6,0,P|453:313|517:305,1,130,2|0,1:0|0:0,0:0:0:0:
307,291,12914,2,0,P|243:276|179:268,1,130,2|0,1:0|0:0,0:0:0:0:
155,337,13425,2,0,P|166:303|168:271,1,65,6|0,1:0|0:0,0:0:0:0:
239,103,13766,6,0,P|230:150|273:313,2,195,12|2|2,1:3|0:0|1:2,0:0:0:0:
306,137,14959,1,2,1:2:0:0:
227,174,15130,2,0,P|185:191|157:203,1,65,6|0,0:2|0:0,0:0:0:0:
282,240,15470,2,0,P|324:257|352:269,1,65,2|6,0:0|0:0,0:0:0:0:
198,314,15811,1,0,0:0:0:0:
206,332,15982,1,2,0:0:0:0:
293,370,16152,1,2,1:2:0:0:
396,326,16323,1,2,1:2:0:0:
444,232,16493,6,0,B|372:229|395:272|314:273,1,130,12|2,1:3|1:2,0:0:0:0:
258,216,17005,2,0,P|299:223|320:302,1,130,2|2,1:2|0:0,0:0:0:0:
262,349,17516,1,2,1:2:0:0:
179,337,17686,1,2,1:2:0:0:
87,258,17857,6,0,P|123:218|138:138,1,130,2|0,1:0|0:0,0:0:0:0:
32,91,18368,2,0,P|63:118|153:148,1,130,2|2,1:0|0:0,0:0:0:0:
208,30,18880,2,0,P|178:60|162:93,1,65,6|0,1:0|0:0,0:0:0:0:
292,226,19220,6,0,P|225:204|129:344,1,260,4|0,1:3|0:0,0:0:0:0:
197,369,20073,1,2,0:0:0:0:
256,307,20243,1,2,1:2:0:0:
266,186,20414,1,2,1:2:0:0:
218,89,20584,6,0,L|155:107,1,65,2|0,0:0|0:0,0:0:0:0:
262,17,20925,2,0,L|304:79,1,65,0|0,0:0|0:0,0:0:0:0:
362,125,21266,2,0,L|386:63,1,65,6|2,0:0|0:0,0:0:0:0:
463,15,21607,1,6,0:0:0:0:
484,43,21777,1,2,0:0:0:0:
492,213,24334,1,2,0:0:0:0:
436,147,24675,6,0,L|343:178,1,97.50000371933,2|0,0:0|0:0,0:0:0:0:
333,186,25357,1,2,0:0:0:0:
370,72,25698,2,0,P|352:102|350:121,1,48.750001859665,2|0,0:0|0:0,0:0:0:0:
404,180,26039,6,0,P|422:222|411:291,1,97.50000371933,2|2,0:0|0:0,0:0:0:0:
363,322,26720,1,2,0:0:0:0:
288,324,27061,1,0,0:0:0:0:
249,215,27402,6,0,P|265:243|270:268,1,48.750001859665,2|0,0:0|0:0,0:0:0:0:
227,314,27743,1,2,0:0:0:0:
361,189,28084,1,2,0:0:0:0:
311,128,28425,1,0,0:0:0:0:
327,271,28766,5,2,0:0:0:0:
251,198,29107,1,2,0:0:0:0:
312,286,29277,1,2,0:0:0:0:
269,190,29448,1,2,0:0:0:0:
299,351,29789,2,0,P|269:355|245:358,1,48.750001859665,2|0,0:0|0:0,0:0:0:0:
370,357,30130,6,0,P|440:358|513:329,1,146.250005578995,2|0,0:0|0:0,0:0:0:0:
492,238,30811,2,0,P|461:261|447:272,1,48.750001859665,2|0,0:0|0:0,0:0:0:0:
507,169,31152,1,2,0:0:0:0:
448,99,31493,5,2,0:0:0:0:
359,190,31834,1,2,0:0:0:0:
386,7,32175,1,2,0:0:0:0:
292,76,32516,2,0,P|329:76|348:80,1,48.750001859665,0|0,0:0|0:0,0:0:0:0:
237,141,32857,6,0,P|199:152|171:155,1,48.750001859665,2|2,0:0|0:0,0:0:0:0:
125,128,33198,1,2,0:0:0:0:
180,163,33368,1,2,0:0:0:0:
176,228,33539,1,2,0:0:0:0:
368,261,33880,1,0,0:0:0:0:
313,296,34050,1,2,0:0:0:0:
317,361,34220,5,2,0:0:0:0:
329,177,34561,1,2,0:0:0:0:
369,206,34732,1,2,0:0:0:0:
348,163,34902,1,2,0:0:0:0:
376,182,35073,1,0,0:0:0:0:
500,73,35243,2,0,L|479:151,1,73.1250027894975,2|0,0:0|0:0,0:0:0:0:
465,156,35584,5,2,0:0:0:0:
399,63,35925,1,0,0:0:0:0:
17,340,36948,5,2,0:0:0:0:
83,247,37289,1,2,0:0:0:0:
135,47,38311,5,2,0:0:0:0:
69,140,38652,1,2,0:0:0:0:
248,277,39675,5,2,0:0:0:0:
341,343,40016,1,2,0:0:0:0:
223,361,40357,5,2,0:0:0:0:
130,295,40698,1,2,0:0:0:0:
296,175,41039,5,2,0:0:0:0:
122,365,41380,1,2,0:0:0:0:
0,150,42402,5,2,0:0:0:0:
168,307,42743,1,2,0:0:0:0:
1,299,43766,5,2,0:0:0:0:
136,169,44107,1,2,0:0:0:0:
73,85,45130,5,2,0:0:0:0:
164,196,45471,1,2,0:0:0:0:
240,26,46493,6,0,P|196:42|48:67,1,195,2|0,0:0|0:0,0:0:0:0:
110,3,47174,1,2,0:0:0:0:
142,71,47345,2,0,P|148:107|145:139,1,65,2|2,0:0|0:0,0:0:0:0:
90,191,47856,1,2,0:0:0:0:
148,223,48197,1,2,0:0:0:0:
219,188,48538,6,0,P|282:190|436:202,1,195,2|0,0:0|0:0,0:0:0:0:
475,157,49220,1,2,0:0:0:0:
398,211,49390,2,0,P|382:245|379:277,1,65,0|2,0:0|0:0,0:0:0:0:
312,76,49902,6,0,L|232:86,1,65,2|0,0:0|0:0,0:0:0:0:
328,329,50243,2,0,L|408:314,1,65,2|0,0:0|0:0,0:0:0:0:
461,291,50583,6,0,P|452:252|461:88,1,195,2|0,0:0|0:0,0:0:0:0:
504,44,51265,1,0,0:0:0:0:
448,126,51436,2,0,P|406:139|377:153,1,65,0|0,0:0|0:0,0:0:0:0:
308,181,51947,1,0,0:0:0:0:
360,240,52288,1,0,0:0:0:0:
252,133,52629,6,0,P|173:162|46:194,1,195,2|0,0:0|0:0,0:0:0:0:
74,119,53311,1,2,0:0:0:0:
131,192,53481,2,0,P|137:232|131:265,1,65,2|2,0:0|0:0,0:0:0:0:
194,351,53993,6,0,L|286:364,1,65,2|0,0:0|0:0,0:0:0:0:
272,117,54333,2,0,L|208:127,1,65,2|0,0:0|0:0,0:0:0:0:
197,243,54674,6,0,B|250:227|277:269|350:244,2,130,2|0|0,1:2|0:0|1:0,0:0:0:0:
142,187,55527,1,0,0:0:0:0:
321,129,55697,2,0,B|268:113|241:155|168:130,2,130,2|0|0,0:0|0:0|1:0,0:0:0:0:
104,36,56720,6,0,P|59:95|52:155,1,130,2|0,0:0|0:0,0:0:0:0:
185,318,57402,1,2,1:2:0:0:
118,274,57572,1,2,0:0:0:0:
38,288,57743,2,0,P|6:324|-7:363,1,65,2|0,0:0|0:0,0:0:0:0:
118,274,58083,2,0,P|137:239|146:207,1,65,0|0,0:0|0:0,0:0:0:0:
85,102,58424,2,0,P|112:145|138:160,1,65,0|0,1:0|0:0,0:0:0:0:
170,23,58765,6,0,P|117:22|79:33,1,65,4|0,0:3|0:0,0:0:0:0:
222,96,59106,2,0,P|304:113|381:123,1,130,2|2,0:0|1:2,0:0:0:0:
508,17,59788,6,0,P|476:44|463:67,1,65,2|0,0:0|0:0,0:0:0:0:
392,235,60129,2,0,P|408:182|384:82,1,130,2|0,0:0|1:0,0:0:0:0:
333,289,60811,5,2,0:0:0:0:
488,336,61152,2,0,L|424:354,1,65,2|0,0:0|0:0,0:0:0:0:
333,335,61493,2,0,P|356:297|363:267,1,65,2|0,1:2|0:0,0:0:0:0:
328,187,61833,5,2,0:0:0:0:
265,26,62174,2,0,P|240:60|232:92,1,65,2|0,0:0|0:0,0:0:0:0:
206,221,62515,2,0,P|209:177|186:141,1,65,2|0,1:2|0:0,0:0:0:0:
45,104,62856,6,0,P|95:130|167:143,2,130,4|0|0,0:3|0:0|1:0,0:0:0:0:
309,167,63879,2,0,P|267:182|187:243,1,130,2|0,0:0|0:0,0:0:0:0:
91,356,64561,2,0,P|113:309|111:285,1,65,2|0,1:2|0:0,0:0:0:0:
5,205,64902,6,0,P|62:226|160:220,1,130,4|0,0:3|0:0,0:0:0:0:
297,159,65583,2,0,P|336:157|371:171,1,65,2|2,1:2|0:0,0:0:0:0:
410,226,65924,1,0,0:0:0:0:
335,273,66265,1,2,0:0:0:0:
251,254,66606,1,2,1:2:0:0:
181,204,66947,6,0,P|191:168|194:113,1,65,4|0,0:3|0:0,0:0:0:0:
130,5,67288,2,0,P|94:37|70:120,1,130,2|2,0:0|1:2,0:0:0:0:
135,220,67970,6,0,P|95:223|46:227,1,65,2|0,0:0|0:0,0:0:0:0:
201,327,68311,2,0,P|267:329|342:320,1,130,2|2,0:0|1:2,0:0:0:0:
299,243,68822,1,0,0:0:0:0:
406,331,68993,6,0,P|425:214|451:73,1,260,4|0,0:3|1:0,0:0:0:0:
462,108,69845,1,0,0:0:0:0:
324,157,70015,2,0,P|274:157|190:145,1,130,2|0,0:0|0:0,0:0:0:0:
96,40,70697,2,0,P|110:76|117:108,1,65,2|0,0:0|0:0,0:0:0:0:
33,236,71038,6,0,P|20:186|29:130,2,90.9999972229005,2|0|2,1:2|0:0|1:2,0:0:0:0:
162,304,72060,1,2,0:0:0:0:
44,302,72231,1,2,0:0:0:0:
44,302,72316,1,2,0:0:0:0:
44,302,72401,6,0,P|85:269|110:225,2,90.9999972229005,2|2|2,1:2|0:0|1:2,0:0:0:0:
100,47,73594,1,2,0:0:0:0:
80,65,73765,2,0,P|78:101|65:159,2,90.9999972229005,2|0|2,1:2|0:0|1:2,0:0:0:0:
210,206,74958,1,0,0:0:0:0:
226,182,75128,2,0,P|184:185|132:168,2,90.9999972229005,2|2|2,1:2|0:0|1:2,0:0:0:0:
380,65,76151,1,2,0:0:0:0:
316,34,76322,1,2,0:0:0:0:
256,66,76492,6,0,P|236:91|184:129,1,90.9999972229005,2|2,1:2|0:0,0:0:0:0:
203,10,77003,1,2,0:0:0:0:
203,10,77089,1,2,0:0:0:0:
203,10,77174,1,2,1:2:0:0:
82,154,77515,1,2,0:0:0:0:
109,213,77685,1,2,0:0:0:0:
172,246,77856,6,0,P|199:216|235:154,1,90.9999972229005,2|2,1:2|0:0,0:0:0:0:
214,121,78367,2,0,P|212:155|215:177,1,45.4999986114502,0|2,0:0|1:2,0:0:0:0:
319,301,78878,1,2,0:0:0:0:
384,318,79049,1,0,0:0:0:0:
458,302,79219,6,0,P|469:266|500:215,1,90.9999972229005,2|0,1:2|0:0,0:0:0:0:
257,203,79901,2,0,P|249:165|233:114,1,90.9999972229005,2|2,1:2|0:0,0:0:0:0:
480,17,80583,5,2,1:2:0:0:
415,52,80924,1,2,0:0:0:0:
376,108,81094,1,0,0:0:0:0:
391,43,81265,1,2,1:2:0:0:
460,146,81435,1,2,0:0:0:0:
396,191,81606,2,0,P|368:192|335:194,1,45.4999986114502,2|2,0:0|0:0,0:0:0:0:
294,219,81947,6,0,P|333:189|371:148,2,90.9999972229005,2|0|2,1:2|0:0|1:2,0:0:0:0:
245,151,82969,1,2,0:0:0:0:
262,276,83140,1,2,0:0:0:0:
262,276,83225,1,2,0:0:0:0:
262,276,83310,6,0,P|234:300|180:323,2,90.9999972229005,2|2|2,1:2|0:0|1:2,0:0:0:0:
176,201,84333,2,0,P|138:201|117:208,1,45.4999986114502,2|2,0:0|0:0,0:0:0:0:
43,281,84674,6,0,P|60:217|77:141,1,136.499995834351,2|0,1:2|0:0,0:0:0:0:
25,35,85356,1,2,1:2:0:0:
227,102,85697,2,0,P|193:103|173:109,1,45.4999986114502,2|2,0:0|0:0,0:0:0:0:
293,186,86038,6,0,P|374:182|444:162,1,136.499995834351,2|0,1:2|0:0,0:0:0:0:
445,50,86719,2,0,P|412:68|413:165,1,136.499995834351,2|0,1:2|0:0,0:0:0:0:
496,236,87401,6,0,L|397:259,2,90.9999972229005,2|0|2,1:2|0:0|1:2,0:0:0:0:
307,317,88424,1,2,0:0:0:0:
339,247,88594,1,2,0:0:0:0:
294,316,88765,6,0,P|227:324|194:325,1,90.9999972229005,2|2,1:2|0:0,0:0:0:0:
68,239,89447,1,2,1:2:0:0:
80,257,90128,6,0,P|89:173|97:71,1,181.999994445801,2|2,1:0|1:2,0:0:0:0:
80,35,91151,1,2,0:1:0:0:
120,13,91492,6,0,L|100:35,14,24.3750009298325,6|0|0|0|0|0|0|0|0|0|0|0|0|0|0,1:0|0:0|0:0|0:0|0:0|0:0|0:0|0:0|0:0|0:0|0:0|0:0|0:0|0:0|0:0,0:0:0:0:
148,90,92174,6,0,P|222:105|300:106,1,146.250005578995,4|0,1:3|0:0,0:0:0:0:
358,20,92515,2,0,P|309:81|324:201,1,195,2|0,0:0|0:0,0:0:0:0:
403,229,92856,6,0,P|254:206|130:352,1,357.500010910034,4|2,1:0|0:0,0:0:0:0:
200,359,93878,1,2,1:2:0:0:
150,284,94049,1,2,1:2:0:0:
209,363,94219,6,0,P|289:336|359:325,1,143.000004364014,6|0,1:0|0:0,0:0:0:0:
493,279,94731,2,0,P|409:270|341:245,1,143.000004364014,2|0,1:0|0:0,0:0:0:0:
277,218,95242,2,0,P|301:169|313:148,1,71.5000021820069,6|0,1:0|0:0,0:0:0:0:
425,130,95583,6,0,P|321:150|201:162,2,214.500006546021,4|2|2,1:3|1:2|1:2,0:0:0:0:
467,70,96776,1,2,1:2:0:0:
383,85,96947,2,0,P|362:125|347:157,1,71.5000021820069,6|0,0:0|0:0,0:0:0:0:
413,194,97288,2,0,P|422:242|425:272,1,71.5000021820069,2|6,1:2|1:2,0:0:0:0:
377,328,97628,1,0,0:0:0:0:
336,203,97799,1,2,0:0:0:0:
261,211,97969,2,0,P|217:218|183:217,1,71.5000021820069,0|0,1:0|1:0,0:0:0:0:
0,147,98310,6,0,P|111:162|197:375,1,357.500010910034,4|2,1:3|0:0,0:0:0:0:
137,301,99333,1,2,1:2:0:0:
111,229,99503,1,2,1:2:0:0:
151,295,99674,6,0,P|221:293|306:301,1,143.000004364014,6|0,1:0|0:0,0:0:0:0:
398,218,100185,2,0,P|328:216|243:224,1,143.000004364014,2|0,1:0|0:0,0:0:0:0:
358,327,100697,2,0,P|355:291|354:255,1,71.5000021820069,6|0,1:0|0:0,0:0:0:0:
342,105,101038,6,0,P|275:154|140:182,1,214.500006546021,4|2,1:2|0:0,0:0:0:0:
98,138,101719,2,0,P|145:180|144:280,1,143.000004364014,2|2,1:2|0:0,0:0:0:0:
86,312,102231,1,2,1:2:0:0:
224,289,102401,6,0,P|272:291|306:302,1,71.5000021820069,6|0,1:0|0:0,0:0:0:0:
390,171,102742,2,0,P|340:200|251:214,1,143.000004364014,0|2,0:0|0:0,0:0:0:0:
177,25,103424,2,0,P|200:56|206:100,1,71.5000021820069,2|2,1:2|0:0,0:0:0:0:
59,280,103765,6,0,P|46:216|88:134,1,143.000004364014,4|2,1:0|0:0,0:0:0:0:
140,107,104276,1,2,0:0:0:0:
13,49,104447,2,0,P|21:88|14:130,1,71.5000021820069,2|2,0:0|0:0,0:0:0:0:
139,222,104788,2,0,P|176:226|212:218,1,71.5000021820069,2|2,1:2|1:2,0:0:0:0:
377,121,105128,6,0,P|306:115|239:182,1,143.000004364014,6|0,1:0|0:0,0:0:0:0:
61,136,105640,2,0,P|106:135|183:62,1,143.000004364014,2|0,1:0|0:0,0:0:0:0:
19,199,106151,2,0,L|40:291,1,71.5000021820069,2|0,1:0|0:0,0:0:0:0:
192,373,106492,6,0,P|227:322|210:241,1,143.000004364014,6|0,1:0|0:0,0:0:0:0:
97,104,107003,2,0,P|133:148|241:180,1,143.000004364014,2|0,0:1|0:0,0:0:0:0:
291,70,107515,2,0,P|251:97|225:130,1,71.5000021820069,2|0,1:0|0:0,0:0:0:0:
152,345,107856,6,0,P|210:371|266:387,1,97.50000371933,2|0,1:0|0:0,0:0:0:0:
407,306,108197,2,0,P|369:336|327:362,1,97.50000371933,2|0,1:0|0:0,0:0:0:0:
267,83,108538,2,0,P|254:145|251:203,1,97.50000371933,2|0,1:0|0:0,0:0:0:0:
362,322,108879,2,0,P|323:291|289:257,1,97.50000371933,2|0,1:2|0:0,0:0:0:0:
160,144,109219,6,0,P|85:137|-9:251,1,195.00000743866,4|2,1:0|0:0,0:0:0:0:
59,254,109731,1,2,0:2:0:0:
138,201,109901,2,0,P|146:138|139:85,1,97.50000371933,2|2,0:2|0:2,0:0:0:0:
142,300,110242,2,0,P|207:288|282:310,1,146.250005578995,2|0,1:2|0:0,0:0:0:0:
226,369,110583,6,0,P|142:359|149:186,1,292.50001115799,4|2,1:0|0:0,0:0:0:0:
255,180,111265,2,0,P|225:219|-3:258,1,292.50001115799,2|2,1:0|0:0,0:0:0:0:
328,64,111947,6,0,B|382:155|309:292|107:113|24:354,1,467.999985717774,6|0,1:0|1:0,0:0:0:0:
326,384,112969,2,0,P|374:328|385:266,1,116.999996429443,2|0,1:0|0:0,0:0:0:0:
272,88,113310,6,0,P|192:130|238:353,1,350.99998928833,6|2,1:0|0:0,0:0:0:0:
341,218,113992,2,0,P|277:230|243:268,1,116.999996429443,2|2,1:2|0:0,0:0:0:0:
146,373,114333,1,2,0:0:0:0:
306,304,114674,5,0,0:0:0:0:
