osu file format v14

[General]
AudioFilename: audio.mp3
AudioLeadIn: 0
PreviewTime: 92430
Countdown: 0
SampleSet: Soft
StackLeniency: 0.7
Mode: 0
LetterboxInBreaks: 0
WidescreenStoryboard: 1

[Editor]
Bookmarks: 11039,21948,54674
DistanceSpacing: 0.2
BeatDivisor: 2
GridSize: 16
TimelineZoom: 2.6

[Metadata]
Title:Utopiosphere -Platonism-
TitleUnicode:Utopiosphere -Platonism-
Artist:Mili
ArtistUnicode:Mili
Creator:celerih
Version:Ultima Fox's Fantasia
Source:Deemo
Tags:thicc bish Sharu Icekalt Nemis defiance osuskrub quanhitter39 Ultima Fox Miracle Milk
BeatmapID:2050680
BeatmapSetID:928652

[Difficulty]
HPDrainRate:5.6
CircleSize:7
OverallDifficulty:7
ApproachRate:8
SliderMultiplier:1
SliderTickRate:1

[Events]
//Background and Video events
0,0,"Utopiosphere BG.jpg",0,0
//Break Periods
//Storyboard Layer 0 (Background)
//Storyboard Layer 1 (Fail)
//Storyboard Layer 2 (Pass)
//Storyboard Layer 3 (Foreground)
//Storyboard Sound Samples

[TimingPoints]
130,340.909090909091,4,2,10,23,1,0
130,-142.857142857143,4,2,10,23,0,0
470,-142.857142857143,4,2,11,23,0,0
641,-142.857142857143,4,2,1,18,0,0
1493,-142.857142857143,4,2,20,23,0,0
1834,-142.857142857143,4,2,21,23,0,0
2175,-142.857142857143,4,2,1,18,0,0
2857,-142.857142857143,4,2,30,23,0,0
3198,-142.857142857143,4,2,31,23,0,0
3539,-142.857142857143,4,2,1,18,0,0
4220,-142.857142857143,4,2,40,23,0,0
4561,-142.857142857143,4,2,21,23,0,0
4902,-142.857142857143,4,2,1,18,0,0
5584,-142.857142857143,4,2,10,23,0,0
5924,-142.857142857143,4,2,11,23,0,0
6095,-142.857142857143,4,2,1,18,0,0
6947,-142.857142857143,4,2,20,23,0,0
7288,-142.857142857143,4,2,21,23,0,0
7629,-142.857142857143,4,2,1,18,0,0
8311,-142.857142857143,4,2,30,23,0,0
8652,-142.857142857143,4,2,31,23,0,0
8993,-142.857142857143,4,2,1,18,0,0
9674,-142.857142857143,4,2,40,23,0,0
10015,-142.857142857143,4,2,21,23,0,0
10357,-142.857142857143,4,2,1,23,0,0
10698,-100,4,2,1,35,0,0
12743,-100,4,2,1,5,0,0
12914,-90.9090909090909,4,2,1,35,0,0
13255,-90.9090909090909,4,2,1,5,0,0
13425,-90.9090909090909,4,2,1,35,0,0
13595,-90.9090909090909,4,2,1,5,0,0
13766,-83.3333333333333,4,2,1,35,0,0
14107,-83.3333333333333,4,2,1,5,0,0
14277,-90.9090909090909,4,2,1,35,0,0
14618,-83.3333333333333,4,2,1,5,0,0
14789,-100,4,2,1,35,0,0
14959,-83.3333333333333,4,2,1,5,0,0
15130,-100,4,2,1,35,0,0
16834,-100,4,2,1,5,0,0
17005,-100,4,2,1,35,0,0
17345,-100,4,2,1,5,0,0
17516,-100,4,2,1,35,0,0
17686,-100,4,2,1,5,0,0
17857,-100,4,2,1,35,0,0
18198,-100,4,2,1,5,0,0
18368,-100,4,2,1,35,0,0
18709,-100,4,2,1,5,0,0
18880,-100,4,2,1,35,0,0
19050,-100,4,2,1,5,0,0
19220,-200,4,2,1,26,0,0
20073,-100,4,2,1,26,0,0
20584,-142.857142857143,4,2,1,26,0,0
22630,-200,4,2,1,26,0,0
23482,-142.857142857143,4,2,1,26,0,0
24675,-125,4,2,1,26,0,0
46493,340.909090909091,3,2,1,30,1,0
46493,-125,3,2,1,30,0,0
50583,-142.857142857143,3,2,1,30,0,0
52629,-125,3,2,1,30,0,0
54674,-100,3,2,1,39,0,0
70697,-250,3,2,1,30,0,0
70868,-250,3,2,1,5,0,0
71038,340.909090909091,4,2,1,39,1,0
71038,-166.666666666667,4,2,1,26,0,0
91492,-333.333333333333,4,2,1,26,0,0
92856,-100,4,2,99,39,0,1
94560,-100,4,2,99,5,0,1
94731,-90.9090909090909,4,2,99,39,0,1
95072,-90.9090909090909,4,2,99,5,0,1
95242,-90.9090909090909,4,2,99,39,0,1
95413,-90.9090909090909,4,2,99,5,0,1
95583,-76.9230769230769,4,2,99,39,0,1
95924,-76.9230769230769,4,2,99,5,0,1
96094,-86.9565217391304,4,2,99,39,0,1
96435,-86.9565217391304,4,2,99,5,0,1
96606,-100,4,2,99,39,0,1
96776,-100,4,2,99,5,0,1
96947,-100,4,2,99,39,0,1
97288,-125,4,2,99,39,0,1
97628,-166.666666666667,4,2,99,39,0,1
97969,-100,4,2,99,39,0,1
100015,-100,4,2,99,5,0,1
100185,-100,4,2,99,39,0,1
100526,-100,4,2,99,5,0,1
100697,-100,4,2,99,39,0,1
100867,-100,4,2,99,5,0,1
101038,-100,4,2,99,39,0,1
101549,-100,4,2,99,5,0,1
101719,-90.9090909090909,4,2,99,39,0,1
102231,-90.9090909090909,4,2,99,5,0,1
102401,-83.3333333333333,4,2,99,39,0,1
102913,-83.3333333333333,4,2,99,5,0,1
103083,-76.9230769230769,4,2,99,39,0,1
103765,-100,4,2,99,39,0,1
105469,-100,4,2,99,5,0,1
105640,-90.9090909090909,4,2,99,39,0,1
105981,-90.9090909090909,4,2,99,5,0,1
106151,-90.9090909090909,4,2,99,39,0,1
106322,-90.9090909090909,4,2,99,5,0,1
106492,-76.9230769230769,4,2,99,39,0,1
106833,-76.9230769230769,4,2,99,5,0,1
107003,-83.3333333333333,4,2,99,39,0,1
107344,-83.3333333333333,4,2,99,5,0,1
107515,-76.9230769230769,4,2,99,39,0,1
107685,-76.9230769230769,4,2,99,5,0,1
107856,-66.6666666666667,4,2,99,39,0,1
108026,-66.6666666666667,4,2,99,5,0,1
108197,-66.6666666666667,4,2,99,39,0,1
108367,-66.6666666666667,4,2,99,5,0,1
108538,-66.6666666666667,4,2,99,39,0,1
108708,-66.6666666666667,4,2,99,5,0,1
108878,-66.6666666666667,4,2,99,39,0,1
109049,-66.6666666666667,4,2,99,5,0,1
109219,-66.6666666666667,4,2,99,39,0,1
109560,-90.9090909090909,4,2,99,39,0,1
111265,-100,4,2,99,39,0,1
111776,-100,4,2,99,5,0,1
111947,-71.4285714285714,4,2,99,39,0,1
114674,-100,4,2,1,39,0,0

[Colours]
Combo1 : 166,166,210
Combo2 : 189,214,177
Combo3 : 222,180,215
Combo4 : 221,200,172

[HitObjects]
80,245,130,6,0,P|84:229|85:207,1,34.9999989318848,2|0,0:0|0:0,0:0:0:0:
119,280,470,2,0,P|133:272|151:259,1,34.9999989318848,2|0,0:0|0:0,0:0:0:0:
100,335,811,1,2,0:0:0:0:
95,330,982,1,0,0:0:0:0:
131,368,1152,1,0,0:0:0:0:
168,341,1323,1,0,0:0:0:0:
208,380,1493,6,0,P|227:374|243:370,1,34.9999989318848,2|0,0:0|0:0,0:0:0:0:
306,384,1834,2,0,P|300:365|296:349,1,34.9999989318848,2|0,0:0|0:0,0:0:0:0:
252,315,2175,1,2,0:0:0:0:
256,305,2345,1,0,0:0:0:0:
261,295,2516,1,0,0:0:0:0:
225,252,2686,1,0,0:0:0:0:
267,215,2857,6,0,P|300:221|312:222,1,34.9999989318848,2|0,0:0|0:0,0:0:0:0:
351,257,3198,2,0,P|372:231|379:221,1,34.9999989318848,2|0,0:0|0:0,0:0:0:0:
430,217,3539,1,2,0:0:0:0:
426,208,3709,1,0,0:0:0:0:
456,167,3880,1,0,0:0:0:0:
429,124,4050,1,2,0:0:0:0:
381,147,4220,6,0,P|358:141|340:134,1,34.9999989318848,2|0,0:0|0:0,0:0:0:0:
311,93,4561,2,0,P|290:107|245:127,1,69.9999978637696,2|2,0:0|0:0,0:0:0:0:
198,111,5073,1,0,0:0:0:0:
159,142,5243,1,0,0:0:0:0:
162,152,5414,1,0,0:0:0:0:
201,192,5584,6,0,P|195:214|191:232,1,34.9999989318848,2|0,0:0|0:0,0:0:0:0:
246,240,5925,2,0,P|252:218|256:200,1,34.9999989318848,2|0,0:0|0:0,0:0:0:0:
282,154,6266,1,2,0:0:0:0:
276,149,6436,1,0,0:0:0:0:
316,121,6607,1,0,0:0:0:0:
360,143,6777,1,0,0:0:0:0:
367,194,6948,6,0,P|386:202|406:201,1,34.9999989318848,2|0,0:0|0:0,0:0:0:0:
455,180,7289,2,0,P|462:204|480:218,1,34.9999989318848,2|0,0:0|0:0,0:0:0:0:
508,256,7630,1,2,0:0:0:0:
506,267,7800,1,0,0:0:0:0:
504,277,7970,1,0,0:0:0:0:
460,304,8141,1,0,0:0:0:0:
489,351,8311,6,0,P|466:360|450:367,1,34.9999989318848,2|0,0:0|0:0,0:0:0:0:
408,332,8652,2,0,P|385:323|369:316,1,34.9999989318848,2|0,0:0|0:0,0:0:0:0:
333,355,8993,1,2,0:0:0:0:
330,366,9164,1,0,0:0:0:0:
282,348,9334,1,0,0:0:0:0:
245,382,9505,1,2,0:0:0:0:
199,357,9675,6,0,P|193:329|191:308,1,34.9999989318848,2|0,0:0|0:0,0:0:0:0:
223,281,10016,2,0,P|255:278|295:272,1,69.9999978637696,2|2,0:0|0:0,0:0:0:0:
330,231,10527,1,0,0:0:0:0:
330,231,10698,2,0,P|338:201|354:185,1,50
487,129,11039,5,6,2:3:0:0:
440,162,11209,2,0,P|408:157|362:94,1,100
363,101,11720,2,0,P|370:67|375:47,1,50
303,23,12061,1,0,0:0:0:0:
309,31,12232,1,0,0:0:0:0:
280,81,12402,6,0,P|254:93|185:69,1,100
90,30,12914,2,0,P|113:46|126:123,1,110.000003356934
166,195,13425,2,0,P|167:180|198:154,1,55.0000016784668
287,141,13766,6,0,B|287:185|287:185|314:229|371:197,1,119.999996337891,2|0,2:3|0:0,0:0:0:0:
423,130,14277,2,0,B|393:113|393:113|340:110|336:168,1,110.000003356934
406,215,14789,2,0,P|403:186|372:159,1,50
310,272,15130,6,0,P|343:276|370:282,1,50
302,285,15470,1,0,0:0:0:0:
369,270,15641,1,0,0:0:0:0:
399,321,15811,1,0,0:0:0:0:
446,334,15982,1,0,0:0:0:0:
486,290,16152,1,0,0:0:0:0:
498,286,16323,1,0,0:0:0:0:
439,253,16493,6,0,P|438:219|490:170,1,100,2|0,2:3|0:0,0:0:0:0:
491,175,17005,2,0,P|459:171|412:105,1,100
411,114,17516,2,0,P|416:76|418:50,1,50
339,33,17857,6,0,P|331:93|322:147,1,100
318,138,18368,2,0,B|266:132|278:179|208:170,1,100
217,171,18880,2,0,P|193:160|176:129,1,50,2|0,0:3|0:0,0:0:0:0:
312,193,19220,6,0,P|321:245|332:304,1,100,2|0,0:3|0:0,0:0:0:0:
370,329,20073,1,0,0:0:0:0:
274,295,20243,2,0,P|248:304|233:328,1,50
404,380,20584,2,0,P|422:360|404:279,1,104.999996795654
364,265,21266,5,0,0:0:0:0:
351,249,21436,1,0,0:0:0:0:
413,240,21607,1,0,0:0:0:0:
412,230,21777,1,0,0:0:0:0:
307,288,22289,6,0,P|285:282|266:279,1,34.9999989318848,2|0,0:0|0:0,0:0:0:0:
234,240,22630,2,0,P|218:257|161:264,1,75,2|0,0:0|0:0,0:0:0:0:
102,194,23482,5,0,0:0:0:0:
105,189,23652,2,0,P|99:172|91:154,1,34.9999989318848,2|0,0:0|0:0,0:0:0:0:
159,209,23993,1,0,0:0:0:0:
114,251,24164,1,0,0:0:0:0:
161,315,24334,2,0,P|188:319|207:328,1,34.9999989318848,2|0,0:0|0:0,0:0:0:0:
244,369,24675,6,0,P|260:343|279:327,1,40,2|0,0:0|0:0,0:0:0:0:
321,341,25016,1,2,0:0:0:0:
218,209,25357,2,0,P|228:245|243:300,1,80,2|0,0:0|0:0,0:0:0:0:
307,291,25868,1,0,0:0:0:0:
311,285,26039,2,0,P|300:246|289:207,1,80,2|2,0:0|0:0,0:0:0:0:
198,161,26720,1,2,0:0:0:0:
266,100,27061,1,0,0:0:0:0:
163,43,27402,2,0,P|121:39|68:34,1,80,2|0,0:0|0:0,0:0:0:0:
30,88,28084,5,0,0:0:0:0:
56,156,28425,1,0,0:0:0:0:
156,187,28766,1,0,0:0:0:0:
244,124,29107,1,0,0:0:0:0:
244,124,29277,1,0,0:0:0:0:
244,124,29448,1,0,0:0:0:0:
256,42,29789,6,0,P|251:19|246:2,1,40,0|0,0:3|0:0,0:0:0:0:
336,94,30130,2,0,P|343:66|348:47,1,40,2|2,0:0|0:0,0:0:0:0:
318,5,30470,1,2,0:0:0:0:
468,148,30811,2,0,P|426:156|382:165,1,80,2|0,0:0|0:0,0:0:0:0:
397,100,31493,2,0,L|438:92,1,40,2|2,0:0|0:0,0:0:0:0:
486,81,31834,1,2,0:0:0:0:
454,219,32175,2,0,P|412:227|368:236,1,80,2|0,0:0|0:0,0:0:0:0:
255,205,32857,2,0,P|247:181|240:158,1,40,2|2,0:0|0:0,0:0:0:0:
255,110,33198,5,0,0:3:0:0:
261,104,33368,1,0,0:3:0:0:
261,114,33539,1,0,0:3:0:0:
180,177,33880,1,0,0:0:0:0:
172,178,34050,1,0,0:0:0:0:
176,171,34221,1,0,0:0:0:0:
321,239,34561,1,0,0:0:0:0:
319,231,34732,1,0,0:0:0:0:
326,233,34902,2,0,P|321:262|318:281,1,40,0|0,0:0|0:0,0:0:0:0:
253,302,35243,2,0,P|256:282|259:262,1,40,0|0,0:0|0:0,0:0:0:0:
382,198,35584,6,0,P|371:151|360:109,1,80,2|2,0:0|0:0,0:0:0:0:
435,222,36607,2,0,P|443:194|448:176,1,40
363,261,36948,2,0,P|339:244|283:210,1,80,2|2,0:0|0:0,0:0:0:0:
73,118,38311,6,0,P|108:103|156:82,1,80,2|2,0:0|0:0,0:0:0:0:
28,170,39164,1,0,0:0:0:0:
33,167,39334,2,0,P|56:179|74:188,1,40
107,227,39675,5,2,0:0:0:0:
147,158,40016,1,2,0:0:0:0:
226,244,40357,1,2,0:0:0:0:
294,142,40698,1,2,0:0:0:0:
386,261,41039,6,0,P|398:309|407:351,1,80,2|2,0:0|0:0,0:0:0:0:
329,227,41891,1,0,0:0:0:0:
331,232,42061,2,0,P|324:261|319:281,1,40
418,197,42402,2,0,P|435:224|446:240,2,46.6666666666667,2|0|0,0:0|0:0|0:0,0:0:0:0:
427,76,43595,5,0,0:0:0:0:
427,76,43766,2,0,P|386:71|355:32,1,80,2|2,0:0|0:0,0:0:0:0:
505,56,45130,2,0,P|486:82|494:135,1,80,2|2,0:0|0:0,0:0:0:0:
507,285,46493,6,0,P|471:281|410:333,1,120
358,380,47174,2,0,P|324:371|307:366,1,40
283,316,47515,2,0,P|316:311|369:300,2,80
183,384,48538,6,0,B|191:311|159:343|173:261,1,120
231,230,49220,2,0,P|224:200|221:185,1,40
180,141,49561,1,0,0:0:0:0:
314,204,49902,5,8,0:0:0:0:
314,204,50243,1,8,0:0:0:0:
384,85,50583,6,0,P|349:78|271:57,1,104.999996795654
236,18,51265,2,0,P|211:29|191:34,1,34.9999989318848
136,27,51606,2,0,P|155:69|166:95,2,69.9999978637696
233,142,52629,6,0,P|196:149|148:215,1,120
93,238,53311,2,0,P|108:261|135:271,1,40
200,247,53652,1,0,0:0:0:0:
282,317,53993,5,8,0:0:0:0:
282,317,54333,1,8,0:0:0:0:
395,129,54674,6,0,P|355:119|281:99,1,100
460,112,55356,2,0,P|433:119|403:126,1,50,8|0,0:3|0:0,0:0:0:0:
409,217,55697,2,0,P|436:210|509:194,1,100
336,177,56379,1,8,0:3:0:0:
344,288,56720,6,0,P|299:298|266:357,1,100
126,337,57402,2,0,P|157:349|176:374,1,50,8|0,0:3|0:0,0:0:0:0:
215,336,57743,2,0,P|212:286|214:237,2,100,0|8|8,0:0|0:3|0:3,0:0:0:0:
302,222,58765,5,2,0:3:0:0:
195,158,59106,2,0,P|250:144|302:129,1,100,0|8,0:0|0:3,0:0:0:0:
193,81,59788,1,0,0:0:0:0:
86,145,60129,2,0,P|141:159|193:174,1,100,0|8,0:0|0:3,0:0:0:0:
336,280,60811,6,0,P|291:286|257:342,1,100
381,360,61493,2,0,P|393:327|403:302,1,50,8|0,0:3|0:0,0:0:0:0:
351,217,61833,2,0,P|306:212|239:193,2,100,0|8|8,0:0|0:3|0:3,0:0:0:0:
427,95,62856,6,0,P|437:131|458:204,1,100,2|0,0:3|0:0,0:0:0:0:
427,33,63538,2,0,P|420:71|416:92,1,50,8|0,0:3|0:0,0:0:0:0:
350,165,63879,2,0,P|336:116|322:68,1,100
306,237,64561,1,8,0:3:0:0:
451,286,64902,6,0,P|402:299|374:344,1,100,2|0,0:3|0:0,0:0:0:0:
279,380,65583,2,0,P|251:377|230:359,1,50,8|0,0:3|0:0,0:0:0:0:
235,300,65924,2,0,P|273:292|323:336,2,100,0|8|8,0:0|0:3|0:3,0:0:0:0:
34,296,66947,5,2,0:3:0:0:
139,381,67288,2,0,P|123:305|114:264,1,100,0|8,0:0|0:3,0:0:0:0:
215,182,67970,1,0,0:0:0:0:
110,267,68311,2,0,P|126:191|135:150,1,100,0|8,0:0|0:3,0:0:0:0:
47,71,68993,6,0,P|84:64|157:41,1,100,2|0,0:3|0:0,0:0:0:0:
241,5,69674,2,0,P|271:12|296:18,1,50,8|0,0:3|0:0,0:0:0:0:
319,65,70015,1,8,0:3:0:0:
338,227,70697,6,0,L|317:238,1,20
270,247,71038,2,0,P|230:236|145:217,1,119.999996337891,0|2,0:0|0:0,0:0:0:0:
144,213,72060,2,0,P|117:221|112:222,1,29.9999990844727
31,219,72401,2,0,B|60:236|60:236|74:267|44:294,1,89.9999972534181
40,293,73083,2,0,P|34:318|24:358,1,59.9999981689454,2|0,0:0|0:0,0:0:0:0:
102,382,73765,6,0,P|111:339|121:293,1,89.9999972534181
129,287,74447,2,0,P|126:263|122:223,1,59.9999981689454,2|0,0:0|0:0,0:0:0:0:
89,167,75128,2,0,P|69:167|36:198,2,59.9999981689454,0|0|2,0:0|0:0|0:0,0:0:0:0:
186,207,76151,6,0,P|205:202|216:200,1,29.9999990844727
266,162,76492,2,0,P|274:192|296:279,1,119.999996337891,0|2,0:0|0:0,0:0:0:0:
297,288,77515,2,0,P|279:300|259:303,1,29.9999990844727
218,331,77856,2,0,P|190:306|129:305,1,89.9999972534181
131,310,78538,2,0,P|107:316|71:326,1,59.9999981689454,2|0,0:0|0:0,0:0:0:0:
15,281,79219,6,0,P|10:257|0:217,1,59.9999981689454
83,204,79901,2,0,P|88:180|98:140,1,59.9999981689454,2|0,0:0|0:0,0:0:0:0:
13,113,80583,2,0,P|8:89|-2:49,1,59.9999981689454
30,15,81094,1,0,0:0:0:0:
36,14,81265,2,0,P|54:10|71:7,1,29.9999990844727,2|0,0:0|0:0,0:0:0:0:
110,46,81606,6,0,P|126:54|141:63,1,29.9999990844727
132,119,81947,2,0,P|139:147|161:237,1,119.999996337891,0|2,0:0|0:0,0:0:0:0:
152,241,82969,2,0,P|160:268|163:278,1,29.9999990844727
222,285,83310,2,0,P|219:316|211:376,1,89.9999972534181
206,382,83992,2,0,P|183:384|148:357,1,59.9999981689454,2|0,0:0|0:0,0:0:0:0:
265,333,84674,6,0,B|316:325|302:341|358:337,1,89.9999972534181
361,328,85356,2,0,L|425:335,1,59.9999981689454,2|0,0:0|0:0,0:0:0:0:
496,363,86038,2,0,P|487:330|480:298,1,59.9999981689454
425,275,86719,6,0,B|429:237|429:237|434:225|434:225|439:181,1,89.9999972534181,2|0,0:0|0:0,0:0:0:0:
434,175,87401,2,0,P|411:163|326:202,1,119.999996337891,0|2,0:0|0:0,0:0:0:0:
342,273,88424,2,0,L|375:278,2,29.9999990844727
284,238,89106,1,0,0:0:0:0:
235,198,89447,2,0,P|214:202|170:211,1,59.9999981689454,2|0,0:0|0:0,0:0:0:0:
105,253,90128,6,0,B|86:184|113:212|92:123,1,119.999996337891,0|2,0:0|0:0,0:0:0:0:
43,91,91151,1,0,0:0:0:0:
166,156,91492,2,0,P|171:186|178:220,1,59.9999981689454
91,368,92515,6,0,P|89:356|86:350,1,14.9999995422363
34,304,92856,5,6,0:3:0:0:
101,285,93026,2,0,P|122:258|109:187,1,100
107,193,93538,2,0,P|86:202|75:234,1,50,0|0,0:3|0:0,0:0:0:0:
145,326,93878,1,2,0:2:0:0:
158,315,94049,1,0,0:0:0:0:
224,352,94219,6,0,P|262:356|300:309,1,100,2|0,0:3|0:0,0:0:0:0:
248,208,94731,2,0,P|223:241|247:301,1,110.000003356934
335,265,95242,2,0,P|308:253|274:260,1,55.0000016784668,2|0,0:0|0:0,0:0:0:0:
358,379,95583,6,0,P|356:339|430:274,1,129.999994049073,2|0,0:3|0:0,0:0:0:0:
481,260,96094,2,0,P|444:234|438:157,1,115.000002193451
486,143,96606,2,0,P|499:110|487:82,1,50,2|2,0:0|0:0,0:0:0:0:
441,80,96947,5,2,0:3:0:0:
505,38,97117,1,0,0:0:0:0:
390,91,97288,5,2,0:2:0:0:
405,42,97458,1,0,0:0:0:0:
352,124,97628,5,0,0:3:0:0:
339,104,97799,1,0,0:0:0:0:
265,9,97969,6,0,P|254:40|232:55,1,50,2|0,0:2|0:0,0:0:0:0:
88,110,98310,1,2,0:3:0:0:
143,68,98481,2,0,P|180:71|197:142,1,100
205,132,98992,2,0,P|173:139|149:123,1,50,0|0,0:3|0:0,0:0:0:0:
290,97,99333,1,2,0:2:0:0:
299,88,99503,1,0,0:0:0:0:
271,185,99674,6,0,B|293:212|293:212|326:228|355:206,1,100,2|0,0:3|0:0,0:0:0:0:
360,201,100185,2,0,B|325:206|325:206|295:227|299:263,1,100
341,302,100697,2,0,P|318:319|288:318,1,50,2|0,0:0|0:0,0:0:0:0:
172,237,101038,6,0,P|139:218|156:281,1,150,2|0,0:3|0:0,0:0:0:0:
220,205,101719,2,0,P|199:168|180:238,1,165.000005035401,0|0,0:3|0:0,0:0:0:0:
278,198,102401,2,0,P|277:152|222:207,1,179.999994506836,2|0,0:3|0:0,0:0:0:0:
251,259,103083,2,0,B|324:250|296:305|381:298,1,129.999994049073,0|2,0:3|0:0,0:0:0:0:
366,242,103594,1,0,0:0:0:0:
439,209,103765,5,6,0:3:0:0:
403,153,103935,2,0,P|369:142|310:192,1,100
316,182,104447,2,0,P|345:195|372:185,1,50,0|0,0:3|0:0,0:0:0:0:
422,94,104788,1,2,0:0:0:0:
420,82,104958,1,0,0:0:0:0:
352,25,105128,6,0,P|312:14|250:-2,1,100,2|0,0:3|0:0,0:0:0:0:
159,119,105640,2,0,P|207:106|267:91,1,110.000003356934
352,164,106151,2,0,P|360:124|367:96,1,55.0000016784668,2|0,0:0|0:0,0:0:0:0:
188,220,106492,6,0,P|231:223|276:305,1,129.999994049073,2|0,0:3|0:0,0:0:0:0:
251,380,107003,2,0,P|232:341|280:265,1,119.999996337891
317,282,107515,2,0,P|304:295|251:292,1,64.9999970245363,2|0,0:0|0:0,0:0:0:0:
195,105,107856,6,0,P|235:113|255:168,1,75.0000028610231,2|0,0:3|0:0,0:0:0:0:
264,287,108197,6,0,P|233:260|243:202,1,75.0000028610231,2|0,0:0|0:0,0:0:0:0:
317,108,108538,6,0,P|319:148|271:182,1,75.0000028610231,8|0,0:3|0:0,0:0:0:0:
159,222,108878,6,0,P|177:185|235:180,1,75.0000028610231,2|0,0:0|0:0,0:0:0:0:
346,228,109219,6,0,P|307:241|262:203,1,75.0000028610231,6|0,0:3|0:0,0:0:0:0:
272,217,109560,2,0,P|310:239|311:310,1,110.000003356934,2|0,0:0|0:0,0:0:0:0:
276,337,110072,1,0,0:0:0:0:
270,339,110242,2,0,P|235:333|207:331,1,55.0000016784668,2|0,0:0|0:0,0:0:0:0:
318,379,110583,2,0,P|362:366|432:348,1,110.000003356934,2|2,0:3|0:0,0:0:0:0:
479,375,111094,1,0,0:0:0:0:
363,300,111265,6,0,B|343:278|341:244|352:222|384:221|396:190|376:144,1,150,0|0,0:3|0:0,0:0:0:0:
320,95,111947,6,0,B|252:56|198:93|208:169|133:216|61:143,1,279.999991455078,2|0,0:3|0:3,0:0:0:0:
167,222,112799,1,0,0:0:0:0:
175,225,112969,2,0,P|189:262|172:307,1,69.9999978637696,2|0,0:0|0:0,0:0:0:0:
81,384,113310,6,0,P|139:343|219:379,1,139.999995727539,2|2,0:3|0:0,0:0:0:0:
234,315,113822,1,0,0:0:0:0:
277,348,113992,1,0,0:3:0:0:
286,310,114163,1,0,0:0:0:0:
308,322,114333,1,2,0:0:0:0:
312,305,114503,1,0,0:0:0:0:
322,306,114674,1,0,0:0:0:0:
