osu file format v14

[General]
AudioFilename: audio.mp3
AudioLeadIn: 0
PreviewTime: 92430
Countdown: 0
SampleSet: Soft
StackLeniency: 0.7
Mode: 0
LetterboxInBreaks: 0
WidescreenStoryboard: 1

[Editor]
DistanceSpacing: 1.5
BeatDivisor: 4
GridSize: 16
TimelineZoom: 1

[Metadata]
Title:Utopiosphere -Platonism-
TitleUnicode:Utopiosphere -Platonism-
Artist:Mili
ArtistUnicode:Mili
Creator:celerih
Version:Sharu's Insane
Source:Deemo
Tags:thicc bish Sharu Icekalt Nemis defiance osuskrub quanhitter39 Ultima Fox Miracle Milk
BeatmapID:1939654
BeatmapSetID:928652

[Difficulty]
HPDrainRate:5
CircleSize:4.2
OverallDifficulty:8
ApproachRate:9
SliderMultiplier:1.4
SliderTickRate:1

[Events]
//Background and Video events
0,0,"Utopiosphere BG.jpg",0,0
//Break Periods
//Storyboard Layer 0 (Background)
//Storyboard Layer 1 (Fail)
//Storyboard Layer 2 (Pass)
//Storyboard Layer 3 (Foreground)
//Storyboard Sound Samples

[TimingPoints]
130,340.909090909091,4,2,0,40,1,0
10698,-333.333333333333,4,2,0,40,0,0
11039,-125,4,2,0,60,0,0
21948,-166.666666666667,4,2,0,40,0,0
46493,340.909090909091,3,2,0,40,1,0
46493,-166.666666666667,4,2,0,40,0,0
54674,-125,4,2,0,50,0,0
70697,-333.333333333333,4,2,0,50,0,0
71038,340.909090909091,4,2,0,50,1,0
71038,-125,4,2,0,50,0,0
92515,-333.333333333333,4,2,0,40,0,0
92856,-125,4,2,0,60,0,0

[Colours]
Combo1 : 166,166,210
Combo2 : 189,214,177
Combo3 : 222,180,215
Combo4 : 221,200,172

[HitObjects]
57,76,10698,6,0,L|65:107,1,31.4999990386963,2|0,0:0|0:0,0:0:0:0:
64,106,11039,2,0,P|122:113|179:126,1,112,4|2,1:0|0:0,0:0:0:0:
116,269,11550,5,2,0:0:0:0:
105,197,11720,2,0,P|102:224|97:252,1,56,2|0,0:0|0:0,0:0:0:0:
193,218,12061,5,2,1:2:0:0:
24,282,12231,1,2,1:2:0:0:
193,218,12402,6,2,B|264:202|212:178|303:162,1,112,2|0,1:0|0:0,0:1:0:0:
349,123,12914,2,0,B|367:146|367:146|359:182,1,56,2|0,1:0|0:0,0:0:0:0:
35,81,13425,2,0,B|16:57|16:57|22:32,1,56,6|0,1:0|0:0,0:0:0:0:
97,36,13766,6,0,P|167:50|173:153,2,168,12|2|2,1:3|0:0|1:2,0:0:0:0:
35,81,14959,1,2,1:2:0:0:
193,218,15130,5,6,0:2:0:0:
193,218,15470,5,2,0:0:0:0:
146,282,15641,2,0,P|91:288|36:300,1,112,6|2,0:0|0:0,0:0:0:0:
172,375,16152,1,2,1:2:0:0:
228,320,16323,1,2,1:2:0:0:
395,347,16493,5,12,1:3:0:0:
395,347,16834,5,2,1:2:0:0:
343,288,17005,2,0,P|352:235|362:169,1,112,2|2,1:2|0:0,0:0:0:0:
458,87,17516,1,2,1:2:0:0:
435,12,17686,1,2,1:2:0:0:
205,83,17857,6,2,P|248:115|300:103,1,112,2|0,1:0|0:0,0:1:0:0:
379,101,18368,2,0,B|381:71|381:71|361:53,1,56,2|0,1:0|0:0,0:0:0:0:
193,218,18709,1,2,0:0:0:0:
193,218,18880,2,0,B|190:247|190:247|210:265,1,56,6|0,1:0|0:0,0:0:0:0:
270,215,19220,6,0,B|374:206|335:278|439:279,1,168,4|2,1:3|0:0,0:0:0:0:
418,277,20073,1,2,0:0:0:0:
481,135,20243,1,2,1:2:0:0:
426,193,20414,1,2,1:2:0:0:
481,135,20584,6,0,P|381:161|330:70,1,224,2|6,0:0|0:0,0:0:0:0:
417,78,21436,1,2,0:0:0:0:
483,41,21607,2,0,L|415:61,1,56,6|2,0:0|0:0,0:0:0:0:
56,75,24334,5,2,0:0:0:0:
56,75,24675,2,0,P|94:80|198:101,1,125.999996154785,2|0,0:0|0:0,0:0:0:0:
253,64,25357,1,2,0:0:0:0:
253,64,25698,2,0,L|293:91,1,41.9999987182618,2|0,0:0|0:0,0:0:0:0:
327,158,26039,6,0,P|360:132|398:115,1,83.9999974365235,2|2,0:0|0:0,0:0:0:0:
347,244,26720,2,0,P|308:197|248:202,1,125.999996154785,2|0,0:0|0:0,0:0:0:0:
197,264,27402,5,2,0:0:0:0:
197,264,27573,1,0,0:0:0:0:
138,214,27743,1,2,0:0:0:0:
138,214,27914,1,0,0:0:0:0:
63,240,28084,2,0,P|72:275|81:321,1,83.9999974365235,2|0,0:0|0:0,0:0:0:0:
278,360,28766,5,2,0:0:0:0:
278,360,29107,5,2,0:0:0:0:
330,300,29277,1,2,0:0:0:0:
283,235,29448,1,2,0:0:0:0:
439,147,29789,6,0,L|478:160,1,41.9999987182618,2|0,0:0|0:0,0:0:0:0:
373,98,30130,6,0,B|330:103|338:120|279:130,1,83.9999974365235,2|0,0:0|0:0,0:0:0:0:
294,126,30811,1,2,0:0:0:0:
168,41,31152,1,2,0:0:0:0:
69,155,31493,2,0,P|75:196|82:244,1,83.9999974365235,2|2,0:0|0:0,0:0:0:0:
25,290,32005,1,0,0:0:0:0:
73,347,32175,2,0,P|131:337|155:337,1,83.9999974365235,2|0,0:0|0:0,0:0:0:0:
156,337,32857,5,2,0:0:0:0:
224,306,33027,1,2,0:0:0:0:
283,235,33198,1,2,0:0:0:0:
351,266,33368,1,2,0:0:0:0:
464,307,33539,2,0,P|476:266|458:214,1,83.9999974365235,2|0,0:0|0:0,0:0:0:0:
467,227,34050,2,0,L|412:236,1,41.9999987182618,2|2,0:0|0:0,0:0:0:0:
252,132,34561,6,0,L|307:123,1,41.9999987182618,2|2,0:0|0:0,0:0:0:0:
346,71,34902,1,2,0:0:0:0:
346,71,35073,1,0,0:0:0:0:
427,158,35243,5,2,0:0:0:0:
427,158,35584,6,0,P|337:188|273:247,1,167.999994873047,2|0,0:0|0:0,0:0:0:0:
282,234,36607,2,0,L|290:282,1,41.9999987182618,2|0,0:0|0:0,0:0:0:0:
345,326,36948,5,2,0:0:0:0:
185,378,37289,1,2,0:0:0:0:
13,141,38311,5,2,0:0:0:0:
173,193,38652,1,2,0:0:0:0:
466,36,39675,5,2,0:0:0:0:
306,88,40016,1,2,0:0:0:0:
148,28,40357,1,2,0:0:0:0:
148,28,40698,2,0,P|156:69|159:87,1,41.9999987182618,2|0,0:0|0:0,0:0:0:0:
141,145,41039,2,0,P|144:186|173:224,1,83.9999974365235,2|2,0:0|0:0,0:0:0:0:
168,220,42402,2,0,P|144:186|141:145,1,83.9999974365235,2|2,0:0|0:0,0:0:0:0:
441,291,43766,6,0,P|381:299|344:308,1,83.9999974365235,2|2,0:0|0:0,0:0:0:0:
358,304,45130,2,0,P|399:295|440:290,1,83.9999974365235,2|2,0:0|0:0,0:0:0:0:
414,87,46493,6,0,B|339:87|363:134|290:141,1,125.999996154785,2|0,0:0|0:0,0:0:0:0:
235,106,47174,1,2,0:0:0:0:
235,106,47345,1,2,0:0:0:0:
235,106,47515,5,2,0:0:0:0:
105,213,47856,1,2,0:0:0:0:
102,31,48197,1,2,0:0:0:0:
102,31,48538,2,0,P|63:59|25:141,1,125.999996154785,2|0,0:0|0:0,0:0:0:0:
28,126,49220,2,0,L|43:183,1,41.9999987182618,2|0,0:0|0:0,0:0:0:0:
105,213,49561,5,2,0:0:0:0:
269,248,49902,1,2,0:0:0:0:
269,248,50243,1,2,0:0:0:0:
432,285,50583,5,2,0:0:0:0:
203,344,52629,2,0,P|197:307|193:207,1,125.999996154785,2|0,0:0|0:0,0:0:0:0:
192,218,53311,2,0,L|134:219,1,41.9999987182618,2|2,0:0|0:0,0:0:0:0:
88,261,53652,5,2,0:0:0:0:
287,349,53993,1,2,0:0:0:0:
267,132,54333,1,2,0:0:0:0:
267,132,54674,6,0,P|314:137|376:162,1,112,2|0,1:2|0:0,0:0:0:0:
102,68,55356,2,0,L|81:20,2,28,0|0|0,1:0|0:0|0:0,0:0:0:0:
102,68,55697,2,0,P|55:101|56:168,1,112,2|0,0:0|0:0,0:0:0:0:
157,313,56379,2,0,L|136:361,2,28,0|0|0,1:0|0:0|0:0,0:0:0:0:
157,313,56720,6,0,P|156:222|137:138,1,168,2|0,0:0|0:0,0:0:0:0:
286,81,57402,1,2,1:2:0:0:
264,156,57572,1,2,0:0:0:0:
264,156,57743,2,0,P|337:149|378:162,1,112,2|0,0:0|0:0,0:0:0:0:
375,322,58424,2,0,L|396:370,2,28,0|0|0,1:0|0:0|0:0,0:0:0:0:
375,322,58765,6,0,L|510:291,2,112,4|2|2,0:3|0:0|1:2,0:0:0:0:
157,313,59788,2,0,P|215:319|247:363,1,112,2|2,0:0|0:0,0:0:0:0:
361,185,60470,2,0,L|382:137,2,28,0|0|0,1:0|0:0|0:0,0:0:0:0:
361,185,60811,5,2,0:0:0:0:
251,89,61152,1,2,0:0:0:0:
251,89,61493,2,0,P|215:91|177:98,1,56,2|0,1:2|0:0,0:0:0:0:
138,147,61833,2,0,P|94:112|34:128,1,112,2|2,0:0|0:0,0:0:0:0:
42,121,62515,1,2,1:2:0:0:
155,334,62856,6,0,B|287:344|209:249|370:253,1,224,4|0,0:3|1:0,0:0:0:0:
486,214,63879,2,0,P|410:190|393:112,1,168,2|0,0:0|0:0,0:0:0:0:
451,64,64561,1,2,1:2:0:0:
451,64,64902,6,0,P|416:32|290:22,1,168,4|0,0:3|0:0,0:0:0:0:
245,67,65583,1,2,1:2:0:0:
280,137,65754,1,2,0:0:0:0:
280,137,65924,2,0,P|213:160|185:192,1,112,0|2,0:0|0:0,0:0:0:0:
127,335,66606,1,2,1:2:0:0:
127,335,66947,6,0,P|199:314|213:269,1,112,4|2,0:3|0:0,0:0:0:0:
340,201,67629,1,2,1:2:0:0:
457,304,67970,1,2,0:0:0:0:
457,304,68311,2,0,P|455:249|464:191,1,112,2|2,0:0|1:2,0:0:0:0:
473,43,68993,6,0,B|352:41|411:132|267:137,1,224,4|0,0:3|1:0,0:0:0:0:
279,136,70015,1,2,0:0:0:0:
85,328,70697,6,0,L|79:304,1,20.9999993591309,2|0,0:0|0:0,0:0:0:0:
79,307,71038,6,0,P|154:317|205:327,1,112,2|0,1:2|0:0,0:0:0:0:
347,318,71719,1,2,1:2:0:0:
347,318,72060,2,0,L|359:283,3,28,2|2|2|2,0:0|0:0|0:0|0:0,0:0:0:0:
347,318,72401,5,2,1:2:0:0:
239,203,72742,1,2,0:0:0:0:
347,89,73083,2,0,P|299:98|210:108,1,112,2|2,1:2|0:0,0:0:0:0:
169,70,73594,1,2,0:0:0:0:
31,82,73765,6,0,P|96:103|107:210,1,168,2|0,1:2|0:0,0:0:0:0:
63,250,74447,1,2,1:2:0:0:
179,345,74788,2,0,B|165:318|165:318|188:280,1,56,2|0,0:0|0:0,0:0:0:0:
251,321,75128,6,0,P|324:334|377:351,1,112,2|2,1:2|0:0,0:0:0:0:
416,292,75640,1,2,0:0:0:0:
378,230,75810,1,2,1:2:0:0:
378,230,76151,1,2,0:0:0:0:
432,173,76322,1,2,0:0:0:0:
381,113,76492,6,0,P|371:80|363:40,1,56,2|0,1:2|0:0,0:0:0:0:
298,38,76833,2,0,L|262:72,3,28,2|2|2|2,0:0|0:0|0:0|0:0,0:0:0:0:
277,57,77174,2,0,P|279:119|276:182,1,112,2|2,1:2|0:0,0:0:0:0:
213,214,77685,1,2,0:0:0:0:
136,274,77856,6,0,L|149:343,1,56,2|0,1:2|0:0,0:0:0:0:
147,329,78197,2,0,P|203:333|277:349,1,112,2|2,0:0|1:2,0:0:0:0:
257,343,78878,1,2,0:0:0:0:
496,309,79219,6,0,P|419:367|353:338,1,168,2|0,1:2|0:0,0:0:0:0:
320,282,79901,1,2,1:2:0:0:
320,282,80242,1,2,0:0:0:0:
365,217,80413,1,2,0:0:0:0:
311,159,80583,6,0,P|301:116|300:89,1,56,2|0,1:2|0:0,0:0:0:0:
227,75,80924,2,0,P|196:42|182:19,1,56,2|0,0:0|0:0,0:0:0:0:
110,30,81265,1,2,1:2:0:0:
64,93,81435,1,2,0:0:0:0:
105,172,81606,1,2,0:0:0:0:
205,170,81776,1,2,0:0:0:0:
290,245,81947,6,0,P|219:268|172:287,1,112,2|0,1:2|0:0,0:0:0:0:
184,281,82628,2,0,L|191:339,1,56,2|0,1:2|0:0,0:0:0:0:
100,305,82969,2,0,L|66:269,3,28,2|2|2|2,0:0|0:0|0:0|0:0,0:0:0:0:
81,285,83310,6,0,L|13:306,1,56,2|0,1:2|0:0,0:0:0:0:
64,195,83651,2,0,L|-5:179,1,56,2|0,0:0|0:0,0:0:0:0:
28,80,83992,2,0,P|95:102|145:115,1,112,2|2,1:2|0:0,0:0:0:0:
193,60,84503,1,2,0:0:0:0:
280,147,84674,6,0,P|315:105|427:117,1,168,2|0,1:2|0:0,0:0:0:0:
451,182,85356,1,2,1:2:0:0:
451,182,85697,2,0,P|443:216|439:257,1,56,2|2,0:0|0:0,0:0:0:0:
490,298,86038,5,2,1:2:0:0:
434,353,86208,1,2,0:0:0:0:
362,320,86378,2,0,P|357:292|351:265,1,56,2|0,0:0|0:0,0:0:0:0:
273,275,86719,2,0,P|257:342|159:350,1,168,2|0,1:2|0:0,0:0:0:0:
92,337,87401,6,0,P|100:272|103:221,1,112,2|0,1:2|0:0,0:0:0:0:
32,35,88083,1,2,1:2:0:0:
32,35,88424,2,0,P|32:80|27:102,1,56,2|2,0:0|0:0,0:0:0:0:
85,146,88765,5,2,1:2:0:0:
223,32,89106,1,2,0:0:0:0:
287,199,89447,1,2,1:2:0:0:
287,199,90128,6,2,B|365:194|343:136|450:127,1,168,2|0,1:0|0:0,0:1:0:0:
501,171,90810,1,2,1:2:0:0:
428,31,91151,2,0,P|397:14|363:4,1,56,2|2,0:1|0:0,0:0:0:0:
310,48,91492,6,2,P|223:55|204:178,1,224,6|4,1:0|1:3,0:1:0:0:
454,307,92515,6,0,L|446:276,1,31.4999990386963,2|0,0:0|0:0,0:0:0:0:
446,276,92856,2,0,P|388:269|331:256,1,112,4|2,1:0|1:2,0:0:0:0:
410,90,93367,5,2,0:0:0:0:
408,171,93538,2,0,P|401:149|394:107,1,56,2|0,0:0|0:0,0:0:0:0:
319,166,93878,5,2,1:2:0:0:
488,100,94048,1,2,1:2:0:0:
319,166,94219,6,0,B|254:176|293:206|209:222,1,112,6|0,1:0|0:0,0:0:0:0:
158,261,94731,2,0,B|140:238|140:238|148:202,1,56,2|0,1:0|0:0,0:0:0:0:
483,303,95242,2,0,B|502:327|502:327|496:352,1,56,6|0,1:0|0:0,0:0:0:0:
422,346,95583,6,0,P|352:332|346:229,2,168,12|2|2,1:3|1:2|1:2,0:0:0:0:
483,303,96776,1,2,1:2:0:0:
319,166,96947,5,6,0:0:0:0:
319,166,97287,5,2,1:2:0:0:
365,102,97458,2,0,P|420:95|475:83,1,112,6|2,1:2|0:0,0:0:0:0:
311,36,97969,2,0,P|284:39|257:46,1,56,0|0,1:0|1:0,0:0:0:0:
43,35,98310,6,0,P|71:96|126:97,1,112,4|2,1:3|0:0,0:0:0:0:
191,102,98822,2,0,L|172:221,1,112,2|2,1:2|0:0,0:0:0:0:
54,297,99333,1,2,1:2:0:0:
77,372,99503,1,2,1:2:0:0:
307,301,99674,6,0,P|264:269|212:281,1,112,6|0,1:0|0:0,0:0:0:0:
133,283,100185,2,0,B|131:313|131:313|151:331,1,56,2|0,1:0|0:0,0:0:0:0:
483,204,100697,2,0,B|486:175|486:175|466:157,1,56,6|0,1:0|0:0,0:0:0:0:
405,208,101037,6,0,B|314:217|351:128|236:144,1,168,4|2,1:2|0:0,0:0:0:0:
188,115,101719,2,0,P|151:149|79:156,1,112,2|2,1:2|0:0,0:0:0:0:
186,240,102231,1,2,1:2:0:0:
80,290,102401,6,0,P|180:264|230:355,1,224,6|2,1:0|0:0,0:0:0:0:
147,343,103253,1,2,0:0:0:0:
79,381,103424,2,0,P|112:373|147:361,1,56,2|2,1:2|0:0,0:0:0:0:
388,207,103765,6,0,P|336:220|264:243,1,112,4|2,1:0|0:0,0:0:0:0:
153,143,104276,1,2,0:0:0:0:
175,218,104447,1,2,0:0:0:0:
280,98,104617,5,2,0:0:0:0:
44,213,104788,5,2,1:2:0:0:
176,305,104958,1,2,1:2:0:0:
236,158,105128,2,0,P|229:72|229:21,1,112,6|0,1:0|0:0,0:0:0:0:
340,178,105640,2,0,P|376:100|402:55,1,112,2|0,1:0|0:0,0:0:0:0:
420,247,106151,2,0,P|455:222|477:209,1,56,2|0,1:0|0:0,0:0:0:0:
264,290,106492,6,0,P|341:301|417:354,2,168,6|2|2,1:0|0:1|1:0,0:0:0:0:
264,290,107856,6,0,P|249:265|237:240,1,56,2|0,1:0|0:0,0:0:0:0:
135,282,108197,2,0,P|106:281|79:283,1,56,2|0,1:0|0:0,0:0:0:0:
340,178,108538,2,0,P|357:155|369:130,1,56,2|0,1:0|0:0,0:0:0:0:
212,156,108878,1,2,1:2:0:0:
212,156,109219,6,0,P|157:100|106:101,1,112,4|2,1:0|0:0,0:0:0:0:
117,215,109731,1,2,0:2:0:0:
80,283,109901,1,2,0:2:0:0:
129,344,110072,1,2,0:2:0:0:
290,305,110242,5,2,1:2:0:0:
183,278,110413,1,2,1:2:0:0:
290,305,110583,6,0,P|342:256|448:282,1,168,4|2,1:0|0:0,0:0:0:0:
496,151,111265,2,2,P|416:165|353:113,1,168,2|2,1:0|0:0,1:0:0:0:
277,15,111947,6,2,P|391:-3|440:86,1,224,6|0,1:0|1:0,1:0:0:0:
299,189,112969,1,2,1:0:0:0:
428,313,113310,2,2,P|374:323|304:344,1,112,6|2,1:0|1:2,1:0:0:0:
257,298,113822,1,2,0:0:0:0:
305,236,113992,1,2,1:2:0:0:
247,182,114163,1,2,0:0:0:0:
172,260,114333,6,0,P|167:233|160:206,2,56,2|0|0,0:0|0:0|0:0,0:0:0:0:
