osu file format v14

[General]
AudioFilename: audio.mp3
AudioLeadIn: 0
PreviewTime: 92430
Countdown: 0
SampleSet: Soft
StackLeniency: 0.7
Mode: 0
LetterboxInBreaks: 0
WidescreenStoryboard: 0

[Editor]
DistanceSpacing: 1.5
BeatDivisor: 4
GridSize: 16
TimelineZoom: 1

[Metadata]
Title:Utopiosphere -Platonism-
TitleUnicode:Utopiosphere -Platonism-
Artist:Mili
ArtistUnicode:Mili
Creator:celerih
Version:Insane
Source:Deemo
Tags:thicc bish Sharu Icekalt Nemis defiance osuskrub quanhitter39 Ultima Fox Miracle Milk
BeatmapID:1939652
BeatmapSetID:928652

[Difficulty]
HPDrainRate:6
CircleSize:4.8
OverallDifficulty:8.2
ApproachRate:8.4
SliderMultiplier:1.3
SliderTickRate:1

[Events]
//Background and Video events
0,0,"Utopiosphere BG.jpg",0,0
//Break Periods
//Storyboard Layer 0 (Background)
//Storyboard Layer 1 (Fail)
//Storyboard Layer 2 (Pass)
//Storyboard Layer 3 (Foreground)
//Storyboard Sound Samples

[TimingPoints]
130,340.909090909091,4,2,0,60,1,0
10698,-71.4285714285714,4,2,0,60,0,0
10953,-100,4,2,0,5,0,0
11039,-100,4,2,0,60,0,0
46493,340.909090909091,3,2,0,60,1,0
71038,340.909090909091,4,2,0,60,1,0
71038,-142.857142857143,4,2,0,60,0,0
91492,-142.857142857143,4,2,0,30,0,0
92174,-58.8235294117647,4,2,0,60,0,0
92770,-58.8235294117647,4,2,0,5,0,0
92856,-76.9230769230769,4,2,0,60,0,1
114674,-100,4,2,0,60,0,0

[Colours]
Combo1 : 166,166,210
Combo2 : 189,214,177
Combo3 : 222,180,215
Combo4 : 221,200,172

[HitObjects]
129,260,130,5,0,0:0:0:0:
34,228,470,1,2,0:0:0:0:
232,110,1493,5,0,0:0:0:0:
244,156,1834,1,0,0:0:0:0:
333,362,2858,5,0,0:0:0:0:
353,263,3198,1,2,0:0:0:0:
174,254,4220,5,0,0:0:0:0:
116,150,4561,1,2,0:0:0:0:
309,30,5584,5,0,0:0:0:0:
286,55,5925,1,0,0:0:0:0:
53,131,6948,5,0,0:0:0:0:
68,143,7289,1,0,0:0:0:0:
313,253,8311,5,0,0:0:0:0:
366,156,8652,1,2,0:0:0:0:
168,209,9675,5,0,0:0:0:0:
208,323,10016,1,2,0:0:0:0:
454,243,10698,6,0,P|466:179|482:107,1,136.499995834351,2|0,0:0|0:0,0:0:0:0:
448,114,11039,6,0,P|395:176|286:164,1,195,4|2,1:0|0:0,0:0:0:0:
222,87,11720,2,0,P|228:49|233:10,1,65,2|0,0:0|0:0,0:0:0:0:
254,17,12061,1,2,1:2:0:0:
197,91,12232,1,2,1:2:0:0:
266,207,12402,6,0,P|272:247|276:285,1,65,2|0,1:0|0:0,0:0:0:0:
291,284,12743,1,0,0:0:0:0:
298,181,12914,1,0,0:0:0:0:
323,156,13425,1,6,1:0:0:0:
194,349,13766,6,0,B|146:356|68:338|126:322|49:302|0:307,1,195,12|2,1:3|0:0,0:0:0:0:
0,273,14448,1,0,0:0:0:0:
130,191,14789,5,2,1:2:0:0:
210,241,14959,1,2,1:2:0:0:
133,171,15130,6,0,P|122:102|109:32,1,130,6|2,0:2|0:0,0:0:0:0:
140,30,15641,1,6,0:0:0:0:
208,123,15811,1,0,0:0:0:0:
218,87,15982,1,2,0:0:0:0:
141,62,16152,2,0,P|105:69|75:77,1,65,2|2,1:2|1:2,0:0:0:0:
309,179,16493,6,0,P|413:191|517:212,1,195,12|2,1:3|1:2,0:0:0:0:
493,175,17175,2,0,P|431:188|402:261,1,130,0|2,0:0|1:2,0:0:0:0:
301,174,17686,1,2,1:2:0:0:
286,161,17857,6,0,P|354:124|475:290,1,325,2|2,1:0|0:0,0:0:0:0:
311,370,18880,1,6,1:0:0:0:
490,364,19220,6,0,P|348:349|148:304,1,325,4|2,1:3|0:0,0:0:0:0:
136,235,20243,1,2,1:2:0:0:
161,284,20414,1,2,1:2:0:0:
272,121,20584,5,2,0:0:0:0:
232,244,20755,1,0,0:0:0:0:
238,140,20925,5,0,0:0:0:0:
293,199,21095,1,0,0:0:0:0:
206,267,21266,6,0,P|198:232|187:189,1,65,6|2,0:0|0:0,0:0:0:0:
295,316,21607,2,0,P|281:341|266:374,1,65,6|2,0:0|0:0,0:0:0:0:
234,369,21948,6,0,P|267:337|365:351,1,130,0|0,0:0|0:0,0:0:0:0:
486,286,22630,1,0,0:0:0:0:
271,164,23311,5,0,0:0:0:0:
281,235,23482,2,0,P|287:200|296:168,1,65,0|0,0:0|0:0,0:0:0:0:
234,115,23823,1,0,0:0:0:0:
251,155,23993,1,0,0:0:0:0:
300,185,24164,1,0,0:0:0:0:
383,167,24334,1,2,0:0:0:0:
417,86,24505,1,0,0:0:0:0:
397,71,24675,6,0,P|403:105|411:147,2,65,2|0|0,0:0|0:0|0:0,0:0:0:0:
464,5,25357,1,2,0:0:0:0:
315,100,26039,6,0,P|346:107|392:120,2,65,2|0|2,0:0|0:0|0:0,0:0:0:0:
234,20,26720,2,0,P|172:40|90:54,1,130,2|0,0:0|0:0,0:0:0:0:
47,214,27402,5,2,0:0:0:0:
71,290,27573,1,0,0:0:0:0:
56,196,27743,2,0,P|72:164|84:129,1,65,2|0,0:0|0:0,0:0:0:0:
108,152,28084,2,0,P|114:103|-10:88,1,195,2|0,0:0|0:0,0:0:0:0:
109,235,28766,5,2,0:0:0:0:
220,171,29107,1,2,0:0:0:0:
284,220,29277,1,2,0:0:0:0:
272,188,29448,1,2,0:0:0:0:
216,349,29789,1,2,0:0:0:0:
225,331,29959,1,0,0:0:0:0:
111,367,30130,6,0,P|76:371|25:380,2,65,2|0|0,0:0|0:0|0:0,0:0:0:0:
74,257,30811,1,2,0:0:0:0:
170,17,31493,6,0,P|176:49|181:82,2,65,2|0|2,0:0|0:0|0:0,0:0:0:0:
418,216,32857,6,0,P|449:208|493:200,2,65,2|2|2,0:0|0:0|0:0,0:0:0:0:
346,158,33368,2,0,P|316:132|284:110,1,65,2|2,0:0|0:0,0:0:0:0:
294,91,33709,6,0,B|390:68|474:154|439:285|336:302|336:302|258:314|162:271|236:247|123:212|42:224,1,650,0|0,0:0|0:0,0:0:0:0:
74,201,35584,5,2,0:0:0:0:
374,339,35925,1,0,0:0:0:0:
132,346,36948,5,2,0:0:0:0:
375,265,37289,1,2,0:0:0:0:
177,181,38311,5,2,0:0:0:0:
317,218,38652,1,2,0:0:0:0:
247,35,39675,5,2,0:0:0:0:
174,88,40016,1,2,0:0:0:0:
296,160,40357,5,2,0:0:0:0:
240,347,40698,1,2,0:0:0:0:
179,261,41039,5,2,0:0:0:0:
288,11,41380,1,2,0:0:0:0:
263,251,42402,5,2,0:0:0:0:
176,102,42743,1,2,0:0:0:0:
117,367,43766,5,2,0:0:0:0:
160,255,44107,1,2,0:0:0:0:
0,333,45130,5,2,0:0:0:0:
14,357,45470,1,2,0:0:0:0:
0,201,46493,6,0,P|132:219|264:246,1,260,2|2,0:0|0:0,0:0:0:0:
155,269,47345,1,2,0:0:0:0:
263,225,47515,5,2,0:0:0:0:
266,108,47856,1,2,0:0:0:0:
152,78,48197,1,2,0:0:0:0:
91,180,48538,6,0,P|223:158|350:144,1,260,2|2,0:0|0:0,0:0:0:0:
413,209,49390,1,0,0:0:0:0:
305,68,49561,5,2,0:0:0:0:
467,113,49902,2,0,L|496:108,1,16.25,2|0,0:0|0:0,0:0:0:0:
494,96,50243,2,0,L|477:98,1,16.25,2|0,0:0|0:0,0:0:0:0:
331,257,50583,6,0,P|393:310|503:307,1,195,2|0,0:0|0:0,0:0:0:0:
502,326,51265,1,0,0:0:0:0:
441,281,51436,1,0,0:0:0:0:
341,346,51606,5,0,0:0:0:0:
254,289,51947,1,0,0:0:0:0:
145,331,52288,1,0,0:0:0:0:
83,281,52458,1,0,0:0:0:0:
19,371,52629,6,0,P|34:292|50:166,1,195,2|0,0:0|0:0,0:0:0:0:
5,120,53311,1,2,0:0:0:0:
36,193,53481,1,2,0:0:0:0:
169,236,53652,5,2,0:0:0:0:
254,70,53993,2,0,L|251:40,1,16.25,2|0,0:0|0:0,0:0:0:0:
233,37,54333,2,0,L|234:53,1,16.25,2|0,0:0|0:0,0:0:0:0:
447,217,54674,6,0,P|474:147|324:110,1,260,2|0,1:2|1:0,0:0:0:0:
357,62,55527,1,0,0:0:0:0:
512,145,55697,2,0,P|454:145|433:207,1,130,2|0,0:0|0:0,0:0:0:0:
473,41,56379,1,0,1:0:0:0:
307,270,56720,6,0,P|184:246|195:135,1,260,2|2,0:0|1:2,0:0:0:0:
168,135,57572,1,2,0:0:0:0:
234,258,57743,5,2,0:0:0:0:
69,281,58083,5,0,0:0:0:0:
301,350,58424,1,0,1:0:0:0:
138,118,58765,5,4,0:3:0:0:
238,252,59106,2,0,P|224:189|213:108,1,130,2|2,0:0|1:2,0:0:0:0:
428,243,59788,5,2,0:0:0:0:
328,377,60129,2,0,P|342:314|353:233,1,130,2|0,0:0|1:0,0:0:0:0:
452,143,60811,6,0,P|440:85|419:-6,1,130,2|2,0:0|0:0,0:0:0:0:
364,164,61493,1,2,1:2:0:0:
415,231,61663,1,0,0:0:0:0:
401,355,61833,5,2,0:0:0:0:
481,125,62174,5,2,0:0:0:0:
257,294,62515,1,2,1:2:0:0:
493,308,62856,6,0,P|420:259|314:220,1,195,4|0,0:3|0:0,0:0:0:0:
286,149,63538,1,0,1:0:0:0:
349,384,63879,6,0,P|363:316|380:256,1,130,2|0,0:0|0:0,0:0:0:0:
503,145,64561,1,2,1:2:0:0:
228,20,64902,6,0,P|270:120|352:108,1,195,4|0,0:3|0:0,0:0:0:0:
378,47,65583,1,2,1:2:0:0:
140,136,65924,5,0,0:0:0:0:
71,18,66265,5,2,0:0:0:0:
126,278,66606,1,2,1:2:0:0:
249,108,66947,5,4,0:3:0:0:
80,201,67288,2,0,P|146:188|219:181,1,130,2|2,0:0|1:2,0:0:0:0:
318,256,67970,5,2,0:0:0:0:
487,349,68311,2,0,P|421:336|348:329,1,130,2|2,0:0|1:2,0:0:0:0:
419,257,68993,6,0,P|445:153|496:4,1,260,4|0,0:3|1:0,0:0:0:0:
468,15,69845,1,0,0:0:0:0:
360,118,70015,5,2,0:0:0:0:
51,27,71038,5,2,1:2:0:0:
154,78,71378,1,0,0:0:0:0:
106,184,71719,2,0,P|96:233|91:283,1,90.9999972229005,2|2,1:2|0:0,0:0:0:0:
29,171,72231,1,2,0:0:0:0:
22,162,72316,1,2,0:0:0:0:
14,154,72401,1,2,1:2:0:0:
174,304,72742,6,0,P|167:274|160:247,1,45.4999986114502,2|0,0:0|0:0,0:0:0:0:
216,202,73083,1,2,1:2:0:0:
85,347,73594,1,2,0:0:0:0:
100,368,73765,6,0,P|94:297|83:227,1,136.499995834351,2|0,1:2|0:0,0:0:0:0:
174,71,74447,1,2,1:2:0:0:
194,216,74958,1,0,0:0:0:0:
130,168,75128,6,0,P|109:163|85:158,1,45.4999986114502,2|0,1:2|0:0,0:0:0:0:
180,57,75469,1,2,0:0:0:0:
138,297,75810,1,2,1:2:0:0:
281,182,76151,1,2,0:0:0:0:
211,217,76322,1,2,0:0:0:0:
129,185,76492,6,0,P|173:189|222:204,1,90.9999972229005,2|2,1:2|0:0,0:0:0:0:
250,324,77003,1,2,0:0:0:0:
260,314,77089,1,2,0:0:0:0:
274,308,77174,1,2,1:2:0:0:
449,347,77685,1,2,0:0:0:0:
472,351,77856,6,0,P|445:312|386:294,1,90.9999972229005,2|2,1:2|0:0,0:0:0:0:
488,226,78538,1,2,1:2:0:0:
312,116,79049,1,0,0:0:0:0:
294,102,79219,6,0,P|334:86|394:68,1,90.9999972229005,2|0,1:2|0:0,0:0:0:0:
255,25,79731,1,0,0:0:0:0:
276,22,79901,2,0,P|268:69|262:121,1,90.9999972229005,2|2,1:2|0:0,0:0:0:0:
94,289,80583,5,2,1:2:0:0:
179,99,80924,1,2,0:0:0:0:
158,191,81094,1,0,0:0:0:0:
85,66,81265,5,2,1:2:0:0:
146,176,81435,1,2,0:0:0:0:
196,111,81606,1,2,0:0:0:0:
256,166,81776,1,2,0:0:0:0:
309,115,81947,6,0,P|238:125|161:145,1,136.499995834351,2|0,1:2|0:0,0:0:0:0:
53,79,82628,2,0,P|56:31|104:25,1,90.9999972229005,2|2,1:2|0:0,0:0:0:0:
162,82,83140,1,2,0:0:0:0:
157,92,83225,1,2,0:0:0:0:
154,104,83310,6,0,P|165:152|175:200,1,90.9999972229005,2|2,1:2|0:0,0:0:0:0:
77,360,83992,2,0,P|62:319|42:275,1,90.9999972229005,2|2,1:2|0:0,0:0:0:0:
148,297,84503,1,2,0:0:0:0:
162,311,84674,6,0,P|196:252|274:261,1,136.499995834351,2|0,1:2|0:0,0:0:0:0:
362,353,85356,1,2,1:2:0:0:
464,205,85867,1,2,0:0:0:0:
443,219,86038,6,0,P|436:165|426:111,1,90.9999972229005,2|2,1:2|0:0,0:0:0:0:
483,40,86549,1,0,0:0:0:0:
470,63,86719,5,2,1:2:0:0:
360,18,86890,1,0,0:0:0:0:
373,36,87060,1,0,0:0:0:0:
459,15,87231,1,0,0:0:0:0:
398,114,87401,6,0,P|404:137|409:160,1,45.4999986114502,2|0,1:2|0:0,0:0:0:0:
479,190,87742,2,0,P|483:167|489:145,1,45.4999986114502,0|0,0:0|0:0,0:0:0:0:
416,272,88083,2,0,P|369:252|329:239,1,90.9999972229005,2|2,1:2|0:0,0:0:0:0:
347,222,88594,1,2,0:0:0:0:
203,306,88765,5,2,1:2:0:0:
141,197,89106,1,2,0:0:0:0:
243,107,89447,1,2,1:2:0:0:
355,185,90128,6,0,P|288:194|220:210,1,136.499995834351,2|0,1:0|0:0,0:0:0:0:
154,239,90810,2,0,P|137:194|116:150,1,90.9999972229005,2|2,1:2|0:1,0:0:0:0:
154,87,91322,1,2,0:0:0:0:
103,28,91492,2,0,L|99:7,14,11.3749996528626,6|0|0|0|0|0|0|0|0|0|0|0|0|0|0,1:0|0:0|0:0|0:0|0:0|0:0|0:0|0:0|0:0|0:0|0:0|0:0|0:0|0:0|0:0,0:0:0:0:
9,114,92174,6,0,B|118:104|220:143|169:164|275:216|389:195,1,386.750007376671,4|0,1:3|0:0,0:0:0:0:
379,231,92856,6,0,P|270:243|241:372,1,253.499988395691,4|2,1:0|0:0,0:0:0:0:
315,373,93538,1,2,0:0:0:0:
155,186,93878,1,2,1:2:0:0:
97,248,94049,1,2,1:2:0:0:
21,241,94219,6,0,P|93:160|227:203,1,253.499988395691,6|2,1:0|1:0,0:0:0:0:
214,161,94901,1,0,0:0:0:0:
33,17,95242,2,0,P|43:59|51:103,1,84.4999961318971,6|0,1:0|0:0,0:0:0:0:
150,260,95583,2,0,P|172:188|192:87,1,168.999992263794,4|0,1:3|0:0,0:0:0:0:
207,120,96094,1,2,1:2:0:0:
382,241,96265,1,0,0:0:0:0:
314,158,96606,1,2,1:2:0:0:
356,228,96776,1,2,1:2:0:0:
438,238,96947,5,6,0:0:0:0:
167,284,97288,2,0,B|241:276|353:308|296:336|416:367|502:356,1,337.999984527589,2|0,1:2|1:0,0:0:0:0:
451,378,98140,1,0,1:0:0:0:
348,210,98310,5,4,1:3:0:0:
442,31,98651,2,0,P|473:116|285:129,1,337.999984527589,2|2,0:0|1:2,0:0:0:0:
297,188,99503,1,2,1:2:0:0:
187,37,99674,5,6,1:0:0:0:
160,260,100015,1,0,0:0:0:0:
138,272,100185,2,0,P|121:188|98:98,1,168.999992263794,2|0,1:0|0:0,0:0:0:0:
200,41,100697,1,6,1:0:0:0:
37,250,101038,6,0,P|156:224|288:204,1,253.499988395691,4|2,1:2|0:0,0:0:0:0:
303,180,101719,2,0,P|177:198|53:223,1,253.499988395691,2|2,1:2|1:2,0:0:0:0:
76,197,102401,6,0,P|67:154|54:108,1,84.4999961318971,6|0,1:0|0:0,0:0:0:0:
182,178,102742,2,0,P|170:218|162:260,1,84.4999961318971,0|0,0:0|0:0,0:0:0:0:
229,357,103083,1,2,0:0:0:0:
166,138,103424,1,2,1:2:0:0:
227,100,103594,1,2,0:0:0:0:
242,25,103765,5,4,1:0:0:0:
372,222,104106,1,2,0:0:0:0:
355,188,104276,1,2,0:0:0:0:
381,163,104447,1,2,0:0:0:0:
363,133,104617,1,2,0:0:0:0:
375,116,104788,2,0,P|367:159|360:219,1,84.4999961318971,2|2,1:2|1:2,0:0:0:0:
512,18,105128,6,0,P|445:36|340:44,1,168.999992263794,6|0,1:0|0:0,0:0:0:0:
318,15,105640,1,2,1:0:0:0:
273,41,105810,1,0,0:0:0:0:
208,15,105981,1,0,0:0:0:0:
175,75,106151,1,2,1:0:0:0:
97,268,106492,6,0,P|112:204|214:211,1,168.999992263794,6|0,1:0|0:0,0:0:0:0:
205,163,107003,1,2,0:1:0:0:
234,197,107174,1,0,0:0:0:0:
303,211,107344,1,0,0:0:0:0:
373,156,107515,1,2,1:0:0:0:
256,15,107856,6,0,P|243:59|339:86,1,168.999992263794,2|2,1:0|1:0,0:0:0:0:
161,182,108538,2,0,P|165:244|335:318,1,253.499988395691,2|0,1:0|0:0,0:0:0:0:
293,353,109219,5,4,1:0:0:0:
82,263,109560,1,2,0:0:0:0:
101,277,109731,1,2,0:2:0:0:
27,298,109901,1,2,0:2:0:0:
99,306,110072,1,2,0:2:0:0:
141,217,110242,1,2,1:2:0:0:
88,171,110413,1,2,1:2:0:0:
192,310,110583,6,0,B|254:307|330:260|276:248|348:201|436:200,1,253.499988395691,4|2,1:0|0:0,0:0:0:0:
463,249,111265,1,2,1:0:0:0:
476,275,111435,1,0,0:0:0:0:
491,255,111606,1,0,0:0:0:0:
479,228,111776,1,2,0:0:0:0:
355,98,111947,6,0,P|277:62|187:32,1,168.999992263794,6|0,1:0|0:0,0:0:0:0:
229,15,112458,1,0,0:0:0:0:
291,105,112628,1,0,1:0:0:0:
284,72,112799,1,0,0:0:0:0:
304,10,112969,1,2,1:0:0:0:
259,84,113140,1,0,0:0:0:0:
380,241,113310,6,0,P|391:160|414:60,1,168.999992263794,6|2,1:0|1:2,0:0:0:0:
372,95,113822,1,2,0:0:0:0:
508,245,113992,2,0,P|498:195|481:140,1,84.4999961318971,2|2,1:2|0:0,0:0:0:0:
314,356,114333,2,0,P|353:330|395:309,1,84.4999961318971,2|0,0:0|0:0,0:0:0:0:
368,301,114674,5,0,0:0:0:0:
