osu file format v14

[General]
AudioFilename: 12_Utopiosphere_-Platonism-.mp3
AudioLeadIn: 0
PreviewTime: 92470
Countdown: 0
SampleSet: Soft
StackLeniency: 0.7
Mode: 2
LetterboxInBreaks: 0
WidescreenStoryboard: 0

[Editor]
DistanceSpacing: 1
BeatDivisor: 4
GridSize: 8
TimelineZoom: 2

[Metadata]
Title:Utopiosphere -Platonism-
TitleUnicode:Utopiosphere -Platonism-
Artist:Mili
ArtistUnicode:Mili
Creator:Benny-
Version:Nelly's Cup
Source:Deemo
Tags:Nelly Tyrell Benny BennyBananas Miracle Milk rayark projectmili
BeatmapID:1113463
BeatmapSetID:522132

[Difficulty]
HPDrainRate:4
CircleSize:2
OverallDifficulty:5.5
ApproachRate:5.5
SliderMultiplier:0.9
SliderTickRate:1

[Events]
//Background and Video events
0,0,"NEWERBG.jpg",0,0
//Break Periods
//Storyboard Layer 0 (Background)
//Storyboard Layer 1 (Fail)
//Storyboard Layer 2 (Pass)
//Storyboard Layer 3 (Foreground)
//Storyboard Sound Samples

[TimingPoints]
130,340.909090909091,4,2,1,20,1,0
4561,-100,4,2,2,20,0,0
5584,-100,4,2,1,20,0,0
10016,-100,4,2,2,20,0,0
10698,-100,4,2,1,40,0,0
11039,-83.3333333333333,4,2,1,60,0,1
21948,-100,4,2,1,40,0,0
46493,340.909090909091,3,2,1,50,1,0
50583,-125,3,2,1,40,0,0
52629,-125,3,2,1,50,0,0
54674,-100,3,2,1,60,0,0
71038,340.909090909091,4,2,1,50,1,0
90128,-100,4,2,1,60,0,0
90810,-100,4,2,1,75,0,0
91492,-100,4,2,1,80,0,0
92174,-100,4,2,1,85,0,0
92856,-66.6666666666667,4,2,1,60,0,1
103424,-66.6666666666667,4,2,1,60,0,0
103765,-66.6666666666667,4,2,1,90,0,1
109219,-100,4,2,1,90,0,1
113310,-133.333333333333,4,2,1,90,0,1
114674,-100,4,2,1,20,0,0
117401,-100,4,2,1,15,0,0
120128,-100,4,2,1,10,0,0
122856,-100,4,2,1,5,0,0
125413,-100,4,2,1,5,0,0

[Colours]
Combo1 : 128,128,192
Combo2 : 189,214,177
Combo3 : 222,180,215
Combo4 : 199,174,141

[HitObjects]
128,256,130,5,2,0:0:0:0:
272,248,470,2,2,P|320:216|224:88,1,270,0|2,0:0|0:0,0:0:0:0:
72,128,1834,6,2,P|48:152|160:288,1,270,2|2,0:0|0:0,0:0:0:0:
320,272,3198,6,2,P|352:216|208:104,1,270,2|2,0:0|0:0,0:0:0:0:
64,128,4561,5,2,0:0:0:0:
184,264,4902,2,0,P|256:272|296:176,1,180,2|2,0:0|0:0,0:0:0:0:
128,144,5925,6,2,P|136:112|336:88,1,270,0|2,0:0|0:0,0:0:0:0:
192,96,7289,6,2,P|80:176|96:304,1,270
224,176,8652,6,2,P|232:152|416:184,1,270,2|2,0:0|0:0,0:0:0:0:
336,176,10016,5,2,0:0:0:0:
224,128,10357,2,0,L|208:224,1,90,2|8,0:0|0:0,0:0:0:0:
376,224,11039,6,0,P|488:176|360:112,1,323.999990112305,6|2,0:0|0:0,0:0:0:0:
208,112,12402,2,0,L|86:5,2,161.999995056153,2|8|8,0:0|0:0|0:0,0:0:0:0:
360,128,13766,6,0,L|504:48,2,161.999995056153,6|8|2,0:0|0:0|0:0,0:0:0:0:
216,336,15130,2,0,P|176:184|304:104,1,323.999990112305,2|8,0:0|0:0,0:0:0:0:
432,144,16493,6,0,L|496:304,2,161.999995056153,6|8|2,0:0|0:0|0:0,0:0:0:0:
264,144,17857,2,0,L|175:278,2,161.999995056153,2|8|8,0:0|0:0|0:0,0:0:0:0:
456,128,19220,6,0,P|488:208|328:352,1,323.999990112305,6|8,0:0|0:0,0:0:0:0:
192,352,20584,1,2,0:0:0:0:
344,352,21266,1,8,0:0:0:0:
192,384,21948,6,0,P|256:156|320:384,1,630,6|2,0:0|0:0,0:0:0:0:
424,192,24675,6,0,L|228:192,1,180,2|0,0:0|0:0,0:0:0:0:
352,192,25698,1,0,0:0:0:0:
240,192,26039,6,0,L|144:192,3,90,2|0|0|0,0:0|0:0|0:0|0:0,0:0:0:0:
256,192,27402,5,2,0:0:0:0:
416,192,28084,1,0,0:0:0:0:
176,192,28766,5,2,0:0:0:0:
288,192,29107,1,0,0:0:0:0:
400,192,29448,1,0,0:0:0:0:
288,192,29789,1,0,0:0:0:0:
176,192,30130,6,0,L|384:192,1,180,2|0,0:0|0:0,0:0:0:0:
240,192,31152,1,0,0:0:0:0:
128,192,31493,6,0,L|224:192,3,90,2|0|0|0,0:0|0:0|0:0|0:0,0:0:0:0:
112,192,32857,5,2,0:0:0:0:
336,192,33539,1,0,0:0:0:0:
160,192,34220,6,0,L|144:288,1,90,2|0,0:0|0:0,0:0:0:0:
256,240,34902,2,0,L|272:336,1,90,0|0,0:0|0:0,0:0:0:0:
408,192,35584,5,2,0:0:0:0:
312,192,35925,2,0,P|248:224|312:272,1,180,2|0,0:0|0:0,0:0:0:0:
408,272,36948,2,0,L|498:272,1,90,2|2,0:0|0:0,0:0:0:0:
128,96,38311,5,2,0:0:0:0:
32,96,38652,2,0,P|16:176|96:208,1,180,2|0,0:0|0:0,0:0:0:0:
192,208,39675,2,0,L|288:208,1,90,2|0,0:0|0:0,0:0:0:0:
368,288,40357,2,0,L|272:288,1,90,2|0,0:0|0:0,0:0:0:0:
136,288,41039,5,2,0:0:0:0:
48,288,41380,2,0,L|240:288,1,180,2|0,0:0|0:0,0:0:0:0:
160,208,42402,2,0,L|64:208,1,90,2|2,0:0|0:0,0:0:0:0:
288,120,43766,5,2,0:0:0:0:
416,64,44107,2,0,P|480:112|368:240,1,270,2|2,0:0|0:0,0:0:0:0:
232,144,45470,1,2,0:0:0:0:
320,208,46493,6,0,P|420:256|320:304,1,270,2|2,0:0|0:0,0:0:0:0:
212,288,47856,2,0,L|308:288,1,90,2|2,0:0|0:0,0:0:0:0:
176,208,48538,6,0,P|76:256|176:304,1,270,2|2,0:0|0:0,0:0:0:0:
300,288,49902,2,0,L|204:288,1,90,8|8,0:0|0:0,0:0:0:0:
332,288,50583,6,0,P|416:256|432:128,1,216,2|2,0:0|0:0,0:0:0:0:
336,128,51947,2,0,L|416:128,1,72,2|2,0:0|0:0,0:0:0:0:
304,128,52629,6,0,P|256:81|124:118,1,216,2|2,0:0|0:0,0:0:0:0:
32,128,53993,2,0,L|104:128,1,72,8|8,0:0|0:0,0:0:0:0:
256,304,54674,6,0,L|128:144,1,180,2|8,0:0|0:0,0:0:0:0:
48,160,55697,2,0,L|240:160,1,180,2|8,0:0|0:0,0:0:0:0:
368,160,56720,2,0,P|432:208|368:256,1,180,2|2,0:0|0:0,0:0:0:0:
240,256,57743,1,2,0:0:0:0:
64,224,58765,6,0,P|16:200|128:128,1,270,2|2,0:0|0:0,0:0:0:0:
224,160,60129,2,0,P|264:152|240:248,1,180,0|2,0:0|0:0,0:0:0:0:
48,256,61493,2,0,L|144:256,1,90,8|2,0:0|0:0,0:0:0:0:
288,304,62856,6,0,P|229:252|293:206,1,180,2|10,0:0|0:0,0:0:0:0:
400,304,63879,2,0,P|464:240|400:192,1,180,2|8,0:0|0:0,0:0:0:0:
304,192,64902,2,0,P|208:128|224:64,1,180,2|8,0:0|0:0,0:0:0:0:
304,48,65924,1,2,0:0:0:0:
128,192,66947,6,0,P|80:168|184:136,1,270,2|2,0:0|0:0,0:0:0:0:
288,128,68311,2,0,P|328:120|304:216,1,180,0|2,0:0|0:0,0:0:0:0:
112,224,69674,2,0,L|208:224,1,90,8|8,0:0|0:0,0:0:0:0:
288,192,70697,5,0,0:0:0:0:
384,192,71038,2,0,L|112:192,1,270,2|0,0:0|0:0,0:0:0:0:
224,192,72401,2,0,L|352:256,2,135,2|0|0,0:0|0:0|0:0,0:0:0:0:
112,192,73765,6,0,L|32:80,2,135,2|0|0,0:0|0:0|0:0,0:0:0:0:
224,192,75128,2,0,P|288:240|224:288,1,180,2|8,0:0|0:0,0:0:0:0:
128,288,76151,1,0,0:0:0:0:
240,288,76492,6,0,P|320:184|352:48,1,270,2|0,0:0|0:0,0:0:0:0:
224,32,77856,2,0,L|80:32,2,135,2|0|0,0:0|0:0|0:0,0:0:0:0:
336,32,79219,6,0,P|400:64|336:112,1,180,2|8,0:0|0:0,0:0:0:0:
159,288,80583,2,0,P|74:199|160:112,1,270,2|0,0:0|0:0,0:0:0:0:
304,112,81947,6,0,P|328:64|176:32,1,270,2|0,0:0|0:0,0:0:0:0:
48,32,83310,1,2,0:0:0:0:
224,48,83992,2,0,L|336:48,1,90,8|0,0:0|0:0,0:0:0:0:
192,176,84674,6,0,L|56:176,2,135,2|0|0,0:0|0:0|0:0,0:0:0:0:
320,176,86038,2,0,P|400:232|432:312,1,180,2|8,0:0|0:0,0:0:0:0:
216,320,87401,5,2,0:0:0:0:
432,192,88083,1,8,0:0:0:0:
256,192,88765,2,0,L|144:48,1,180,2|8,0:0|0:0,0:0:0:0:
256,192,90128,12,0,92174,0:0:0:0:
352,304,92856,6,0,P|384:240|232:296,1,405.000015449525,6|2,0:0|0:0,0:0:0:0:
368,304,94219,2,0,L|488:128,2,202.500007724762,2|8|8,0:0|0:0|0:0,0:0:0:0:
224,304,95583,6,0,L|104:128,2,202.500007724762,6|8|8,0:0|0:0|0:0,0:0:0:0:
368,304,96947,2,0,P|432:256|336:128,1,270.000010299683,2|0,0:0|0:0,0:0:0:0:
192,128,97969,1,8,0:0:0:0:
336,128,98310,6,0,P|400:160|240:280,1,405.000015449525,6|2,0:0|0:0,0:0:0:0:
128,176,99674,2,0,L|8:0,2,202.500007724762,2|8|8,0:0|0:0|0:0,0:0:0:0:
272,64,101038,6,0,P|360:168|410:295,1,270.000010299683,6|8,0:0|0:0,0:0:0:0:
121,112,102401,2,0,L|96:256,1,135.000005149842,6|0,0:0|0:0,0:0:0:0:
256,192,103083,2,0,L|296:320,1,135.000005149842,8|8,0:0|0:0,0:0:0:0:
144,336,103765,6,0,P|64:304|224:216,1,405.000015449525,6|2,0:0|0:0,0:0:0:0:
368,192,105128,2,0,L|471:366,2,202.500007724762,2|8|8,0:0|0:0|0:0,0:0:0:0:
192,224,106492,6,0,L|48:64,2,202.500007724762,6|8|8,0:0|0:0|0:0,0:0:0:0:
368,240,107856,2,0,P|464:224|440:72,1,270.000010299683,2|8,0:0|0:0,0:0:0:0:
328,64,108878,1,8,0:0:0:0:
208,64,109219,6,0,P|89:168|209:272,1,360,6|2,0:0|0:0,0:0:0:0:
384,224,111265,1,8,0:0:0:0:
176,224,111947,6,0,P|45:138|156:27,1,360,6|6,0:0|0:0,0:0:0:0:
368,32,113992,1,0,0:0:0:0:
256,192,114674,12,0,125413,0:0:0:0:
