osu file format v14

[General]
AudioFilename: 12_Utopiosphere_-Platonism-.mp3
AudioLeadIn: 0
PreviewTime: 92470
Countdown: 0
SampleSet: Soft
StackLeniency: 0.7
Mode: 2
LetterboxInBreaks: 0
WidescreenStoryboard: 0

[Editor]
DistanceSpacing: 0.8
BeatDivisor: 4
GridSize: 8
TimelineZoom: 2

[Metadata]
Title:Utopiosphere -Platonism-
TitleUnicode:Utopiosphere -Platonism-
Artist:Mili
ArtistUnicode:Mili
Creator:Benny-
Version:Salad
Source:Deemo
Tags:Nelly Tyrell Benny BennyBananas Miracle Milk rayark projectmili
BeatmapID:1109454
BeatmapSetID:522132

[Difficulty]
HPDrainRate:5
CircleSize:2.5
OverallDifficulty:7
ApproachRate:7
SliderMultiplier:1.5
SliderTickRate:1

[Events]
//Background and Video events
0,0,"NEWERBG.jpg",0,0
//Break Periods
2,22148,23434
//Storyboard Layer 0 (Background)
//Storyboard Layer 1 (Fail)
//Storyboard Layer 2 (Pass)
//Storyboard Layer 3 (Foreground)
//Storyboard Sound Samples

[TimingPoints]
130,340.909090909091,4,2,1,20,1,0
4561,-100,4,2,2,20,0,0
4732,-100,4,2,1,20,0,0
4902,-100,4,2,2,20,0,0
5243,-100,4,2,1,20,0,0
10016,-100,4,2,2,20,0,0
10698,-100,4,2,1,40,0,0
11039,-100,4,2,1,60,0,1
21948,-100,4,2,1,40,0,0
46493,340.909090909091,3,2,1,50,1,0
50583,-125,3,2,1,40,0,0
52629,-125,3,2,1,50,0,0
54674,-100,3,2,1,60,0,0
71038,340.909090909091,4,2,1,50,1,0
90128,-100,4,2,1,60,0,0
90810,-100,4,2,1,75,0,0
91492,-100,4,2,1,80,0,0
92174,-100,4,2,1,85,0,0
92856,-90.9090909090909,4,2,1,90,0,1
103424,-90.9090909090909,4,2,1,90,0,0
103765,-90.9090909090909,4,2,1,90,0,1
113310,-133.333333333333,4,2,1,90,0,1
113822,-100,4,2,1,90,0,1
114674,-100,4,2,1,30,0,0

[Colours]
Combo1 : 128,128,192
Combo2 : 189,214,177
Combo3 : 222,180,215
Combo4 : 199,174,141

[HitObjects]
256,288,130,5,2,0:0:0:0:
320,256,300,2,0,P|352:208|288:160,1,150,0|0,0:0|0:0,0:0:0:0:
204,160,811,1,8,0:0:0:0:
320,64,1152,1,0,0:0:0:0:
392,64,1323,1,0,0:0:0:0:
272,336,1493,6,0,P|192:276|208:176,1,150,2|2,0:0|0:0,0:0:0:0:
360,280,2175,2,0,P|416:256|448:176,1,150,8|0,0:0|0:0,0:0:0:0:
384,128,2686,1,0,0:0:0:0:
264,96,2857,6,0,P|184:96|120:192,1,150,2|2,0:0|0:0,0:0:0:0:
112,208,3368,1,0,0:0:0:0:
176,284,3539,1,8,0:0:0:0:
368,240,3880,1,0,0:0:0:0:
336,160,4050,1,0,0:0:0:0:
216,144,4220,6,0,P|208:80|288:48,1,150,2|2,0:0|0:0,0:0:0:0:
352,64,4732,1,0,0:0:0:0:
408,120,4902,1,2,0:0:0:0:
280,240,5243,1,0,0:0:0:0:
216,216,5414,1,0,0:0:0:0:
336,152,5584,5,2,0:0:0:0:
428,168,5755,2,0,P|484:224|460:280,1,150,0|0,0:0|0:0,0:0:0:0:
384,316,6266,1,8,0:0:0:0:
228,100,6607,1,0,0:0:0:0:
152,64,6777,1,0,0:0:0:0:
272,280,6948,6,0,P|364:276|412:220,2,150,2|2|8,0:0|0:0|0:0,0:0:0:0:
136,240,7970,1,0,0:0:0:0:
64,204,8141,1,0,0:0:0:0:
184,240,8311,6,0,P|232:192|248:112,1,150,2|2,0:0|0:0,0:0:0:0:
192,96,8823,1,0,0:0:0:0:
128,96,8993,1,8,0:0:0:0:
312,288,9334,2,0,L|375:246,1,75,0|0,0:0|0:0,0:0:0:0:
256,240,9675,5,2,0:0:0:0:
100,236,10016,2,0,L|223:322,1,150,2|2,0:0|0:0,0:0:0:0:
424,264,10698,1,8,0:0:0:0:
120,264,11039,6,0,P|105:207|392:104,1,450,6|2,0:0|0:0,0:0:0:0:
440,160,12232,1,0,0:0:0:0:
288,256,12402,6,0,P|240:208|296:160,1,150,2|0,0:0|0:0,0:0:0:0:
400,160,12914,2,0,P|480:120|488:64,1,150,8|0,0:0|0:0,0:0:0:0:
384,48,13425,1,8,0:0:0:0:
80,232,13766,6,0,P|32:192|80:136,1,150,6|0,0:0|0:0,0:0:0:0:
192,136,14277,2,0,P|240:72|192:32,1,150,8|0,0:0|0:0,0:0:0:0:
112,32,14789,1,2,0:0:0:0:
384,136,15130,6,0,L|289:255,1,150,2|0,0:0|0:0,0:0:0:0:
219,284,15641,1,0,0:0:0:0:
135,278,15811,1,8,0:0:0:0:
88,224,15982,1,0,0:0:0:0:
200,200,16152,2,0,L|280:200,1,75,8|8,0:0|0:0,0:0:0:0:
90,169,16493,6,0,P|61:119|131:59,1,150,6|0,0:0|0:0,0:0:0:0:
224,64,17005,2,0,P|296:80|336:144,1,150,8|0,0:0|0:0,0:0:0:0:
328,248,17516,1,2,0:0:0:0:
16,264,17857,6,0,P|32:208|112:160,1,150,2|0,0:0|0:0,0:0:0:0:
216,144,18368,2,0,P|240:96|160:64,1,150,8|0,0:0|0:0,0:0:0:0:
56,80,18880,1,8,0:0:0:0:
368,96,19220,6,0,P|416:208|208:296,1,375,6|0,0:0|0:0,0:0:0:0:
344,256,20243,2,0,L|368:176,1,75,8|0,0:0|0:0,0:0:0:0:
216,56,20584,6,0,P|152:208|368:328,1,450,2|8,0:0|0:0,0:0:0:0:
56,320,21948,1,6,0:0:0:0:
144,135,24334,5,2,0:0:0:0:
340,228,24675,2,0,P|316:275|224:327,1,150,2|0,0:0|0:0,0:0:0:0:
88,308,25357,2,0,P|84:224|136:188,1,150,0|0,0:0|0:0,0:0:0:0:
200,180,25868,1,2,0:0:0:0:
264,188,26039,5,2,0:0:0:0:
352,296,26380,1,0,0:0:0:0:
172,324,26720,2,0,P|92:268|88:200,1,150,0|0,0:0|0:0,0:0:0:0:
224,80,27402,5,2,0:0:0:0:
352,80,27743,2,0,P|448:112|480:160,2,150,0|0|0,0:0|0:0|0:0,0:0:0:0:
160,152,28766,5,2,0:0:0:0:
304,224,29107,2,0,L|374:272,2,75,0|0|0,0:0|0:0|0:0,0:0:0:0:
116,224,29789,1,0,0:0:0:0:
192,176,29959,1,0,0:0:0:0:
280,168,30130,6,0,P|136:120|136:232,1,300,2|0,0:0|0:0,0:0:0:0:
280,200,31152,1,0,0:0:0:0:
151,224,31493,5,2,0:0:0:0:
32,204,31834,1,0,0:0:0:0:
200,190,32175,2,0,P|268:230|292:294,1,150
152,288,32857,5,2,0:0:0:0:
352,300,33198,2,0,L|448:284,2,75,0|0|0,0:0|0:0|0:0,0:0:0:0:
172,296,33880,2,0,L|108:248,1,75,0|2,0:0|0:0,0:0:0:0:
188,232,34220,5,2,0:0:0:0:
332,200,34561,1,0,0:0:0:0:
384,236,34732,1,0,0:0:0:0:
396,292,34902,1,0,0:0:0:0:
352,344,35073,1,0,0:0:0:0:
172,344,35584,5,2,0:0:0:0:
324,348,35925,2,0,P|420:300|292:60,1,450,2|2,0:0|0:0,0:0:0:0:
152,88,37289,6,0,P|120:120|344:232,1,450,2|2,0:0|0:0,0:0:0:0:
180,300,38652,5,2,0:0:0:0:
344,248,39164,1,0,0:0:0:0:
368,168,39334,1,0,0:0:0:0:
316,104,39505,1,0,0:0:0:0:
232,104,39675,6,0,P|184:136|216:216,1,150,2|0,0:0|0:0,0:0:0:0:
392,204,40357,2,0,P|424:252|392:332,1,150,2|0,0:0|0:0,0:0:0:0:
104,248,41039,5,2,0:0:0:0:
256,88,41380,2,0,P|416:176|272:352,1,450,2|2,0:0|0:0,0:0:0:0:
136,72,42743,6,0,B|88:72|88:72|40:120|48:192|48:192|176:168|184:240|160:296|40:320,1,450,2|2,0:0|0:0,0:0:0:0:
224,128,44107,6,0,P|264:232|16:272,1,450,2|2,0:0|0:0,0:0:0:0:
184,240,45470,1,2,0:0:0:0:
352,288,46493,6,0,P|416:192|176:80,1,450,2|2,0:0|0:0,0:0:0:0:
112,152,47856,1,2,0:0:0:0:
168,272,48197,1,2,0:0:0:0:
320,352,48538,6,0,B|416:256|416:256|288:192|288:80|432:16,1,450,2|2,0:0|0:0,0:0:0:0:
252,192,49902,2,8,P|220:112|252:64,1,150,8|8,0:0|0:0,0:0:0:0:
448,320,50583,6,0,P|480:168|312:112,1,360,2|2,0:0|0:0,0:0:0:0:
216,168,51947,1,2,0:0:0:0:
272,272,52288,1,2,0:0:0:0:
80,160,52629,6,0,P|32:224|224:352,1,360,2|2,0:0|0:0,0:0:0:0:
352,352,53993,2,8,P|368:272|320:208,1,120
72,227,54674,6,0,P|21:268|48:352,1,150,2|0,0:0|0:0,0:0:0:0:
208,320,55356,1,8,0:0:0:0:
416,224,55697,2,0,P|360:179|290:198,1,150,2|0,0:0|0:0,0:0:0:0:
184,288,56379,1,8,0:0:0:0:
391,285,56720,6,0,P|471:221|455:173,2,150,2|0|2,0:0|0:0|0:0,0:0:0:0:
292,287,57572,1,0,0:0:0:0:
192,272,57743,1,2,0:0:0:0:
352,144,58083,2,8,P|400:224|352:288,1,150,8|8,0:0|0:0,0:0:0:0:
91,127,58765,6,0,P|50:190|109:254,1,150,2|0,0:0|0:0,0:0:0:0:
240,256,59447,1,8,0:0:0:0:
448,224,59788,2,0,P|496:288|448:384,1,150,2|0,0:0|0:0,0:0:0:0:
336,352,60470,1,8,0:0:0:0:
128,336,60811,6,0,P|112:256|304:224,1,300,2|8,0:0|0:0,0:0:0:0:
140,174,61833,1,2,0:0:0:0:
348,203,62174,2,8,P|380:283|332:347,1,150
53,121,62856,6,0,P|53:185|277:313,1,300,2|8,0:0|0:0,0:0:0:0:
384,288,63879,2,0,P|416:176|304:48,1,300,2|8,0:0|0:0,0:0:0:0:
94,256,64902,6,0,P|78:176|254:80,1,300,2|8,0:0|0:0,0:0:0:0:
368,144,65924,1,2,0:0:0:0:
208,144,66265,2,8,P|144:176|128:272,1,150
392,304,66947,6,0,P|440:240|424:160,1,150,2|0,0:0|0:0,0:0:0:0:
336,192,67629,1,8,0:0:0:0:
128,208,67970,2,0,P|144:128|224:96,1,150,2|0,0:0|0:0,0:0:0:0:
336,112,68652,1,8,0:0:0:0:
55,258,68993,6,0,P|30:189|75:113,1,150,2|0,0:0|0:0,0:0:0:0:
211,95,69674,1,8,0:0:0:0:
480,174,70015,1,8,0:0:0:0:
178,304,70697,5,0,0:0:0:0:
418,272,71038,2,0,P|372:160|202:85,1,300,2|8,0:0|0:0,0:0:0:0:
368,160,72060,2,0,L|448:128,1,75,0|0,0:0|0:0,0:0:0:0:
368,160,72401,5,2,0:0:0:0:
128,240,72913,1,0,0:0:0:0:
64,208,73083,2,0,P|48:160|104:80,1,150,8|0,0:0|0:0,0:0:0:0:
336,240,73765,6,0,P|416:224|480:96,1,225,2|0,0:0|0:0,0:0:0:0:
448,64,74447,2,0,P|416:40|312:64,1,150,8|0,0:0|0:0,0:0:0:0:
104,240,75128,6,0,P|120:160|312:208,1,300,2|8,0:0|0:0,0:0:0:0:
448,288,76151,1,0,0:0:0:0:
177,284,76492,6,0,P|152:156|304:133,1,300,2|8,0:0|0:0,0:0:0:0:
152,256,77515,2,0,L|72:208,1,75,0|0,0:0|0:0,0:0:0:0:
152,256,77856,6,0,P|248:232|288:112,1,225,2|0,0:0|0:0,0:0:0:0:
256,80,78538,2,0,P|216:40|104:48,1,150,8|0,0:0|0:0,0:0:0:0:
320,138,79219,6,0,P|432:290|368:322,1,300,2|8,0:0|0:0,0:0:0:0:
64,256,80583,6,0,P|80:176|272:224,1,300,2|8,0:0|0:0,0:0:0:0:
164,228,81606,1,0,0:0:0:0:
376,256,81947,6,0,P|344:144|136:80,1,300,2|8,0:0|0:0,0:0:0:0:
344,88,82969,2,0,L|424:40,1,75,0|0,0:0|0:0,0:0:0:0:
328,120,83310,5,2,0:0:0:0:
96,96,83992,2,0,P|80:176|144:208,1,150,8|0,0:0|0:0,0:0:0:0:
413,127,84674,6,0,P|461:159|333:319,1,300,2|8,0:0|0:0,0:0:0:0:
192,336,85697,1,0,0:0:0:0:
400,96,86038,6,0,L|472:240,1,150,2|0,0:0|0:0,0:0:0:0:
320,256,86719,1,8,0:0:0:0:
32,304,87401,6,0,P|0:224|160:80,1,300,2|8,0:0|0:0,0:0:0:0:
432,304,88765,6,0,P|464:224|304:80,1,300,2|8,0:0|0:0,0:0:0:0:
96,96,90128,6,0,P|32:160|32:240,1,150,2|0,0:0|0:0,0:0:0:0:
240,208,90810,2,0,P|320:240|352:320,1,150,8|0,0:0|0:0,0:0:0:0:
77,306,91492,6,0,P|88:247|307:129,1,300,2|2,0:0|0:0,0:0:0:0:
431,145,92515,1,8,0:0:0:0:
136,80,92856,6,0,P|32:160|256:336,1,495.000015106202,6|2,0:0|0:0,0:0:0:0:
304,328,94049,1,0,0:0:0:0:
464,304,94219,6,0,L|488:128,1,165.000005035401,2|0,0:0|0:0,0:0:0:0:
368,144,94731,2,0,L|344:312,1,165.000005035401,8|0,0:0|0:0,0:0:0:0:
464,304,95242,1,8,0:0:0:0:
152,240,95583,6,0,P|240:200|272:112,1,165.000005035401,6|0,0:0|0:0,0:0:0:0:
152,168,96094,2,0,P|64:144|56:80,1,165.000005035401,8|0,0:0|0:0,0:0:0:0:
176,56,96606,1,8,0:0:0:0:
456,96,96947,6,0,P|392:232|224:272,1,330.000010070801,2|0,0:0|0:0,0:0:0:0:
88,200,97969,1,8,0:0:0:0:
392,208,98310,6,0,P|206:87|90:276,1,495.000015106202,6|2,0:0|0:0,0:0:0:0:
152,320,99503,1,0,0:0:0:0:
320,320,99674,6,0,L|359:159,1,165.000005035401,2|0,0:0|0:0,0:0:0:0:
240,144,100185,2,0,L|184:312,1,165.000005035401,8|0,0:0|0:0,0:0:0:0:
72,304,100697,1,8,0:0:0:0:
376,320,101038,6,0,L|232:224,1,165.000005035401,6|0,0:0|0:0,0:0:0:0:
465,211,101719,2,0,L|313:107,1,165.000005035401,2|0,0:0|0:0,0:0:0:0:
25,179,102401,6,0,P|17:99|73:35,1,165.000005035401,6|0,0:0|0:0,0:0:0:0:
368,224,103083,1,8,0:0:0:0:
200,160,103424,1,8,0:0:0:0:
472,176,103765,6,0,P|472:112|120:40,1,495.000015106202,6|2,0:0|0:0,0:0:0:0:
88,72,104958,1,0,0:0:0:0:
256,264,105128,6,0,L|280:96,1,165.000005035401,2|0,0:0|0:0,0:0:0:0:
400,96,105640,2,0,L|376:272,1,165.000005035401,8|0,0:0|0:0,0:0:0:0:
488,248,106151,1,8,0:0:0:0:
192,240,106492,6,0,P|112:184|104:120,1,165.000005035401,6|0,0:0|0:0,0:0:0:0:
216,96,107003,2,0,P|264:152|240:256,1,165.000005035401,8|0,0:0|0:0,0:0:0:0:
136,240,107515,1,8,0:0:0:0:
432,256,107856,6,0,P|496:176|464:104,1,165.000005035401,2|0,0:0|0:0,0:0:0:0:
184,160,108538,1,8,0:0:0:0:
352,240,108878,1,8,0:0:0:0:
48,264,109219,6,0,P|16:168|320:88,1,495.000015106202,6|8,0:0|0:0,0:0:0:0:
456,104,110583,6,0,P|456:208|248:320,1,330.000010070801,2|0,0:0|0:0,0:0:0:0:
112,320,111606,1,8,0:0:0:0:
440,96,111947,6,0,P|440:240|152:272,1,495.000015106202,6|0,0:0|0:0,0:0:0:0:
344,304,113310,2,0,P|416:240|424:168,1,168.750006437302,6|8,0:0|0:0,0:0:0:0:
392,136,113992,1,0,0:0:0:0:
328,120,114163,1,0,0:0:0:0:
256,144,114333,1,8,0:0:0:0:
232,208,114503,1,0,0:0:0:0:
264,264,114674,6,0,P|368:200|376:104,2,225,2|2|2,0:0|0:0|0:0,0:0:0:0:
78,237,116038,2,0,P|16:149|98:70,1,225,2|2,0:0|0:0,0:0:0:0:
168,64,116719,1,8,0:0:0:0:
264,128,116890,1,0,0:0:0:0:
248,240,117060,1,0,0:0:0:0:
168,288,117231,1,0,0:0:0:0:
64,288,117401,6,0,P|32:208|128:128,1,225,2|2,0:0|0:0,0:0:0:0:
232,176,118424,1,2,0:0:0:0:
424,192,118765,2,0,P|392:96|264:80,1,225,2|2,0:0|0:0,0:0:0:0:
184,112,119447,1,8,0:0:0:0:
136,208,119617,1,0,0:0:0:0:
168,304,119788,1,0,0:0:0:0:
280,336,119958,1,0,0:0:0:0:
392,336,120128,6,0,P|424:272|312:192,1,225,2|2,0:0|0:0,0:0:0:0:
152,224,121151,1,2,0:0:0:0:
344,352,121492,2,0,P|392:272|296:144,1,225,2|2,0:0|0:0,0:0:0:0:
248,128,122174,1,8,0:0:0:0:
152,144,122344,1,0,0:0:0:0:
96,224,122515,1,0,0:0:0:0:
120,304,122685,1,0,0:0:0:0:
232,336,122856,6,0,P|280:240|168:128,1,225,2|2,0:0|0:0,0:0:0:0:
72,240,123878,1,2,0:0:0:0:
248,240,124219,2,0,P|344:160|296:64,1,225,2|2,0:0|0:0,0:0:0:0:
216,48,124901,1,0,0:0:0:0:
120,96,125072,1,0,0:0:0:0:
88,192,125242,1,0,0:0:0:0:
120,288,125413,1,0,0:0:0:0:
