osu file format v14

[General]
AudioFilename: 12_Utopiosphere_-Platonism-.mp3
AudioLeadIn: 0
PreviewTime: 92470
Countdown: 0
SampleSet: Soft
StackLeniency: 0.7
Mode: 2
LetterboxInBreaks: 0
WidescreenStoryboard: 0

[Editor]
DistanceSpacing: 0.8
BeatDivisor: 4
GridSize: 4
TimelineZoom: 2

[Metadata]
Title:Utopiosphere -Platonism-
TitleUnicode:Utopiosphere -Platonism-
Artist:Mili
ArtistUnicode:Mili
Creator:Benny-
Version:Platter
Source:Deemo
Tags:Nelly Tyrell Benny BennyBananas Miracle Milk rayark projectmili
BeatmapID:1108911
BeatmapSetID:522132

[Difficulty]
HPDrainRate:6
CircleSize:3
OverallDifficulty:8
ApproachRate:8
SliderMultiplier:1.7
SliderTickRate:2

[Events]
//Background and Video events
0,0,"NEWERBG.jpg",0,0
//Break Periods
2,22148,23584
//Storyboard Layer 0 (Background)
//Storyboard Layer 1 (Fail)
//Storyboard Layer 2 (Pass)
//Storyboard Layer 3 (Foreground)
//Storyboard Sound Samples

[TimingPoints]
130,340.909090909091,4,2,1,20,1,0
4561,-100,4,2,2,20,0,0
4732,-100,4,2,1,20,0,0
4902,-100,4,2,2,20,0,0
5073,-100,4,2,1,20,0,0
10016,-100,4,2,2,20,0,0
10186,-100,4,2,1,20,0,0
10357,-100,4,2,2,20,0,0
10698,-100,4,2,1,40,0,0
11039,-83.3333333333333,4,2,1,60,0,1
21948,-100,4,2,1,40,0,0
44107,-133.333333333333,4,2,1,40,0,0
46493,340.909090909091,3,2,1,50,1,0
50583,-125,3,2,1,40,0,0
52629,-125,3,2,1,50,0,0
54674,-100,3,2,1,60,0,0
71038,340.909090909091,4,2,1,50,1,0
90128,-100,4,2,1,60,0,0
90810,-100,4,2,1,75,0,0
91492,-100,4,2,1,80,0,0
92174,-100,4,2,1,85,0,0
92856,-66.6666666666667,4,2,1,90,0,1
101038,-100,4,2,1,90,0,1
103424,-66.6666666666667,4,2,1,90,0,0
103765,-66.6666666666667,4,2,1,90,0,1
111947,-100,4,2,1,90,0,1
113310,-66.6666666666667,4,2,1,90,0,1
114674,-100,4,2,1,30,0,0

[Colours]
Combo1 : 128,128,192
Combo2 : 189,214,177
Combo3 : 222,180,215
Combo4 : 199,174,141

[HitObjects]
304,300,130,6,0,L|340:200,1,85,2|0,0:0|0:0,0:0:0:0:
220,196,470,2,0,L|160:132,1,85,2|0,0:0|0:0,0:0:0:0:
332,96,811,1,8,0:0:0:0:
404,140,982,1,0,0:0:0:0:
424,224,1152,1,0,0:0:0:0:
388,300,1323,1,0,0:0:0:0:
216,300,1493,6,0,L|168:228,1,85,2|0,0:0|0:0,0:0:0:0:
280,248,1834,2,0,L|328:168,1,85,2|0,0:0|0:0,0:0:0:0:
152,308,2175,1,8,0:0:0:0:
72,264,2345,1,0,0:0:0:0:
44,176,2516,1,0,0:0:0:0:
96,104,2686,1,0,0:0:0:0:
268,64,2857,6,0,L|335:10,1,85,2|0,0:0|0:0,0:0:0:0:
444,56,3198,2,0,L|380:128,1,85,2|0,0:0|0:0,0:0:0:0:
220,220,3539,2,0,L|304:180,3,85,8|0|0|0,0:0|0:0|0:0|0:0,0:0:0:0:
124,32,4220,6,0,L|44:96,1,85,2|0,0:0|0:0,0:0:0:0:
168,112,4561,2,0,L|248:176,1,85,2|0,0:0|0:0,0:0:0:0:
64,140,4902,1,2,0:0:0:0:
32,232,5073,1,0,0:0:0:0:
76,308,5243,1,0,0:0:0:0:
152,340,5414,1,0,0:0:0:0:
328,292,5584,6,0,L|440:308,1,85,2|0,0:0|0:0,0:0:0:0:
304,208,5925,2,0,L|216:208,1,85,2|0,0:0|0:0,0:0:0:0:
388,148,6266,1,8,0:0:0:0:
400,232,6436,1,0,0:0:0:0:
336,296,6607,1,0,0:0:0:0:
244,312,6777,1,0,0:0:0:0:
72,256,6948,6,0,L|-12:184,1,85,2|0,0:0|0:0,0:0:0:0:
116,176,7289,2,0,L|184:104,1,85,2|0,0:0|0:0,0:0:0:0:
344,64,7630,1,8,0:0:0:0:
420,108,7800,1,0,0:0:0:0:
448,192,7970,1,0,0:0:0:0:
408,280,8141,1,0,0:0:0:0:
236,136,8311,6,0,L|152:112,1,85,2|0,0:0|0:0,0:0:0:0:
280,60,8652,2,0,L|332:128,1,85,2|0,0:0|0:0,0:0:0:0:
160,224,8993,2,0,L|92:288,3,85,8|0|0|0,0:0|0:0|0:0|0:0,0:0:0:0:
272,312,9675,6,0,L|364:280,1,85,2|0,0:0|0:0,0:0:0:0:
232,272,10016,2,0,L|184:188,1,85,2|0,0:0|0:0,0:0:0:0:
360,216,10357,2,0,P|428:200|480:104,1,170,2|8,0:0|0:0,0:0:0:0:
60,184,11039,6,0,P|52:100|152:60,1,203.999993774414,6|0,0:0|0:0,0:0:0:0:
296,64,11550,2,0,P|336:104|260:212,1,203.999993774414,8|0,0:0|0:0,0:0:0:0:
148,208,12061,2,0,L|100:308,1,101.999996887207,2|0,0:0|0:0,0:0:0:0:
280,288,12402,6,0,P|376:224|360:128,1,203.999993774414,2|0,0:0|0:0,0:0:0:0:
232,160,12914,2,0,P|168:84|232:20,1,203.999993774414,8|0,0:0|0:0,0:0:0:0:
392,64,13425,2,0,L|320:136,1,101.999996887207,8|0,0:0|0:0,0:0:0:0:
24,64,13766,6,0,P|24:144|152:208,1,203.999993774414,6|0,0:0|0:0,0:0:0:0:
264,208,14277,2,0,P|312:192|376:48,1,203.999993774414,8|0,0:0|0:0,0:0:0:0:
216,64,14789,2,0,L|176:164,1,101.999996887207,2|0,0:0|0:0,0:0:0:0:
332,152,15130,5,2,0:0:0:0:
396,208,15300,1,0,0:0:0:0:
376,288,15470,1,0,0:0:0:0:
296,320,15641,1,0,0:0:0:0:
136,320,15811,1,8,0:0:0:0:
168,224,15982,1,0,0:0:0:0:
248,176,16152,1,8,0:0:0:0:
344,192,16323,1,8,0:0:0:0:
108,216,16493,6,0,P|48:148|148:84,1,203.999993774414,6|0,0:0|0:0,0:0:0:0:
272,80,17005,2,0,P|300:184|192:256,1,203.999993774414,8|0,0:0|0:0,0:0:0:0:
368,240,17516,2,0,L|448:304,1,101.999996887207,2|0,0:0|0:0,0:0:0:0:
260,164,17857,6,0,P|157:235|220:332,1,203.999993774414,2|0,0:0|0:0,0:0:0:0:
344,336,18368,2,0,P|396:256|320:200,1,203.999993774414,8|0,0:0|0:0,0:0:0:0:
164,200,18880,2,0,L|112:112,1,101.999996887207,8|0,0:0|0:0,0:0:0:0:
387,96,19220,6,0,P|445:136|378:304,1,203.999993774414,6|0,0:0|0:0,0:0:0:0:
276,262,19732,2,0,P|163:237|136:148,1,203.999993774414,8|0,0:0|0:0,0:0:0:0:
288,160,20243,2,0,L|224:80,1,101.999996887207,8|0,0:0|0:0,0:0:0:0:
72,256,20584,5,2,0:0:0:0:
24,208,20755,1,0,0:0:0:0:
40,144,20925,1,0,0:0:0:0:
104,112,21095,1,0,0:0:0:0:
216,200,21266,1,8,0:0:0:0:
144,152,21436,1,0,0:0:0:0:
160,88,21607,1,8,0:0:0:0:
248,56,21777,1,8,0:0:0:0:
76,52,21948,1,6,0:0:0:0:
300,188,24334,5,2,0:0:0:0:
144,184,24675,2,0,P|160:252|272:288,1,170,2|0,0:0|0:0,0:0:0:0:
412,192,25357,2,0,P|396:144|268:96,1,170,0|0,0:0|0:0,0:0:0:0:
204,112,25868,1,2,0:0:0:0:
364,80,26039,6,0,P|412:96|412:224,1,170,2|0,0:0|0:0,0:0:0:0:
268,208,26720,2,0,P|188:176|160:100,1,170
416,112,27402,5,2,0:0:0:0:
248,108,27743,2,0,P|176:124|144:240,2,170
496,192,28766,5,2,0:0:0:0:
324,192,29107,1,0,0:0:0:0:
248,176,29277,1,0,0:0:0:0:
200,120,29448,1,0,0:0:0:0:
376,208,29789,2,0,L|468:208,1,85,0|2,0:0|0:0,0:0:0:0:
288,80,30130,6,0,P|192:96|176:168,1,170,2|0,0:0|0:0,0:0:0:0:
336,188,30811,2,0,P|384:236|320:316,1,170
84,312,31493,5,2,0:0:0:0:
216,212,31834,1,0,0:0:0:0:
96,144,32175,2,0,P|48:192|112:288,1,170,0|0,0:0|0:0,0:0:0:0:
400,256,32857,6,0,P|400:176|304:128,1,170,2|0,0:0|0:0,0:0:0:0:
240,128,33368,1,0,0:0:0:0:
400,128,33539,2,0,P|480:112|480:32,1,170,0|0,0:0|0:0,0:0:0:0:
384,0,34050,1,2,0:0:0:0:
224,32,34220,6,0,P|192:64|256:176,1,170,2|0,0:0|0:0,0:0:0:0:
312,208,34732,1,0,0:0:0:0:
196,244,34902,1,0,0:0:0:0:
332,284,35073,1,0,0:0:0:0:
196,244,35584,5,2,0:0:0:0:
440,256,35925,2,0,P|484:160|300:88,1,340,2|0,0:0|0:0,0:0:0:0:
240,132,36777,1,0,0:0:0:0:
344,176,36948,5,2,0:0:0:0:
92,304,37289,2,0,P|72:264|368:108,1,510,2|2,0:0|0:0,0:0:0:0:
112,112,38652,6,0,P|80:144|192:276,1,255,2|0,0:0|0:0,0:0:0:0:
256,96,39334,1,0,0:0:0:0:
192,32,39505,1,0,0:0:0:0:
364,40,39675,6,0,P|428:72|380:152,1,170,2|0,0:0|0:0,0:0:0:0:
112,144,40357,2,0,P|112:216|208:252,1,170,2|0,0:0|0:0,0:0:0:0:
400,232,41039,5,2,0:0:0:0:
144,224,41380,2,0,P|64:176|160:80,1,255,2|0,0:0|0:0,0:0:0:0:
220,100,42061,1,0,0:0:0:0:
248,176,42232,1,0,0:0:0:0:
76,232,42402,6,0,L|56:332,1,85,2|0,0:0|0:0,0:0:0:0:
232,320,42743,2,0,P|400:252|276:116,1,425,2|0,0:0|0:0,0:0:0:0:
216,124,43766,5,2,0:0:0:0:
476,256,44107,2,0,P|492:120|284:48,1,382.500014591218,2|2,0:0|0:0,0:0:0:0:
120,96,45470,1,2,0:0:0:0:
352,288,46493,6,0,P|448:208|320:80,1,340,2|0,0:0|0:0,0:0:0:0:
240,96,47345,1,0,0:0:0:0:
136,124,47515,2,0,P|100:192|188:248,1,170,2|2,0:0|0:0,0:0:0:0:
352,272,48197,1,2,0:0:0:0:
160,288,48538,6,0,P|64:208|192:80,1,340,2|2,0:0|0:0,0:0:0:0:
272,96,49390,1,0,0:0:0:0:
372,136,49561,1,2,0:0:0:0:
116,224,49902,1,8,0:0:0:0:
376,292,50243,1,8,0:0:0:0:
176,272,50583,6,0,P|84:232|176:124,1,272,2|0,0:0|0:0,0:0:0:0:
284,128,51436,1,0,0:0:0:0:
368,192,51606,2,0,P|384:240|336:336,1,136,2|2,0:0|0:0,0:0:0:0:
176,320,52288,1,2,0:0:0:0:
368,272,52629,6,0,P|432:240|336:112,1,272,2|0,0:0|0:0,0:0:0:0:
256,128,53481,1,0,0:0:0:0:
176,192,53652,1,2,0:0:0:0:
406,286,53993,1,8,0:0:0:0:
164,232,54333,1,8,0:0:0:0:
432,128,54674,6,0,P|480:188|424:256,1,170,2|0,0:0|0:0,0:0:0:0:
292,272,55356,1,8,0:0:0:0:
28,136,55697,2,0,P|5:212|69:260,1,170,2|0,0:0|0:0,0:0:0:0:
180,260,56379,1,8,0:0:0:0:
468,215,56720,6,0,P|501:144|440:95,1,170,2|0,0:0|0:0,0:0:0:0:
256,208,57402,2,0,L|177:176,1,85,2|0,0:0|0:0,0:0:0:0:
288,172,57743,1,2,0:0:0:0:
92,104,58083,1,8,0:0:0:0:
344,88,58424,1,8,0:0:0:0:
75,96,58765,6,0,P|78:178|142:229,1,170,2|0,0:0|0:0,0:0:0:0:
336,252,59447,1,8,0:0:0:0:
47,160,59788,2,0,P|12:231|68:287,1,170,2|0,0:0|0:0,0:0:0:0:
204,296,60470,1,8,0:0:0:0:
491,288,60811,6,0,P|492:135|339:137,1,340,2|8,0:0|0:0,0:0:0:0:
220,180,61833,1,2,0:0:0:0:
412,156,62174,1,8,0:0:0:0:
172,188,62515,1,8,0:0:0:0:
472,144,62856,6,0,P|420:300|232:316,1,340,2|8,0:0|0:0,0:0:0:0:
47,319,63879,2,0,P|77:161|232:118,1,340,2|8,0:0|0:0,0:0:0:0:
447,143,64902,6,0,P|436:304|268:320,1,340,2|8,0:0|0:0,0:0:0:0:
120,296,65924,1,2,0:0:0:0:
336,268,66265,1,8,0:0:0:0:
100,232,66606,1,8,0:0:0:0:
400,224,66947,6,0,P|456:172|388:108,1,170,2|0,0:0|0:0,0:0:0:0:
308,124,67629,1,8,0:0:0:0:
95,224,67970,2,0,P|28:182|49:105,1,170,2|0,0:0|0:0,0:0:0:0:
172,88,68652,1,8,0:0:0:0:
392,224,68993,6,0,P|498:122|372:46,1,340,2|8,0:0|0:0,0:0:0:0:
112,96,70015,1,8,0:0:0:0:
368,304,70697,5,0,0:0:0:0:
127,271,71038,2,0,P|177:117|335:82,1,340,2|8,0:0|0:0,0:0:0:0:
144,160,72060,2,0,L|67:121,1,85
239,96,72401,6,0,P|348:130|305:235,1,255,2|0,0:0|0:0,0:0:0:0:
127,239,73083,2,0,P|95:164|130:89,1,170,8|0,0:0|0:0,0:0:0:0:
415,79,73765,6,0,P|480:176|390:251,1,255,2|0,0:0|0:0,0:0:0:0:
223,255,74447,2,0,P|191:181|236:113,1,170,8|0,0:0|0:0,0:0:0:0:
456,248,75128,6,0,P|420:112|232:64,1,340,2|8,0:0|0:0,0:0:0:0:
64,288,76151,1,0,0:0:0:0:
320,287,76492,6,0,P|338:133|187:93,1,340,2|8,0:0|0:0,0:0:0:0:
32,128,77515,1,0,0:0:0:0:
287,80,77856,6,0,P|396:116|353:219,1,255,2|0,0:0|0:0,0:0:0:0:
175,239,78538,2,0,P|143:164|178:89,1,170,8|0,0:0|0:0,0:0:0:0:
436,140,79219,6,0,P|472:252|336:340,1,255,2|0,0:0|0:0,0:0:0:0:
216,328,79901,2,0,P|136:311|101:237,1,170,8|0,0:0|0:0,0:0:0:0:
352,288,80583,6,0,P|427:260|438:179,1,170,2|0,0:0|0:0,0:0:0:0:
364,116,81094,1,0,0:0:0:0:
192,104,81265,1,8,0:0:0:0:
104,172,81435,1,0,0:0:0:0:
112,272,81606,1,0,0:0:0:0:
200,328,81776,1,0,0:0:0:0:
31,239,81947,6,0,P|81:85|239:50,1,340,2|8,0:0|0:0,0:0:0:0:
396,84,82969,2,0,L|436:158,1,85
292,160,83310,6,0,P|209:175|149:234,1,170,2|0,0:0|0:0,0:0:0:0:
383,304,83992,2,0,P|446:251|436:169,1,170,8|0,0:0|0:0,0:0:0:0:
176,127,84674,6,0,P|337:148|404:296,1,340,2|8,0:0|0:0,0:0:0:0:
296,344,85697,1,0,0:0:0:0:
48,220,86038,6,0,P|98:152|171:110,1,170,2|0,0:0|0:0,0:0:0:0:
420,280,86719,2,0,P|447:200|438:116,1,170,8|0,0:0|0:0,0:0:0:0:
184,308,87401,6,0,P|170:148|315:81,1,340,2|8,0:0|0:0,0:0:0:0:
464,296,88765,6,0,P|477:136|332:69,1,340,2|8,0:0|0:0,0:0:0:0:
32,200,90128,6,0,P|96:145|177:120,1,170,2|0,0:0|0:0,0:0:0:0:
432,127,90810,2,0,P|405:207|340:261,1,170,8|0,0:0|0:0,0:0:0:0:
80,272,91492,6,0,P|204:224|164:48,1,340,2|2,0:0|0:0,0:0:0:0:
24,88,92515,1,8,0:0:0:0:
480,268,92856,6,0,P|496:164|376:80,1,255.000009727478,6|0,0:0|0:0,0:0:0:0:
260,56,93367,2,0,L|196:176,1,127.500004863739,8|0,0:0|0:0,0:0:0:0:
328,192,93708,1,0,0:0:0:0:
180,224,93878,2,0,L|243:334,1,127.500004863739,2|0,0:0|0:0,0:0:0:0:
396,336,94219,6,0,P|420:220|300:196,1,255.000009727478,2|0,0:0|0:0,0:0:0:0:
180,208,94731,2,0,P|84:150|157:65,1,255.000009727478,8|0,0:0|0:0,0:0:0:0:
287,79,95242,2,0,P|345:106|382:156,1,127.500004863739,8|0,0:0|0:0,0:0:0:0:
96,63,95583,6,0,P|29:160|115:240,1,255.000009727478,6|0,0:0|0:0,0:0:0:0:
288,223,96094,2,0,P|390:155|400:32,1,255.000009727478,8|0,0:0|0:0,0:0:0:0:
256,47,96606,2,0,P|270:109|313:155,1,127.500004863739,8|0,0:0|0:0,0:0:0:0:
160,144,96947,5,2,0:0:0:0:
80,208,97117,1,0,0:0:0:0:
80,288,97288,1,0,0:0:0:0:
160,336,97458,1,0,0:0:0:0:
320,336,97628,1,8,0:0:0:0:
288,240,97799,1,0,0:0:0:0:
208,192,97969,1,8,0:0:0:0:
112,208,98140,1,8,0:0:0:0:
367,264,98310,6,0,P|408:164|300:80,1,255.000009727478,6|0,0:0|0:0,0:0:0:0:
176,144,98822,2,0,L|101:247,2,127.500004863739,8|0|0,0:0|0:0|0:0,0:0:0:0:
303,144,99333,2,0,P|296:83|239:64,1,127.500004863739,2|0,0:0|0:0,0:0:0:0:
399,63,99674,6,0,P|471:161|411:266,1,255.000009727478,2|0,0:0|0:0,0:0:0:0:
271,319,100185,2,0,P|225:208|311:124,1,255.000009727478,8|0,0:0|0:0,0:0:0:0:
452,144,100697,2,0,L|369:47,1,127.500004863739,8|0,0:0|0:0,0:0:0:0:
130,225,101038,6,0,P|103:83|265:81,1,340,6|8,0:0|0:0,0:0:0:0:
343,125,101890,1,0,0:0:0:0:
410,225,102060,1,0,0:0:0:0:
416,336,102231,1,0,0:0:0:0:
175,331,102401,6,0,P|99:190|229:113,1,340,6|8,0:0|0:0,0:0:0:0:
304,176,103253,1,0,0:0:0:0:
152,192,103424,2,0,L|121:315,1,127.500004863739,8|8,0:0|0:0,0:0:0:0:
375,166,103765,6,0,P|438:275|316:352,1,255.000009727478,6|0,0:0|0:0,0:0:0:0:
264,332,104276,1,8,0:0:0:0:
384,272,104447,2,0,L|447:161,1,127.500004863739
288,161,104788,2,0,L|224:271,1,127.500004863739,2|0,0:0|0:0,0:0:0:0:
383,272,105128,6,0,P|464:185|401:84,1,255.000009727478,2|0,0:0|0:0,0:0:0:0:
223,271,105640,2,0,P|203:156|314:116,1,255.000009727478,8|0,0:0|0:0,0:0:0:0:
176,95,106151,2,0,P|130:139|112:200,1,127.500004863739,8|0,0:0|0:0,0:0:0:0:
351,143,106492,6,0,P|418:240|332:320,1,255.000009727478,6|0,0:0|0:0,0:0:0:0:
176,320,107003,2,0,P|130:212|229:151,1,255.000009727478,8|0,0:0|0:0,0:0:0:0:
351,151,107515,2,0,P|412:138|446:86,1,127.500004863739,8|0,0:0|0:0,0:0:0:0:
195,335,107856,6,0,L|133:223,1,127.500004863739,2|0,0:0|0:0,0:0:0:0:
291,263,108197,2,0,L|352:151,1,127.500004863739
176,168,108538,2,0,L|252:270,1,127.500004863739,8|0,0:0|0:0,0:0:0:0:
412,160,108878,2,8,L|335:262,1,127.500004863739
72,172,109219,6,0,P|30:64|136:18,1,255.000009727478,6|0,0:0|0:0,0:0:0:0:
224,96,109731,1,8,0:0:0:0:
48,192,109901,2,0,L|111:81,3,127.500004863739,0|0|8|0,0:0|0:0|0:0|0:0,0:0:0:0:
271,79,110583,6,0,P|318:188|223:257,1,255.000009727478,2|0,0:0|0:0,0:0:0:0:
128,264,111094,1,8,0:0:0:0:
283,264,111265,2,0,P|332:161|225:124,1,255.000009727478,0|8,0:0|0:0,0:0:0:0:
128,176,111776,1,0,0:0:0:0:
365,336,111947,6,0,P|458:217|329:138,1,340,6|8,0:0|0:0,0:0:0:0:
244,160,112799,1,0,0:0:0:0:
160,224,112969,1,0,0:0:0:0:
88,328,113140,1,0,0:0:0:0:
350,128,113310,6,0,P|458:268|324:368,1,382.500014591218,6|8,0:0|0:0,0:0:0:0:
200,348,113992,2,0,L|273:243,3,127.500004863739,0|0|8|0,0:0|0:0|0:0|0:0,0:0:0:0:
408,348,114674,5,2,0:0:0:0:
472,272,114844,1,0,0:0:0:0:
456,172,115015,1,0,0:0:0:0:
384,96,115185,1,2,0:0:0:0:
208,80,115356,1,8,0:0:0:0:
136,124,115526,1,0,0:0:0:0:
116,208,115697,1,2,0:0:0:0:
152,284,115867,1,0,0:0:0:0:
320,288,116038,6,0,L|363:215,2,85,2|0|0,0:0|0:0|0:0,0:0:0:0:
160,304,116549,1,2,0:0:0:0:
112,224,116719,1,8,0:0:0:0:
144,128,116890,1,0,0:0:0:0:
224,64,117060,1,0,0:0:0:0:
128,48,117231,1,0,0:0:0:0:
300,56,117401,6,0,L|384:43,2,85,2|0|0,0:0|0:0|0:0,0:0:0:0:
132,112,117913,2,0,L|59:155,2,85,2|8|0,0:0|0:0|0:0,0:0:0:0:
304,160,118424,2,0,L|364:220,1,85,2|0,0:0|0:0,0:0:0:0:
192,232,118765,6,0,L|158:310,2,85,2|0|0,0:0|0:0|0:0,0:0:0:0:
364,296,119276,1,2,0:0:0:0:
420,228,119447,1,8,0:0:0:0:
412,140,119617,1,0,0:0:0:0:
364,72,119788,1,0,0:0:0:0:
460,56,119958,1,0,0:0:0:0:
284,48,120128,6,0,L|199:60,2,85,2|0|0,0:0|0:0|0:0,0:0:0:0:
452,40,120640,1,2,0:0:0:0:
492,136,120810,1,8,0:0:0:0:
412,200,120981,1,0,0:0:0:0:
240,200,121151,2,0,L|196:127,1,85,2|0,0:0|0:0,0:0:0:0:
368,80,121492,6,0,L|451:94,2,85,2|0|0,0:0|0:0|0:0,0:0:0:0:
196,64,122003,1,2,0:0:0:0:
120,124,122174,1,8,0:0:0:0:
88,208,122344,1,0,0:0:0:0:
128,288,122515,1,0,0:0:0:0:
32,332,122685,1,0,0:0:0:0:
204,348,122856,6,0,L|276:304,1,85,2|0,0:0|0:0,0:0:0:0:
356,236,123197,1,0,0:0:0:0:
184,228,123367,2,0,L|123:167,1,85,2|8,0:0|0:0,0:0:0:0:
96,64,123708,1,0,0:0:0:0:
268,128,123878,2,0,L|328:67,1,85,2|0,0:0|0:0,0:0:0:0:
160,80,124219,6,0,L|99:19,2,85,2|0|0,0:0|0:0|0:0,0:0:0:0:
332,80,124731,1,2,0:0:0:0:
400,128,124901,1,0,0:0:0:0:
436,208,125072,1,0,0:0:0:0:
348,272,125242,1,0,0:0:0:0:
456,312,125413,1,0,0:0:0:0:
