osu file format v14

[General]
AudioFilename: 11 - Utopiosphere.mp3
AudioLeadIn: 0
PreviewTime: -1
Countdown: 0
SampleSet: None
StackLeniency: 0.7
Mode: 3
LetterboxInBreaks: 0
SpecialStyle: 0
WidescreenStoryboard: 0

[Editor]
DistanceSpacing: 1.4
BeatDivisor: 4
GridSize: 4
TimelineZoom: 1.7

[Metadata]
Title:Utopiosphere
TitleUnicode:Utopiosphere
Artist:Mili
ArtistUnicode:Mili
Creator:paperlens
Version:
Source:
Tags:
BeatmapID:1055835
BeatmapSetID:496036

[Difficulty]
HPDrainRate:6
CircleSize:7
OverallDifficulty:6
ApproachRate:5
SliderMultiplier:1.4
SliderTickRate:1

[Events]
//Background and Video events
0,0,"111.jpg",0,0
//Break Periods
//Storyboard Layer 0 (Background)
//Storyboard Layer 1 (Fail)
//Storyboard Layer 2 (Pass)
//Storyboard Layer 3 (Foreground)
//Storyboard Sound Samples

[TimingPoints]
2077,340.909090909091,4,2,0,7,1,0
48440,340.909090909091,3,2,0,7,1,0
72303,-111.111111111111,3,2,0,7,0,0
72644,-125,3,2,0,7,0,0
72985,340.909090909091,4,2,0,7,1,0
72985,-142.857142857143,4,2,0,7,0,0
83894,-125,4,2,0,7,0,0
89348,-111.111111111111,4,2,0,7,0,0
92075,-100,4,2,0,7,0,0
94121,-50,4,2,0,7,0,0
94632,-153.846153846154,4,2,0,7,0,0
94803,-100,4,2,0,7,0,0

[HitObjects]
182,192,2077,5,0,0:0:0:0:
36,192,2077,1,0,0:0:0:0:
329,192,2077,1,0,0:0:0:0:
475,192,2247,1,0,0:0:0:0:
109,192,2417,1,0,0:0:0:0:
182,192,2417,1,0,0:0:0:0:
256,192,2588,1,0,0:0:0:0:
402,192,2758,1,0,0:0:0:0:
109,192,2929,1,0,0:0:0:0:
182,192,3099,1,0,0:0:0:0:
329,192,3270,1,0,0:0:0:0:
475,192,3440,1,0,0:0:0:0:
109,192,3440,1,0,0:0:0:0:
36,192,3440,1,0,0:0:0:0:
329,192,3611,1,0,0:0:0:0:
182,192,3781,1,0,0:0:0:0:
36,192,3781,1,0,0:0:0:0:
402,192,3781,1,0,0:0:0:0:
256,192,3952,1,0,0:0:0:0:
329,192,4122,1,0,0:0:0:0:
109,192,4292,1,0,0:0:0:0:
182,192,4463,1,0,0:0:0:0:
329,192,4633,1,0,0:0:0:0:
182,192,4804,1,0,0:0:0:0:
36,192,4804,1,0,0:0:0:0:
402,192,4804,1,0,0:0:0:0:
256,192,4974,1,0,0:0:0:0:
36,192,5145,1,0,0:0:0:0:
329,192,5145,1,0,0:0:0:0:
182,192,5315,1,0,0:0:0:0:
402,192,5486,1,0,0:0:0:0:
109,192,5656,1,0,0:0:0:0:
329,192,5827,1,0,0:0:0:0:
402,192,5997,1,0,0:0:0:0:
475,192,6167,1,0,0:0:0:0:
182,192,6167,1,0,0:0:0:0:
36,192,6167,1,0,0:0:0:0:
256,192,6338,1,0,0:0:0:0:
329,192,6508,1,0,0:0:0:0:
182,192,6508,1,0,0:0:0:0:
109,192,6508,1,0,0:0:0:0:
475,192,6679,1,0,0:0:0:0:
402,192,6849,1,0,0:0:0:0:
182,192,7020,1,0,0:0:0:0:
329,192,7190,1,0,0:0:0:0:
256,192,7361,1,0,0:0:0:0:
36,192,7531,1,0,0:0:0:0:
329,192,7531,1,0,0:0:0:0:
182,192,7531,1,0,0:0:0:0:
475,192,7702,1,0,0:0:0:0:
182,192,7872,1,0,0:0:0:0:
109,192,7872,1,0,0:0:0:0:
256,192,8042,1,0,0:0:0:0:
402,192,8213,1,0,0:0:0:0:
109,192,8383,1,0,0:0:0:0:
182,192,8554,1,0,0:0:0:0:
329,192,8724,1,0,0:0:0:0:
475,192,8895,1,0,0:0:0:0:
36,192,8895,1,0,0:0:0:0:
109,192,8895,1,0,0:0:0:0:
329,192,9065,1,0,0:0:0:0:
36,192,9236,1,0,0:0:0:0:
402,192,9236,1,0,0:0:0:0:
182,192,9236,1,0,0:0:0:0:
256,192,9406,1,0,0:0:0:0:
329,192,9577,1,0,0:0:0:0:
109,192,9747,1,0,0:0:0:0:
182,192,9917,1,0,0:0:0:0:
329,192,10088,1,0,0:0:0:0:
182,192,10258,1,0,0:0:0:0:
36,192,10258,1,0,0:0:0:0:
402,192,10258,1,0,0:0:0:0:
256,192,10429,1,0,0:0:0:0:
329,192,10599,1,0,0:0:0:0:
36,192,10599,1,0,0:0:0:0:
182,192,10770,1,0,0:0:0:0:
402,192,10940,1,0,0:0:0:0:
109,192,11111,1,0,0:0:0:0:
329,192,11281,1,0,0:0:0:0:
402,192,11452,1,0,0:0:0:0:
475,192,11622,1,0,0:0:0:0:
182,192,11622,1,0,0:0:0:0:
36,192,11622,1,0,0:0:0:0:
256,192,11792,1,0,0:0:0:0:
182,192,11963,1,0,0:0:0:0:
109,192,11963,1,0,0:0:0:0:
329,192,11963,1,0,0:0:0:0:
402,192,12133,1,0,0:0:0:0:
475,192,12304,1,0,0:0:0:0:
329,192,12304,1,0,0:0:0:0:
109,192,12389,1,0,0:0:0:0:
402,192,12474,1,0,0:0:0:0:
256,192,12474,1,0,0:0:0:0:
36,192,12559,1,0,0:0:0:0:
329,192,12645,1,0,0:0:0:0:
182,192,12645,1,0,0:0:0:0:
475,192,12730,1,0,0:0:0:0:
256,192,12815,1,0,0:0:0:0:
109,192,12815,1,0,0:0:0:0:
402,192,12900,1,0,0:0:0:0:
182,192,12986,1,0,0:0:0:0:
36,192,12986,1,0,0:0:0:0:
329,192,12986,1,0,0:0:0:0:
475,192,13156,128,0,13497:0:0:0:0:
109,192,13327,128,0,13667:0:0:0:0:
256,192,13497,128,0,13667:0:0:0:0:
475,192,13667,1,0,0:0:0:0:
402,192,13667,128,0,14008:0:0:0:0:
36,192,13838,128,0,14349:0:0:0:0:
182,192,14008,128,0,14349:0:0:0:0:
329,192,14008,1,0,0:0:0:0:
329,192,14179,128,0,14349:0:0:0:0:
475,192,14349,128,0,15372:0:0:0:0:
402,192,14349,1,0,0:0:0:0:
36,192,14520,1,0,0:0:0:0:
256,192,14520,128,0,14690:0:0:0:0:
329,192,14690,128,0,15372:0:0:0:0:
182,192,14690,1,0,0:0:0:0:
109,192,14861,128,0,15031:0:0:0:0:
182,192,15031,128,0,15372:0:0:0:0:
402,192,15031,1,0,0:0:0:0:
36,192,15202,128,0,15372:0:0:0:0:
256,192,15372,1,0,0:0:0:0:
109,192,15372,1,0,0:0:0:0:
402,192,15542,1,0,0:0:0:0:
109,192,15542,1,0,0:0:0:0:
182,192,15713,1,0,0:0:0:0:
329,192,15713,1,0,0:0:0:0:
475,192,15713,128,0,16224:0:0:0:0:
36,192,15883,128,0,16224:0:0:0:0:
109,192,16054,128,0,16395:0:0:0:0:
256,192,16054,1,0,0:0:0:0:
182,192,16224,128,0,16395:0:0:0:0:
402,192,16224,128,0,16395:0:0:0:0:
475,192,16395,1,0,0:0:0:0:
329,192,16395,128,0,16736:0:0:0:0:
109,192,16565,128,0,16906:0:0:0:0:
182,192,16736,128,0,17077:0:0:0:0:
402,192,16736,128,0,17077:0:0:0:0:
256,192,16906,128,0,17077:0:0:0:0:
36,192,17077,128,0,18099:0:0:0:0:
475,192,17077,128,0,17417:0:0:0:0:
182,192,17247,128,0,17758:0:0:0:0:
329,192,17417,128,0,17758:0:0:0:0:
475,192,17588,128,0,17758:0:0:0:0:
402,192,17758,128,0,18099:0:0:0:0:
109,192,17929,128,0,18099:0:0:0:0:
475,192,18099,1,0,0:0:0:0:
182,192,18099,1,0,0:0:0:0:
329,192,18270,1,0,0:0:0:0:
109,192,18270,1,0,0:0:0:0:
402,192,18270,1,0,0:0:0:0:
256,192,18440,1,0,0:0:0:0:
329,192,18440,128,0,18611:0:0:0:0:
36,192,18440,128,0,18781:0:0:0:0:
475,192,18611,128,0,18952:0:0:0:0:
182,192,18781,128,0,19122:0:0:0:0:
329,192,18952,128,0,19122:0:0:0:0:
402,192,19122,128,0,19463:0:0:0:0:
36,192,19122,1,0,0:0:0:0:
109,192,19292,128,0,19633:0:0:0:0:
256,192,19463,128,0,19633:0:0:0:0:
329,192,19463,1,0,0:0:0:0:
329,192,19633,128,0,19804:0:0:0:0:
475,192,19804,128,0,20315:0:0:0:0:
36,192,19804,1,0,0:0:0:0:
182,192,19804,1,0,0:0:0:0:
329,192,19974,1,0,0:0:0:0:
109,192,19974,128,0,20315:0:0:0:0:
182,192,20145,128,0,20486:0:0:0:0:
402,192,20315,128,0,20656:0:0:0:0:
36,192,20315,128,0,20827:0:0:0:0:
329,192,20486,128,0,20827:0:0:0:0:
109,192,20656,128,0,20827:0:0:0:0:
182,192,20827,1,0,0:0:0:0:
256,192,20827,1,0,0:0:0:0:
475,192,20827,1,0,0:0:0:0:
182,192,20997,1,0,0:0:0:0:
402,192,20997,1,0,0:0:0:0:
329,192,21167,1,0,0:0:0:0:
182,192,21167,1,0,0:0:0:0:
36,192,21167,1,0,0:0:0:0:
475,192,21167,128,0,22361:0:0:0:0:
109,192,21338,128,0,21849:0:0:0:0:
182,192,21508,128,0,21849:0:0:0:0:
329,192,21679,128,0,22020:0:0:0:0:
256,192,21849,1,0,0:0:0:0:
182,192,22020,128,0,23042:0:0:0:0:
36,192,22020,128,0,23213:0:0:0:0:
329,192,22190,128,0,22531:0:0:0:0:
402,192,22361,128,0,22531:0:0:0:0:
475,192,22531,128,0,22872:0:0:0:0:
256,192,22702,128,0,22872:0:0:0:0:
329,192,22872,128,0,23042:0:0:0:0:
109,192,23042,128,0,23213:0:0:0:0:
402,192,23042,128,0,23213:0:0:0:0:
475,192,23213,128,0,23383:0:0:0:0:
182,192,23213,128,0,23383:0:0:0:0:
109,192,23383,128,0,23554:0:0:0:0:
402,192,23383,1,0,0:0:0:0:
329,192,23554,128,0,23724:0:0:0:0:
36,192,23554,128,0,23724:0:0:0:0:
256,192,23724,1,0,0:0:0:0:
109,192,23724,1,0,0:0:0:0:
182,192,23895,1,0,0:0:0:0:
36,192,23895,1,0,0:0:0:0:
475,192,24065,1,0,0:0:0:0:
402,192,24236,1,0,0:0:0:0:
36,192,24236,1,0,0:0:0:0:
109,192,24406,1,0,0:0:0:0:
329,192,24577,1,0,0:0:0:0:
36,192,24577,1,0,0:0:0:0:
256,192,24747,1,0,0:0:0:0:
36,192,24917,1,0,0:0:0:0:
182,192,24917,1,0,0:0:0:0:
256,192,25088,1,0,0:0:0:0:
182,192,25258,1,0,0:0:0:0:
36,192,25258,1,0,0:0:0:0:
402,192,25429,1,0,0:0:0:0:
329,192,25599,1,0,0:0:0:0:
36,192,25599,1,0,0:0:0:0:
182,192,25770,1,0,0:0:0:0:
329,192,25940,1,0,0:0:0:0:
36,192,25940,1,0,0:0:0:0:
402,192,26111,1,0,0:0:0:0:
256,192,26111,1,0,0:0:0:0:
109,192,26111,1,0,0:0:0:0:
475,192,26281,1,0,0:0:0:0:
329,192,26281,1,0,0:0:0:0:
182,192,26452,1,0,0:0:0:0:
402,192,26452,1,0,0:0:0:0:
329,192,26622,1,0,0:0:0:0:
36,192,26622,1,0,0:0:0:0:
109,192,26622,1,0,0:0:0:0:
182,192,26792,1,0,0:0:0:0:
475,192,26792,1,0,0:0:0:0:
402,192,26963,1,0,0:0:0:0:
36,192,26963,1,0,0:0:0:0:
256,192,27133,1,0,0:0:0:0:
329,192,27304,1,0,0:0:0:0:
182,192,27474,1,0,0:0:0:0:
36,192,27986,1,0,0:0:0:0:
329,192,27986,1,0,0:0:0:0:
182,192,28156,1,0,0:0:0:0:
475,192,28156,1,0,0:0:0:0:
402,192,28327,1,0,0:0:0:0:
36,192,28327,1,0,0:0:0:0:
256,192,28497,1,0,0:0:0:0:
329,192,28667,1,0,0:0:0:0:
109,192,28838,1,0,0:0:0:0:
329,192,29179,1,0,0:0:0:0:
109,192,29264,1,0,0:0:0:0:
36,192,29349,1,0,0:0:0:0:
329,192,29349,1,0,0:0:0:0:
182,192,29520,1,0,0:0:0:0:
475,192,29520,1,0,0:0:0:0:
402,192,29690,1,0,0:0:0:0:
36,192,29690,1,0,0:0:0:0:
256,192,29861,1,0,0:0:0:0:
329,192,30031,1,0,0:0:0:0:
475,192,30031,1,0,0:0:0:0:
182,192,30202,1,0,0:0:0:0:
402,192,30372,1,0,0:0:0:0:
182,192,30542,1,0,0:0:0:0:
475,192,30713,1,0,0:0:0:0:
256,192,30713,1,0,0:0:0:0:
182,192,30883,1,0,0:0:0:0:
402,192,31054,1,0,0:0:0:0:
109,192,31224,1,0,0:0:0:0:
329,192,31395,1,0,0:0:0:0:
36,192,31565,1,0,0:0:0:0:
256,192,31736,1,0,0:0:0:0:
182,192,31906,1,0,0:0:0:0:
402,192,31906,1,0,0:0:0:0:
36,192,32077,1,0,0:0:0:0:
329,192,32077,1,0,0:0:0:0:
182,192,32247,1,0,0:0:0:0:
475,192,32247,1,0,0:0:0:0:
402,192,32417,1,0,0:0:0:0:
36,192,32417,1,0,0:0:0:0:
329,192,32588,1,0,0:0:0:0:
109,192,32588,1,0,0:0:0:0:
256,192,32758,1,0,0:0:0:0:
182,192,32929,1,0,0:0:0:0:
329,192,33440,1,0,0:0:0:0:
36,192,33440,1,0,0:0:0:0:
182,192,33611,1,0,0:0:0:0:
475,192,33611,1,0,0:0:0:0:
402,192,33781,1,0,0:0:0:0:
36,192,33781,1,0,0:0:0:0:
329,192,33952,1,0,0:0:0:0:
109,192,33952,1,0,0:0:0:0:
256,192,34122,1,0,0:0:0:0:
182,192,34292,1,0,0:0:0:0:
329,192,34633,1,0,0:0:0:0:
109,192,34633,1,0,0:0:0:0:
329,192,34804,1,0,0:0:0:0:
36,192,34804,1,0,0:0:0:0:
182,192,34974,1,0,0:0:0:0:
475,192,34974,1,0,0:0:0:0:
402,192,35145,1,0,0:0:0:0:
36,192,35145,1,0,0:0:0:0:
109,192,35315,1,0,0:0:0:0:
329,192,35315,1,0,0:0:0:0:
475,192,35486,1,0,0:0:0:0:
256,192,35486,1,0,0:0:0:0:
182,192,35656,1,0,0:0:0:0:
109,192,35827,1,0,0:0:0:0:
182,192,35997,1,0,0:0:0:0:
475,192,36167,1,0,0:0:0:0:
182,192,36338,1,0,0:0:0:0:
402,192,36508,1,0,0:0:0:0:
109,192,36679,1,0,0:0:0:0:
329,192,36849,1,0,0:0:0:0:
36,192,37020,1,0,0:0:0:0:
256,192,37190,1,0,0:0:0:0:
402,192,37190,1,0,0:0:0:0:
329,192,37361,1,0,0:0:0:0:
109,192,37361,1,0,0:0:0:0:
256,192,37531,1,0,0:0:0:0:
36,192,37531,128,0,38213:0:0:0:0:
475,192,37872,1,0,0:0:0:0:
182,192,37872,128,0,38554:0:0:0:0:
109,192,38554,128,0,38895:0:0:0:0:
182,192,38895,1,0,0:0:0:0:
402,192,38895,128,0,39236:0:0:0:0:
109,192,39236,1,0,0:0:0:0:
329,192,39236,128,0,39577:0:0:0:0:
475,192,39577,128,0,40258:0:0:0:0:
182,192,40258,1,0,0:0:0:0:
36,192,40258,128,0,41281:0:0:0:0:
256,192,40599,1,0,0:0:0:0:
402,192,40599,1,0,0:0:0:0:
182,192,41281,128,0,41622:0:0:0:0:
109,192,41622,1,0,0:0:0:0:
402,192,41622,128,0,41963:0:0:0:0:
182,192,41963,1,0,0:0:0:0:
329,192,41963,128,0,42304:0:0:0:0:
475,192,41963,1,0,0:0:0:0:
256,192,42304,1,0,0:0:0:0:
36,192,42304,128,0,42645:0:0:0:0:
182,192,42304,1,0,0:0:0:0:
329,192,42645,1,0,0:0:0:0:
109,192,42645,128,0,42986:0:0:0:0:
475,192,42645,1,0,0:0:0:0:
256,192,42986,1,0,0:0:0:0:
36,192,42986,1,0,0:0:0:0:
402,192,42986,1,0,0:0:0:0:
182,192,43327,1,0,0:0:0:0:
329,192,43327,1,0,0:0:0:0:
475,192,43327,128,0,44008:0:0:0:0:
329,192,44008,128,0,44349:0:0:0:0:
182,192,44349,1,0,0:0:0:0:
36,192,44349,1,0,0:0:0:0:
402,192,44349,128,0,45372:0:0:0:0:
109,192,44690,1,0,0:0:0:0:
256,192,44690,1,0,0:0:0:0:
329,192,44690,1,0,0:0:0:0:
36,192,45031,128,0,45713:0:0:0:0:
109,192,45713,1,0,0:0:0:0:
329,192,45713,128,0,46736:0:0:0:0:
109,192,46054,1,0,0:0:0:0:
256,192,46054,1,0,0:0:0:0:
475,192,46054,1,0,0:0:0:0:
402,192,47077,1,0,0:0:0:0:
109,192,47077,1,0,0:0:0:0:
36,192,47077,128,0,48099:0:0:0:0:
329,192,47417,1,0,0:0:0:0:
109,192,47417,1,0,0:0:0:0:
329,192,48440,1,0,0:0:0:0:
36,192,48440,1,0,0:0:0:0:
109,192,48610,1,0,0:0:0:0:
182,192,48780,1,0,0:0:0:0:
256,192,48951,1,0,0:0:0:0:
329,192,49121,1,0,0:0:0:0:
109,192,49121,1,0,0:0:0:0:
402,192,49292,1,0,0:0:0:0:
182,192,49292,1,0,0:0:0:0:
256,192,49462,1,0,0:0:0:0:
475,192,49462,1,0,0:0:0:0:
109,192,49462,1,0,0:0:0:0:
256,192,49803,1,0,0:0:0:0:
402,192,49803,1,0,0:0:0:0:
256,192,50144,1,0,0:0:0:0:
329,192,50144,1,0,0:0:0:0:
402,192,50485,1,0,0:0:0:0:
109,192,50485,1,0,0:0:0:0:
36,192,50655,1,0,0:0:0:0:
109,192,50826,1,0,0:0:0:0:
182,192,50996,1,0,0:0:0:0:
329,192,51167,1,0,0:0:0:0:
36,192,51167,1,0,0:0:0:0:
475,192,51337,1,0,0:0:0:0:
402,192,51508,1,0,0:0:0:0:
182,192,51508,1,0,0:0:0:0:
475,192,51849,1,0,0:0:0:0:
256,192,51849,1,0,0:0:0:0:
109,192,51849,1,0,0:0:0:0:
475,192,52190,1,0,0:0:0:0:
256,192,52190,1,0,0:0:0:0:
36,192,52190,1,0,0:0:0:0:
36,192,52530,1,0,0:0:0:0:
402,192,52530,1,0,0:0:0:0:
109,192,52701,1,0,0:0:0:0:
182,192,52871,1,0,0:0:0:0:
256,192,53042,1,0,0:0:0:0:
329,192,53212,1,0,0:0:0:0:
109,192,53212,1,0,0:0:0:0:
402,192,53383,1,0,0:0:0:0:
182,192,53383,1,0,0:0:0:0:
256,192,53553,1,0,0:0:0:0:
475,192,53553,1,0,0:0:0:0:
36,192,53553,1,0,0:0:0:0:
256,192,53894,1,0,0:0:0:0:
402,192,53894,1,0,0:0:0:0:
256,192,54235,1,0,0:0:0:0:
329,192,54235,1,0,0:0:0:0:
109,192,54576,1,0,0:0:0:0:
402,192,54576,1,0,0:0:0:0:
36,192,54746,1,0,0:0:0:0:
109,192,54917,1,0,0:0:0:0:
182,192,55087,1,0,0:0:0:0:
329,192,55258,1,0,0:0:0:0:
36,192,55258,1,0,0:0:0:0:
475,192,55428,1,0,0:0:0:0:
182,192,55599,1,0,0:0:0:0:
402,192,55599,1,0,0:0:0:0:
256,192,55940,1,0,0:0:0:0:
475,192,55940,1,0,0:0:0:0:
109,192,55940,1,0,0:0:0:0:
256,192,56280,1,0,0:0:0:0:
36,192,56280,1,0,0:0:0:0:
402,192,56280,1,0,0:0:0:0:
36,192,56621,1,0,0:0:0:0:
329,192,56621,1,0,0:0:0:0:
256,192,56621,1,0,0:0:0:0:
182,192,56962,1,0,0:0:0:0:
475,192,56962,1,0,0:0:0:0:
109,192,57303,1,0,0:0:0:0:
256,192,57303,1,0,0:0:0:0:
402,192,57303,1,0,0:0:0:0:
475,192,57474,1,0,0:0:0:0:
402,192,57644,1,0,0:0:0:0:
36,192,57644,1,0,0:0:0:0:
256,192,57815,1,0,0:0:0:0:
182,192,57985,1,0,0:0:0:0:
475,192,57985,1,0,0:0:0:0:
475,192,58326,1,0,0:0:0:0:
329,192,58326,1,0,0:0:0:0:
182,192,58326,1,0,0:0:0:0:
36,192,58326,1,0,0:0:0:0:
256,192,58667,1,0,0:0:0:0:
402,192,58667,1,0,0:0:0:0:
36,192,58667,1,0,0:0:0:0:
475,192,59008,1,0,0:0:0:0:
329,192,59008,1,0,0:0:0:0:
402,192,59349,1,0,0:0:0:0:
182,192,59349,1,0,0:0:0:0:
256,192,59349,1,0,0:0:0:0:
475,192,59519,1,0,0:0:0:0:
402,192,59690,1,0,0:0:0:0:
109,192,59690,1,0,0:0:0:0:
256,192,59860,1,0,0:0:0:0:
36,192,60030,1,0,0:0:0:0:
402,192,60030,1,0,0:0:0:0:
256,192,60371,1,0,0:0:0:0:
182,192,60371,1,0,0:0:0:0:
475,192,60371,1,0,0:0:0:0:
36,192,60712,1,0,0:0:0:0:
329,192,60712,1,0,0:0:0:0:
182,192,60883,1,0,0:0:0:0:
329,192,61053,1,0,0:0:0:0:
475,192,61053,1,0,0:0:0:0:
182,192,61224,1,0,0:0:0:0:
256,192,61394,1,0,0:0:0:0:
402,192,61394,1,0,0:0:0:0:
329,192,61565,1,0,0:0:0:0:
182,192,61735,1,0,0:0:0:0:
36,192,61735,1,0,0:0:0:0:
256,192,62076,1,0,0:0:0:0:
402,192,62076,1,0,0:0:0:0:
36,192,62076,1,0,0:0:0:0:
329,192,62417,1,0,0:0:0:0:
182,192,62417,1,0,0:0:0:0:
36,192,62417,1,0,0:0:0:0:
475,192,62417,1,0,0:0:0:0:
109,192,62758,1,0,0:0:0:0:
256,192,62758,1,0,0:0:0:0:
182,192,63099,1,0,0:0:0:0:
402,192,63099,1,0,0:0:0:0:
182,192,63440,1,0,0:0:0:0:
475,192,63440,1,0,0:0:0:0:
402,192,63610,1,0,0:0:0:0:
109,192,63780,1,0,0:0:0:0:
329,192,63780,128,0,64462:0:0:0:0:
36,192,64121,128,0,64462:0:0:0:0:
182,192,64121,1,0,0:0:0:0:
182,192,64462,1,0,0:0:0:0:
475,192,64462,1,0,0:0:0:0:
256,192,64803,1,0,0:0:0:0:
329,192,64803,1,0,0:0:0:0:
109,192,64803,1,0,0:0:0:0:
475,192,65144,1,0,0:0:0:0:
329,192,65144,1,0,0:0:0:0:
182,192,65144,1,0,0:0:0:0:
256,192,65485,1,0,0:0:0:0:
109,192,65485,1,0,0:0:0:0:
402,192,65485,1,0,0:0:0:0:
475,192,65655,1,0,0:0:0:0:
402,192,65826,1,0,0:0:0:0:
109,192,65826,1,0,0:0:0:0:
36,192,65826,1,0,0:0:0:0:
329,192,66167,1,0,0:0:0:0:
256,192,66167,1,0,0:0:0:0:
109,192,66167,1,0,0:0:0:0:
36,192,66508,1,0,0:0:0:0:
256,192,66508,1,0,0:0:0:0:
402,192,66508,1,0,0:0:0:0:
475,192,66508,1,0,0:0:0:0:
475,192,66849,1,0,0:0:0:0:
109,192,66849,1,0,0:0:0:0:
329,192,66849,1,0,0:0:0:0:
475,192,67190,1,0,0:0:0:0:
402,192,67190,1,0,0:0:0:0:
182,192,67190,1,0,0:0:0:0:
402,192,67530,1,0,0:0:0:0:
256,192,67530,1,0,0:0:0:0:
36,192,67530,1,0,0:0:0:0:
329,192,67701,1,0,0:0:0:0:
182,192,67871,1,0,0:0:0:0:
36,192,67871,1,0,0:0:0:0:
475,192,67871,1,0,0:0:0:0:
402,192,68212,1,0,0:0:0:0:
256,192,68212,1,0,0:0:0:0:
109,192,68212,1,0,0:0:0:0:
256,192,68553,1,0,0:0:0:0:
329,192,68553,1,0,0:0:0:0:
109,192,68553,1,0,0:0:0:0:
182,192,68894,1,0,0:0:0:0:
36,192,68894,1,0,0:0:0:0:
402,192,68894,1,0,0:0:0:0:
256,192,69235,1,0,0:0:0:0:
109,192,69235,1,0,0:0:0:0:
475,192,69235,1,0,0:0:0:0:
256,192,69576,1,0,0:0:0:0:
402,192,69576,1,0,0:0:0:0:
36,192,69576,1,0,0:0:0:0:
182,192,69746,1,0,0:0:0:0:
182,192,69917,1,0,0:0:0:0:
329,192,69917,1,0,0:0:0:0:
36,192,69917,1,0,0:0:0:0:
475,192,70258,1,0,0:0:0:0:
329,192,70258,1,0,0:0:0:0:
109,192,70258,1,0,0:0:0:0:
182,192,70258,1,0,0:0:0:0:
256,192,70599,1,0,0:0:0:0:
36,192,70599,1,0,0:0:0:0:
109,192,70599,1,0,0:0:0:0:
402,192,70599,1,0,0:0:0:0:
329,192,70940,1,0,0:0:0:0:
475,192,70940,1,0,0:0:0:0:
36,192,70940,1,0,0:0:0:0:
256,192,71280,1,0,0:0:0:0:
109,192,71280,1,0,0:0:0:0:
475,192,71280,1,0,0:0:0:0:
402,192,71621,1,0,0:0:0:0:
329,192,71792,1,0,0:0:0:0:
36,192,71962,128,0,72303:0:0:0:0:
402,192,71962,128,0,72644:0:0:0:0:
256,192,71962,128,0,72303:0:0:0:0:
109,192,72303,128,0,72985:0:0:0:0:
475,192,72644,128,0,72985:0:0:0:0:
182,192,72985,128,0,74007:0:0:0:0:
329,192,72985,1,0,0:0:0:0:
475,192,73155,1,0,0:0:0:0:
109,192,73325,1,0,0:0:0:0:
256,192,73496,1,0,0:0:0:0:
402,192,73666,1,0,0:0:0:0:
36,192,73837,1,0,0:0:0:0:
109,192,74007,1,0,0:0:0:0:
256,192,74178,1,0,0:0:0:0:
36,192,74348,128,0,75371:0:0:0:0:
402,192,74348,1,0,0:0:0:0:
256,192,74519,1,0,0:0:0:0:
329,192,74689,1,0,0:0:0:0:
182,192,74860,1,0,0:0:0:0:
256,192,75030,1,0,0:0:0:0:
109,192,75200,1,0,0:0:0:0:
182,192,75371,1,0,0:0:0:0:
256,192,75541,1,0,0:0:0:0:
329,192,75712,128,0,76735:0:0:0:0:
475,192,75712,1,0,0:0:0:0:
36,192,75882,1,0,0:0:0:0:
109,192,76053,1,0,0:0:0:0:
182,192,76223,1,0,0:0:0:0:
402,192,76394,1,0,0:0:0:0:
36,192,76564,1,0,0:0:0:0:
109,192,76735,1,0,0:0:0:0:
256,192,76905,1,0,0:0:0:0:
402,192,77075,128,0,78098:0:0:0:0:
329,192,77075,1,0,0:0:0:0:
109,192,77246,1,0,0:0:0:0:
256,192,77416,1,0,0:0:0:0:
475,192,77587,1,0,0:0:0:0:
256,192,77757,1,0,0:0:0:0:
109,192,77928,1,0,0:0:0:0:
329,192,78098,128,0,78439:0:0:0:0:
182,192,78098,1,0,0:0:0:0:
36,192,78269,1,0,0:0:0:0:
182,192,78439,128,0,79462:0:0:0:0:
402,192,78439,1,0,0:0:0:0:
475,192,78610,1,0,0:0:0:0:
109,192,78780,1,0,0:0:0:0:
256,192,78950,1,0,0:0:0:0:
402,192,79121,128,0,79803:0:0:0:0:
329,192,79121,1,0,0:0:0:0:
36,192,79291,1,0,0:0:0:0:
109,192,79462,1,0,0:0:0:0:
256,192,79632,1,0,0:0:0:0:
109,192,79803,128,0,80825:0:0:0:0:
475,192,79803,1,0,0:0:0:0:
329,192,79973,1,0,0:0:0:0:
402,192,80144,1,0,0:0:0:0:
256,192,80314,1,0,0:0:0:0:
475,192,80485,128,0,81166:0:0:0:0:
329,192,80485,1,0,0:0:0:0:
182,192,80655,1,0,0:0:0:0:
256,192,80825,1,0,0:0:0:0:
329,192,80996,1,0,0:0:0:0:
182,192,81166,128,0,82189:0:0:0:0:
402,192,81166,1,0,0:0:0:0:
109,192,81337,1,0,0:0:0:0:
256,192,81507,1,0,0:0:0:0:
329,192,81678,1,0,0:0:0:0:
402,192,81848,1,0,0:0:0:0:
36,192,82019,1,0,0:0:0:0:
256,192,82189,1,0,0:0:0:0:
329,192,82360,1,0,0:0:0:0:
109,192,82530,128,0,83894:0:0:0:0:
475,192,82530,1,0,0:0:0:0:
182,192,82700,1,0,0:0:0:0:
329,192,82871,1,0,0:0:0:0:
402,192,83041,1,0,0:0:0:0:
475,192,83212,1,0,0:0:0:0:
182,192,83212,128,0,83894:0:0:0:0:
402,192,83382,1,0,0:0:0:0:
329,192,83553,1,0,0:0:0:0:
256,192,83723,1,0,0:0:0:0:
329,192,83894,1,0,0:0:0:0:
36,192,83894,1,0,0:0:0:0:
475,192,84064,1,0,0:0:0:0:
109,192,84235,1,0,0:0:0:0:
256,192,84405,1,0,0:0:0:0:
402,192,84575,1,0,0:0:0:0:
36,192,84575,1,0,0:0:0:0:
182,192,84746,1,0,0:0:0:0:
256,192,84916,1,0,0:0:0:0:
329,192,85087,1,0,0:0:0:0:
475,192,85257,1,0,0:0:0:0:
36,192,85257,1,0,0:0:0:0:
256,192,85428,1,0,0:0:0:0:
402,192,85598,1,0,0:0:0:0:
182,192,85769,1,0,0:0:0:0:
329,192,85939,1,0,0:0:0:0:
36,192,85939,1,0,0:0:0:0:
109,192,86110,1,0,0:0:0:0:
256,192,86280,1,0,0:0:0:0:
329,192,86450,1,0,0:0:0:0:
475,192,86621,128,0,87644:0:0:0:0:
256,192,86621,1,0,0:0:0:0:
36,192,86621,1,0,0:0:0:0:
109,192,86791,1,0,0:0:0:0:
182,192,86962,1,0,0:0:0:0:
256,192,87132,1,0,0:0:0:0:
329,192,87303,1,0,0:0:0:0:
36,192,87303,1,0,0:0:0:0:
182,192,87473,1,0,0:0:0:0:
256,192,87644,1,0,0:0:0:0:
329,192,87814,1,0,0:0:0:0:
402,192,87985,1,0,0:0:0:0:
36,192,87985,1,0,0:0:0:0:
182,192,88155,1,0,0:0:0:0:
402,192,88325,1,0,0:0:0:0:
475,192,88496,1,0,0:0:0:0:
329,192,88666,1,0,0:0:0:0:
36,192,88666,1,0,0:0:0:0:
256,192,88837,1,0,0:0:0:0:
182,192,89007,1,0,0:0:0:0:
109,192,89178,1,0,0:0:0:0:
36,192,89348,1,0,0:0:0:0:
329,192,89348,1,0,0:0:0:0:
402,192,89348,128,0,92075:0:0:0:0:
475,192,89519,1,0,0:0:0:0:
182,192,89689,1,0,0:0:0:0:
256,192,89860,1,0,0:0:0:0:
36,192,90030,1,0,0:0:0:0:
329,192,90030,1,0,0:0:0:0:
109,192,90200,1,0,0:0:0:0:
182,192,90371,1,0,0:0:0:0:
256,192,90541,1,0,0:0:0:0:
36,192,90712,1,0,0:0:0:0:
475,192,90712,128,0,92075:0:0:0:0:
329,192,90712,1,0,0:0:0:0:
182,192,90882,1,0,0:0:0:0:
256,192,91053,1,0,0:0:0:0:
109,192,91223,1,0,0:0:0:0:
36,192,91394,1,0,0:0:0:0:
329,192,91394,1,0,0:0:0:0:
182,192,91564,1,0,0:0:0:0:
256,192,91735,1,0,0:0:0:0:
182,192,91905,1,0,0:0:0:0:
329,192,92075,1,0,0:0:0:0:
109,192,92075,1,0,0:0:0:0:
36,192,92075,128,0,94121:0:0:0:0:
182,192,92246,1,0,0:0:0:0:
256,192,92416,1,0,0:0:0:0:
329,192,92587,1,0,0:0:0:0:
402,192,92757,1,0,0:0:0:0:
475,192,92757,1,0,0:0:0:0:
109,192,92757,128,0,94121:0:0:0:0:
256,192,92928,1,0,0:0:0:0:
329,192,93098,1,0,0:0:0:0:
402,192,93269,1,0,0:0:0:0:
475,192,93439,1,0,0:0:0:0:
182,192,93439,128,0,94121:0:0:0:0:
256,192,93439,1,0,0:0:0:0:
329,192,93610,1,0,0:0:0:0:
402,192,93780,1,0,0:0:0:0:
475,192,93950,1,0,0:0:0:0:
329,192,94121,1,0,0:0:0:0:
256,192,94121,1,0,0:0:0:0:
475,192,94121,1,0,0:0:0:0:
182,192,94803,1,0,0:0:0:0:
36,192,94803,128,0,95144:0:0:0:0:
329,192,94803,128,0,94973:0:0:0:0:
475,192,94973,128,0,95485:0:0:0:0:
109,192,95144,128,0,95485:0:0:0:0:
256,192,95314,128,0,95485:0:0:0:0:
402,192,95485,128,0,95996:0:0:0:0:
329,192,95485,1,0,0:0:0:0:
36,192,95655,128,0,95825:0:0:0:0:
182,192,95825,128,0,96166:0:0:0:0:
329,192,95996,128,0,96166:0:0:0:0:
475,192,96166,128,0,96848:0:0:0:0:
36,192,96166,128,0,96848:0:0:0:0:
256,192,96337,128,0,96507:0:0:0:0:
402,192,96507,128,0,97189:0:0:0:0:
182,192,96678,128,0,96848:0:0:0:0:
329,192,96848,128,0,97189:0:0:0:0:
109,192,97019,128,0,97189:0:0:0:0:
475,192,97189,1,0,0:0:0:0:
182,192,97189,128,0,97530:0:0:0:0:
402,192,97360,1,0,0:0:0:0:
256,192,97360,128,0,97530:0:0:0:0:
36,192,97530,128,0,98212:0:0:0:0:
475,192,97530,1,0,0:0:0:0:
329,192,97530,128,0,97871:0:0:0:0:
109,192,97700,128,0,98212:0:0:0:0:
182,192,97871,128,0,98212:0:0:0:0:
329,192,98041,128,0,98212:0:0:0:0:
475,192,98041,128,0,98723:0:0:0:0:
402,192,98212,128,0,98553:0:0:0:0:
256,192,98212,1,0,0:0:0:0:
182,192,98382,128,0,98553:0:0:0:0:
256,192,98553,128,0,98894:0:0:0:0:
36,192,98553,128,0,98894:0:0:0:0:
329,192,98723,128,0,98894:0:0:0:0:
475,192,98894,128,0,99235:0:0:0:0:
402,192,98894,1,0,0:0:0:0:
109,192,98894,128,0,99575:0:0:0:0:
256,192,99064,128,0,99575:0:0:0:0:
329,192,99235,128,0,99575:0:0:0:0:
475,192,99405,128,0,99575:0:0:0:0:
182,192,99575,1,0,0:0:0:0:
36,192,99575,1,0,0:0:0:0:
402,192,99575,128,0,99746:0:0:0:0:
256,192,99746,1,0,0:0:0:0:
36,192,99916,1,0,0:0:0:0:
475,192,99916,1,0,0:0:0:0:
182,192,99916,128,0,100087:0:0:0:0:
402,192,100087,1,0,0:0:0:0:
109,192,100087,128,0,100257:0:0:0:0:
36,192,100257,128,0,100598:0:0:0:0:
182,192,100257,1,0,0:0:0:0:
329,192,100257,1,0,0:0:0:0:
475,192,100428,128,0,100939:0:0:0:0:
109,192,100598,128,0,100939:0:0:0:0:
256,192,100769,128,0,100939:0:0:0:0:
402,192,100939,128,0,101450:0:0:0:0:
329,192,100939,1,0,0:0:0:0:
36,192,101110,128,0,101280:0:0:0:0:
109,192,101280,128,0,101621:0:0:0:0:
182,192,101450,128,0,101621:0:0:0:0:
36,192,101621,128,0,102303:0:0:0:0:
475,192,101621,128,0,101962:0:0:0:0:
329,192,101621,1,0,0:0:0:0:
256,192,101791,128,0,101962:0:0:0:0:
329,192,101962,128,0,102303:0:0:0:0:
475,192,102132,128,0,102303:0:0:0:0:
256,192,102303,1,0,0:0:0:0:
109,192,102303,128,0,102985:0:0:0:0:
402,192,102303,128,0,102985:0:0:0:0:
182,192,102473,1,0,0:0:0:0:
256,192,102644,1,0,0:0:0:0:
36,192,102644,1,0,0:0:0:0:
329,192,102814,1,0,0:0:0:0:
182,192,102814,1,0,0:0:0:0:
475,192,102985,128,0,104348:0:0:0:0:
256,192,102985,1,0,0:0:0:0:
36,192,102985,128,0,103496:0:0:0:0:
109,192,103155,128,0,103496:0:0:0:0:
182,192,103325,128,0,103666:0:0:0:0:
256,192,103496,128,0,103666:0:0:0:0:
36,192,103666,128,0,104178:0:0:0:0:
329,192,103666,128,0,104007:0:0:0:0:
109,192,103837,128,0,104178:0:0:0:0:
256,192,104007,128,0,104348:0:0:0:0:
329,192,104178,128,0,104348:0:0:0:0:
402,192,104348,128,0,105030:0:0:0:0:
182,192,104519,1,0,0:0:0:0:
109,192,104519,128,0,104860:0:0:0:0:
329,192,104689,128,0,105030:0:0:0:0:
36,192,104860,128,0,105030:0:0:0:0:
182,192,105030,128,0,105712:0:0:0:0:
256,192,105030,1,0,0:0:0:0:
475,192,105200,128,0,105541:0:0:0:0:
109,192,105371,128,0,105712:0:0:0:0:
329,192,105371,1,0,0:0:0:0:
402,192,105541,128,0,105712:0:0:0:0:
36,192,105712,128,0,106053:0:0:0:0:
329,192,105712,128,0,105882:0:0:0:0:
256,192,105712,1,0,0:0:0:0:
475,192,105882,128,0,106394:0:0:0:0:
109,192,106053,128,0,106394:0:0:0:0:
256,192,106223,128,0,106394:0:0:0:0:
402,192,106394,128,0,106905:0:0:0:0:
329,192,106394,1,0,0:0:0:0:
36,192,106564,128,0,106735:0:0:0:0:
182,192,106735,128,0,107075:0:0:0:0:
329,192,106905,128,0,107075:0:0:0:0:
36,192,107075,128,0,107757:0:0:0:0:
475,192,107075,128,0,107757:0:0:0:0:
256,192,107246,128,0,107416:0:0:0:0:
402,192,107416,128,0,108098:0:0:0:0:
182,192,107587,128,0,107757:0:0:0:0:
329,192,107757,128,0,108098:0:0:0:0:
109,192,107928,128,0,108098:0:0:0:0:
182,192,108098,128,0,108439:0:0:0:0:
475,192,108098,1,0,0:0:0:0:
402,192,108269,1,0,0:0:0:0:
256,192,108269,128,0,108439:0:0:0:0:
36,192,108439,128,0,109121:0:0:0:0:
329,192,108439,128,0,108780:0:0:0:0:
475,192,108439,1,0,0:0:0:0:
109,192,108610,128,0,109121:0:0:0:0:
182,192,108780,128,0,109121:0:0:0:0:
329,192,108950,128,0,109121:0:0:0:0:
475,192,108950,128,0,109632:0:0:0:0:
402,192,109121,128,0,109462:0:0:0:0:
256,192,109121,1,0,0:0:0:0:
182,192,109291,128,0,109462:0:0:0:0:
36,192,109462,128,0,109803:0:0:0:0:
256,192,109462,128,0,109803:0:0:0:0:
329,192,109632,128,0,109803:0:0:0:0:
109,192,109803,128,0,110485:0:0:0:0:
475,192,109803,128,0,110144:0:0:0:0:
402,192,109803,1,0,0:0:0:0:
256,192,109973,128,0,110485:0:0:0:0:
329,192,110144,128,0,110485:0:0:0:0:
475,192,110314,128,0,111166:0:0:0:0:
36,192,110485,1,0,0:0:0:0:
402,192,110485,128,0,111166:0:0:0:0:
182,192,110485,128,0,110825:0:0:0:0:
36,192,110825,1,0,0:0:0:0:
329,192,110825,128,0,111166:0:0:0:0:
109,192,110996,1,0,0:0:0:0:
182,192,111081,1,0,0:0:0:0:
256,192,111166,1,0,0:0:0:0:
36,192,111166,128,0,111507:0:0:0:0:
475,192,111337,128,0,111848:0:0:0:0:
109,192,111507,128,0,111848:0:0:0:0:
256,192,111678,128,0,111848:0:0:0:0:
402,192,111848,128,0,112019:0:0:0:0:
182,192,111848,1,0,0:0:0:0:
36,192,112019,128,0,112189:0:0:0:0:
475,192,112019,128,0,112189:0:0:0:0:
402,192,112189,128,0,112360:0:0:0:0:
182,192,112189,128,0,112530:0:0:0:0:
329,192,112360,128,0,112530:0:0:0:0:
475,192,112530,128,0,112871:0:0:0:0:
36,192,112530,128,0,113212:0:0:0:0:
109,192,112530,1,0,0:0:0:0:
182,192,112700,128,0,112871:0:0:0:0:
329,192,112871,128,0,113212:0:0:0:0:
475,192,113041,128,0,113212:0:0:0:0:
109,192,113212,128,0,113894:0:0:0:0:
402,192,113212,128,0,113894:0:0:0:0:
256,192,113212,1,0,0:0:0:0:
256,192,113553,1,0,0:0:0:0:
256,192,113723,1,0,0:0:0:0:
329,192,113894,1,0,0:0:0:0:
182,192,113894,1,0,0:0:0:0:
475,192,113894,128,0,114916:0:0:0:0:
36,192,113894,128,0,115939:0:0:0:0:
109,192,114064,1,0,0:0:0:0:
182,192,114235,1,0,0:0:0:0:
256,192,114405,1,0,0:0:0:0:
402,192,114575,1,0,0:0:0:0:
256,192,114746,1,0,0:0:0:0:
329,192,114916,1,0,0:0:0:0:
182,192,114916,128,0,115598:0:0:0:0:
402,192,115087,1,0,0:0:0:0:
329,192,115257,1,0,0:0:0:0:
475,192,115257,128,0,115939:0:0:0:0:
256,192,115428,1,0,0:0:0:0:
329,192,115598,128,0,115939:0:0:0:0:
109,192,115769,1,0,0:0:0:0:
182,192,115939,128,0,116621:0:0:0:0:
256,192,115939,1,0,0:0:0:0:
329,192,116110,1,0,0:0:0:0:
36,192,116280,128,0,116621:0:0:0:0:
402,192,116280,1,0,0:0:0:0:
475,192,116450,1,0,0:0:0:0:
109,192,116621,1,0,0:0:0:0:
402,192,116791,1,0,0:0:0:0:
329,192,116962,1,0,0:0:0:0:
36,192,117132,1,0,0:0:0:0:
329,192,117303,1,0,0:0:0:0:
256,192,117473,1,0,0:0:0:0:
109,192,117644,1,0,0:0:0:0:
182,192,117814,1,0,0:0:0:0:
109,192,117985,1,0,0:0:0:0:
402,192,118155,1,0,0:0:0:0:
329,192,118325,1,0,0:0:0:0:
36,192,118496,1,0,0:0:0:0:
329,192,118666,1,0,0:0:0:0:
109,192,118666,1,0,0:0:0:0:
402,192,118837,1,0,0:0:0:0:
182,192,118837,1,0,0:0:0:0:
475,192,119007,1,0,0:0:0:0:
256,192,119007,1,0,0:0:0:0:
402,192,119178,1,0,0:0:0:0:
182,192,119178,1,0,0:0:0:0:
329,192,119348,1,0,0:0:0:0:
36,192,119348,1,0,0:0:0:0:
475,192,119519,1,0,0:0:0:0:
402,192,119689,1,0,0:0:0:0:
109,192,119860,1,0,0:0:0:0:
402,192,120030,1,0,0:0:0:0:
256,192,120030,1,0,0:0:0:0:
329,192,120200,1,0,0:0:0:0:
182,192,120371,1,0,0:0:0:0:
256,192,120541,1,0,0:0:0:0:
36,192,120712,1,0,0:0:0:0:
182,192,120882,1,0,0:0:0:0:
475,192,120882,1,0,0:0:0:0:
402,192,121053,1,0,0:0:0:0:
256,192,121053,1,0,0:0:0:0:
329,192,121223,1,0,0:0:0:0:
182,192,121223,1,0,0:0:0:0:
256,192,121394,1,0,0:0:0:0:
36,192,121394,1,0,0:0:0:0:
109,192,121564,1,0,0:0:0:0:
329,192,121564,1,0,0:0:0:0:
475,192,121735,1,0,0:0:0:0:
256,192,121735,1,0,0:0:0:0:
402,192,121905,1,0,0:0:0:0:
182,192,121905,1,0,0:0:0:0:
109,192,122075,1,0,0:0:0:0:
475,192,122246,1,0,0:0:0:0:
329,192,122416,1,0,0:0:0:0:
36,192,122587,1,0,0:0:0:0:
402,192,122757,1,0,0:0:0:0:
256,192,122928,1,0,0:0:0:0:
109,192,123098,1,0,0:0:0:0:
329,192,123269,1,0,0:0:0:0:
182,192,123439,1,0,0:0:0:0:
475,192,123610,1,0,0:0:0:0:
329,192,123780,1,0,0:0:0:0:
36,192,123950,1,0,0:0:0:0:
329,192,124121,1,0,0:0:0:0:
109,192,124121,1,0,0:0:0:0:
256,192,124291,1,0,0:0:0:0:
402,192,124291,1,0,0:0:0:0:
475,192,124462,1,0,0:0:0:0:
109,192,124462,1,0,0:0:0:0:
329,192,124632,1,0,0:0:0:0:
36,192,124632,1,0,0:0:0:0:
182,192,124803,1,0,0:0:0:0:
475,192,124973,1,0,0:0:0:0:
329,192,125144,1,0,0:0:0:0:
36,192,125314,1,0,0:0:0:0:
402,192,125485,1,0,0:0:0:0:
256,192,125655,1,0,0:0:0:0:
109,192,125825,1,0,0:0:0:0:
329,192,125996,1,0,0:0:0:0:
182,192,126166,1,0,0:0:0:0:
475,192,126337,1,0,0:0:0:0:
329,192,126507,1,0,0:0:0:0:
36,192,126678,1,0,0:0:0:0:
109,192,126848,1,0,0:0:0:0:
402,192,126848,1,0,0:0:0:0:
182,192,127019,1,0,0:0:0:0:
329,192,127019,1,0,0:0:0:0:
256,192,127189,1,0,0:0:0:0:
475,192,127189,1,0,0:0:0:0:
36,192,127360,1,0,0:0:0:0:
329,192,127360,1,0,0:0:0:0:
