osu file format v14

[General]
AudioFilename: audio.mp3
AudioLeadIn: 0
PreviewTime: 94960
Countdown: 0
SampleSet: Soft
StackLeniency: 0.7
Mode: 3
LetterboxInBreaks: 0
SpecialStyle: 0
WidescreenStoryboard: 1

[Editor]
DistanceSpacing: 0.8
BeatDivisor: 4
GridSize: 4
TimelineZoom: 1.5

[Metadata]
Title:Utopiosphere
TitleUnicode:Utopiosphere
Artist:Mili
ArtistUnicode:Mili
Creator:Voxa
Version:Easy
Source:Deemo
Tags:miracle milk piano fantasy forest utopia famoss english video game
BeatmapID:2252306
BeatmapSetID:1076432

[Difficulty]
HPDrainRate:6.5
CircleSize:9
OverallDifficulty:6.8
ApproachRate:5
SliderMultiplier:1.4
SliderTickRate:1

[Events]
//Background and Video events
0,0,"687974.jpg",0,0
//Break Periods
//Storyboard Layer 0 (Background)
//Storyboard Layer 1 (Fail)
//Storyboard Layer 2 (Pass)
//Storyboard Layer 3 (Foreground)
//Storyboard Layer 4 (Overlay)
//Storyboard Sound Samples
Sample,15528,0,"LR2_HHCYF.wav",70
Sample,18255,0,"LR2_HHCYF.wav",70
Sample,20983,0,"LR2_HHCYF.wav",70
Sample,26778,0,"LR2_HHCYF.wav",70
Sample,97346,0,"LR2_HHCYF.wav",70
Sample,100073,0,"LR2_HHCYF.wav",70
Sample,102801,0,"LR2_HHCYF.wav",70
Sample,108255,0,"LR2_HHCYF.wav",70
Sample,110983,0,"LR2_HHCYF.wav",70
Sample,113710,0,"LR2_HHCYF.wav",70

[TimingPoints]
2233,340.909090909091,4,2,2,50,1,0
12460,-100,4,2,1,70,0,0
26948,-100,4,2,2,70,0,0
56778,-100,4,2,1,70,0,0
73142,-100,4,2,2,70,0,0
84051,-100,4,2,1,70,0,0
94960,-100,4,2,1,80,0,1
103142,-100,4,2,1,75,0,1
105869,-100,4,2,1,80,0,1
114051,-100,4,2,1,75,0,1
116608,-100,4,2,2,50,0,0

[HitObjects]
28,192,2233,128,0,2573:0:0:0:0:
142,192,2573,1,0,0:0:0:0:
199,192,2914,1,0,0:0:0:0:
256,192,3255,1,0,0:0:0:0:
85,192,3596,128,0,3937:0:0:0:0:
199,192,3937,1,0,0:0:0:0:
256,192,4278,1,0,0:0:0:0:
312,192,4619,1,0,0:0:0:0:
142,192,4960,128,0,5301:0:0:0:0:
256,192,5301,1,0,0:0:0:0:
312,192,5642,1,0,0:0:0:0:
369,192,5983,1,0,0:0:0:0:
199,192,6323,128,0,6664:0:0:0:0:
312,192,6664,1,0,0:0:0:0:
369,192,7005,1,0,0:0:0:0:
426,192,7346,1,0,0:0:0:0:
483,192,7687,128,0,8028:0:0:0:0:
369,192,8028,1,0,0:0:0:0:
312,192,8369,1,0,0:0:0:0:
256,192,8710,1,0,0:0:0:0:
426,192,9051,128,0,9392:0:0:0:0:
312,192,9392,1,0,0:0:0:0:
256,192,9733,1,0,0:0:0:0:
199,192,10073,1,0,0:0:0:0:
369,192,10414,128,0,10755:0:0:0:0:
256,192,10755,1,0,0:0:0:0:
199,192,11096,1,0,0:0:0:0:
142,192,11437,1,0,0:0:0:0:
312,192,11778,128,0,12119:0:0:0:0:
199,192,12119,1,0,0:0:0:0:
142,192,12460,128,8,12801:0:0:0:0:
28,192,12801,128,8,13142:0:0:0:0:
426,192,13142,1,2,0:0:0:0:
483,192,13142,1,4,0:0:0:0:
199,192,13483,1,2,0:0:0:0:
312,192,13823,1,8,0:0:0:0:
85,192,14164,1,0,0:0:0:0:
199,192,14505,1,2,0:0:0:0:
256,192,14846,1,2,0:0:0:0:
312,192,15187,1,8,0:0:0:0:
142,192,15528,1,8,0:0:0:0:
199,192,15869,1,2,0:0:0:0:
312,192,16210,1,2,0:0:0:0:
369,192,16551,1,8,0:0:0:0:
85,192,16892,1,0,0:0:0:0:
199,192,17233,1,0,0:0:0:0:
312,192,17573,1,2,0:0:0:0:
426,192,17914,1,8,0:0:0:0:
142,192,18255,1,8,0:0:0:0:
426,192,18596,1,2,0:0:0:0:
483,192,18596,1,4,0:0:0:0:
312,192,18937,1,2,0:0:0:0:
199,192,19278,1,8,0:0:0:0:
426,192,19619,1,0,0:0:0:0:
312,192,19960,1,2,0:0:0:0:
85,192,20301,1,2,0:0:0:0:
199,192,20642,1,8,0:0:0:0:
369,192,20983,1,8,0:0:0:0:
312,192,21323,1,2,0:0:0:0:
142,192,21664,1,2,0:0:0:0:
199,192,22005,1,8,0:0:0:0:
426,192,22346,1,0,0:0:0:0:
312,192,22687,1,0,0:0:0:0:
256,192,23028,1,2,0:0:0:0:
199,192,23369,1,8,0:0:0:0:
142,192,23710,128,8,24051:0:0:0:0:
312,192,24051,1,10,0:0:0:0:
312,192,24392,1,2,0:0:0:0:
142,192,24733,1,10,0:0:0:0:
142,192,25073,1,10,0:0:0:0:
426,192,25414,1,2,0:0:0:0:
426,192,25755,1,2,0:0:0:0:
85,192,25926,1,8,0:0:0:0:
426,192,26267,1,8,0:0:0:0:
85,192,26437,128,4,26778:0:0:0:0:
142,192,26778,1,2,0:0:0:0:
369,192,27119,128,0,28142:0:0:0:0:
85,192,28142,1,0,0:0:0:0:
312,192,28483,128,0,29505:0:0:0:0:
85,192,29505,1,0,0:0:0:70:LR2_HHCYF.wav
256,192,29846,128,0,30869:0:0:0:0:
85,192,30869,128,0,31210:0:0:0:0:
426,192,31210,128,0,31551:0:0:0:0:
312,192,31551,128,0,31892:0:0:0:0:
199,192,31892,128,0,32233:0:0:0:0:
369,192,32233,1,0,0:0:0:70:LR2_HHCYF.wav
142,192,32573,128,0,33596:0:0:0:0:
426,192,33596,1,0,0:0:0:0:
199,192,33937,128,0,34960:0:0:0:0:
426,192,34960,1,0,0:0:0:70:LR2_HHCYF.wav
256,192,35301,128,0,36323:0:0:0:0:
426,192,36323,128,0,36664:0:0:0:0:
85,192,36664,128,0,37005:0:0:0:0:
199,192,37005,128,0,37346:0:0:0:0:
312,192,37346,128,0,37687:0:0:0:0:
369,192,37687,1,0,0:0:0:0:
483,192,38028,1,0,0:0:0:0:
369,192,39051,1,0,0:0:0:0:
256,192,39392,1,0,0:0:0:0:
142,192,40414,1,0,0:0:0:0:
256,192,40755,1,0,0:0:0:0:
142,192,41778,1,0,0:0:0:0:
28,192,42119,1,0,0:0:0:0:
369,192,42460,1,0,0:0:0:0:
483,192,42801,1,0,0:0:0:0:
142,192,43142,1,0,0:0:0:0:
28,192,43483,1,0,0:0:0:0:
142,192,44505,1,0,0:0:0:0:
256,192,44846,1,0,0:0:0:0:
369,192,45869,1,0,0:0:0:0:
256,192,46210,1,0,0:0:0:0:
369,192,47233,1,0,0:0:0:0:
483,192,47573,1,0,0:0:0:0:
142,192,48596,1,0,0:0:0:0:
142,192,49278,1,0,0:0:0:0:
256,192,49448,1,0,0:0:0:0:
369,192,49619,1,0,0:0:0:0:
142,192,49960,1,0,0:0:0:0:
369,192,50301,1,0,0:0:0:0:
85,192,50642,1,0,0:0:0:0:
85,192,51323,1,0,0:0:0:0:
199,192,51494,1,0,0:0:0:0:
312,192,51664,1,0,0:0:0:0:
256,192,52005,1,0,0:0:0:0:
256,192,52346,1,0,0:0:0:0:
369,192,52687,1,0,0:0:0:0:
369,192,53369,1,0,0:0:0:0:
256,192,53539,1,0,0:0:0:0:
142,192,53710,1,0,0:0:0:0:
369,192,54051,1,0,0:0:0:0:
142,192,54392,1,0,0:0:0:0:
426,192,54733,1,0,0:0:0:0:
426,192,55414,1,0,0:0:0:0:
312,192,55585,1,0,0:0:0:0:
199,192,55755,1,0,0:0:0:0:
256,192,56096,1,0,0:0:0:0:
256,192,56437,1,0,0:0:0:50:LR2_HHCYF.wav
426,192,56778,1,2,0:0:0:0:
483,192,56778,1,0,0:0:0:0:
312,192,57119,1,0,0:0:0:0:
199,192,57460,1,8,0:0:0:0:
369,192,57801,1,2,0:0:0:0:
256,192,58142,1,8,0:0:0:0:
142,192,58483,1,8,0:0:0:0:
28,192,58823,1,2,0:0:0:0:
483,192,59164,1,8,0:0:0:0:
312,192,59505,1,8,0:0:0:0:
199,192,59676,1,0,0:0:0:0:
85,192,59846,1,2,0:0:0:0:
312,192,60187,1,8,0:0:0:0:
312,192,60528,1,8,0:0:0:0:
483,192,60869,1,2,0:0:0:0:
28,192,61210,1,8,0:0:0:0:
426,192,61551,1,8,0:0:0:0:
85,192,61892,1,2,0:0:0:0:
369,192,62233,1,2,0:0:0:0:
142,192,62573,1,8,0:0:0:0:
312,192,62914,1,2,0:0:0:0:
199,192,63255,1,8,0:0:0:0:
256,192,63596,1,0,0:0:0:0:
312,192,63937,128,8,64619:0:0:0:0:
426,192,64619,1,0,0:0:0:50:LR2_HHCYF.wav
28,192,64960,1,2,0:0:0:0:
85,192,64960,1,0,0:0:0:0:
199,192,65301,1,2,0:0:0:0:
312,192,65642,1,8,0:0:0:0:
142,192,65983,1,2,0:0:0:0:
256,192,66323,1,8,0:0:0:0:
369,192,66664,1,8,0:0:0:0:
483,192,67005,1,2,0:0:0:0:
28,192,67346,1,8,0:0:0:0:
199,192,67687,1,8,0:0:0:0:
312,192,67858,1,0,0:0:0:0:
426,192,68028,1,2,0:0:0:0:
199,192,68369,1,8,0:0:0:0:
199,192,68710,1,8,0:0:0:0:
369,192,69051,1,2,0:0:0:0:
426,192,69392,1,8,0:0:0:0:
483,192,69733,1,8,0:0:0:0:
256,192,70073,1,2,0:0:0:0:
312,192,70414,1,2,0:0:0:0:
369,192,70755,1,8,0:0:0:0:
142,192,71096,1,2,0:0:0:0:
199,192,71437,1,8,0:0:0:0:
256,192,71778,1,0,0:0:0:0:
28,192,72119,128,12,73142:0:0:0:0:
483,192,73142,128,0,74505:0:0:0:0:
369,192,74505,128,0,75869:0:0:0:0:
256,192,75869,128,0,77233:0:0:0:0:
142,192,77233,128,0,78596:0:0:0:0:
28,192,78596,128,0,79960:0:0:0:0:
426,192,79960,128,0,81323:0:0:0:0:
312,192,81323,128,0,82687:0:0:0:0:
199,192,82687,128,0,84051:0:0:0:0:
426,192,84051,128,2,85414:0:0:0:0:
256,192,84733,1,2,0:0:0:0:
85,192,85414,128,2,86778:0:0:0:0:
256,192,86096,1,2,0:0:0:0:
369,192,86778,128,2,88142:0:0:0:0:
142,192,87460,1,2,0:0:0:0:
142,192,88142,128,2,89505:0:0:0:0:
369,192,88823,1,2,0:0:0:0:
312,192,89505,128,2,90869:0:0:0:0:
142,192,90187,1,2,0:0:0:0:
199,192,90869,128,2,92233:0:0:0:0:
369,192,91551,1,2,0:0:0:0:
256,192,92233,128,2,94278:0:0:0:0:
85,192,92914,1,2,0:0:0:0:
426,192,93596,1,2,0:0:0:0:
28,192,94278,1,8,0:0:0:0:
85,192,94278,1,0,0:0:0:70:LR2_HHCYF.wav
426,192,94960,1,2,0:0:0:0:
483,192,94960,1,4,0:0:0:0:
312,192,95301,1,2,0:0:0:0:
199,192,95642,1,8,0:0:0:0:
369,192,95983,1,0,0:0:0:0:
256,192,96323,1,0,0:0:0:0:
142,192,96664,1,2,0:0:0:0:
28,192,97005,1,8,0:0:0:0:
256,192,97346,1,8,0:0:0:0:
369,192,97687,1,2,0:0:0:0:
199,192,98028,1,2,0:0:0:0:
312,192,98369,1,8,0:0:0:0:
142,192,98710,1,0,0:0:0:0:
256,192,99051,1,0,0:0:0:0:
85,192,99392,1,2,0:0:0:0:
199,192,99733,1,8,0:0:0:0:
312,192,100073,1,8,0:0:0:0:
483,192,100414,1,6,0:0:0:0:
369,192,100755,1,2,0:0:0:0:
256,192,101096,1,8,0:0:0:0:
426,192,101437,1,0,0:0:0:0:
312,192,101778,1,0,0:0:0:0:
199,192,102119,1,2,0:0:0:0:
85,192,102460,1,8,0:0:0:0:
426,192,102801,1,8,0:0:0:0:
142,192,103142,1,2,0:0:0:0:
369,192,103483,1,2,0:0:0:0:
199,192,103823,1,8,0:0:0:0:
312,192,104164,1,0,0:0:0:0:
256,192,104505,1,0,0:0:0:0:
199,192,104846,1,2,0:0:0:0:
142,192,105187,1,8,0:0:0:0:
369,192,105528,1,8,0:0:0:0:
28,192,105869,1,4,0:0:0:0:
85,192,105869,1,2,0:0:0:0:
199,192,106210,1,2,0:0:0:0:
312,192,106551,1,8,0:0:0:0:
142,192,106892,1,0,0:0:0:0:
256,192,107233,1,0,0:0:0:0:
369,192,107573,1,2,0:0:0:0:
483,192,107914,1,8,0:0:0:0:
256,192,108255,1,8,0:0:0:0:
369,192,108596,1,2,0:0:0:0:
199,192,108937,1,2,0:0:0:0:
312,192,109278,1,8,0:0:0:0:
142,192,109619,1,0,0:0:0:0:
256,192,109960,1,0,0:0:0:0:
85,192,110301,1,2,0:0:0:0:
199,192,110642,1,8,0:0:0:0:
312,192,110983,1,8,0:0:0:0:
28,192,111323,1,4,0:0:0:0:
85,192,111323,1,2,0:0:0:0:
199,192,111664,1,2,0:0:0:0:
312,192,112005,1,8,0:0:0:0:
142,192,112346,1,0,0:0:0:0:
256,192,112687,1,0,0:0:0:0:
369,192,113028,1,2,0:0:0:0:
483,192,113369,1,8,0:0:0:0:
85,192,113710,1,8,0:0:0:0:
426,192,114051,1,2,0:0:0:0:
142,192,114392,1,2,0:0:0:0:
369,192,114733,1,8,0:0:0:0:
199,192,115073,1,0,0:0:0:0:
312,192,115414,1,0,0:0:0:0:
256,192,115755,1,2,0:0:0:0:
199,192,116096,1,8,0:0:0:0:
142,192,116437,1,8,0:0:0:0:
483,192,116778,1,0,0:0:0:0:
369,192,117119,1,0,0:0:0:0:
256,192,117460,1,0,0:0:0:0:
142,192,117801,1,0,0:0:0:0:
426,192,118142,1,0,0:0:0:0:
312,192,118483,1,0,0:0:0:0:
199,192,118823,1,0,0:0:0:0:
85,192,119164,1,0,0:0:0:0:
369,192,119505,1,0,0:0:0:0:
256,192,119846,1,0,0:0:0:0:
142,192,120187,1,0,0:0:0:0:
28,192,120528,1,0,0:0:0:0:
426,192,120869,1,0,0:0:0:0:
312,192,121210,1,0,0:0:0:0:
199,192,121551,1,0,0:0:0:0:
85,192,121892,1,0,0:0:0:0:
28,192,122233,1,0,0:0:0:0:
142,192,122573,1,0,0:0:0:0:
256,192,122914,1,0,0:0:0:0:
369,192,123255,1,0,0:0:0:0:
85,192,123596,1,0,0:0:0:0:
199,192,123937,1,0,0:0:0:0:
312,192,124278,1,0,0:0:0:0:
426,192,124619,1,0,0:0:0:0:
142,192,124960,1,0,0:0:0:0:
256,192,125301,1,0,0:0:0:0:
369,192,125642,1,0,0:0:0:0:
483,192,125983,1,0,0:0:0:0:
85,192,126323,1,0,0:0:0:0:
199,192,126664,1,0,0:0:0:0:
312,192,127005,1,0,0:0:0:0:
426,192,127346,1,0,0:0:0:0:
85,192,127517,1,0,0:0:0:0:
