osu file format v14

[General]
AudioFilename: audio.mp3
AudioLeadIn: 0
PreviewTime: 12392
Countdown: 0
SampleSet: Normal
StackLeniency: 0.7
Mode: 3
LetterboxInBreaks: 0
SpecialStyle: 0
WidescreenStoryboard: 0

[Editor]
DistanceSpacing: 0.8
BeatDivisor: 4
GridSize: 32
TimelineZoom: 1.2

[Metadata]
Title:Utopiosphere
TitleUnicode:Utopiosphere
Artist:Mili
ArtistUnicode:Mili
Creator:L A U R A
Version:Hard
Source:Deemo
Tags:Deemo Mili Alice Masked Lady Phone Game LIl Sister
BeatmapID:1158535
BeatmapSetID:546988

[Difficulty]
HPDrainRate:7
CircleSize:4
OverallDifficulty:7
ApproachRate:5
SliderMultiplier:1.4
SliderTickRate:1

[Events]
//Background and Video events
0,0,"deemo.jpg",0,0
//Break Periods
//Storyboard Layer 0 (Background)
//Storyboard Layer 1 (Fail)
//Storyboard Layer 2 (Pass)
//Storyboard Layer 3 (Foreground)
//Storyboard Sound Samples

[TimingPoints]
2165,340.909090909091,4,1,1,30,1,0
94892,-100,4,1,1,30,0,1
116540,-100,4,1,1,30,0,0

[HitObjects]
64,192,2165,5,0,0:0:0:0:
192,192,2165,1,0,0:0:0:0:
448,192,2335,1,0,0:0:0:0:
64,192,2505,1,0,0:0:0:0:
320,192,2505,1,0,0:0:0:0:
192,192,2676,1,0,0:0:0:0:
448,192,2846,1,0,0:0:0:0:
64,192,3017,1,0,0:0:0:0:
320,192,3187,1,0,0:0:0:0:
192,192,3358,1,0,0:0:0:0:
64,192,3528,1,0,0:0:0:0:
448,192,3528,1,0,0:0:0:0:
320,192,3699,1,0,0:0:0:0:
192,192,3869,1,0,0:0:0:0:
64,192,3869,1,0,0:0:0:0:
448,192,4040,1,0,0:0:0:0:
320,192,4210,1,0,0:0:0:0:
64,192,4380,1,0,0:0:0:0:
192,192,4551,1,0,0:0:0:0:
320,192,4721,1,0,0:0:0:0:
448,192,4892,1,0,0:0:0:0:
192,192,4892,1,0,0:0:0:0:
64,192,5062,1,0,0:0:0:0:
320,192,5233,1,0,0:0:0:0:
448,192,5233,1,0,0:0:0:0:
192,192,5403,1,0,0:0:0:0:
64,192,5574,1,0,0:0:0:0:
192,192,5744,1,0,0:0:0:0:
448,192,5915,1,0,0:0:0:0:
320,192,6085,1,0,0:0:0:0:
64,192,6255,1,0,0:0:0:0:
192,192,6255,1,0,0:0:0:0:
320,192,6426,1,0,0:0:0:0:
192,192,6596,1,0,0:0:0:0:
448,192,6596,1,0,0:0:0:0:
320,192,6767,1,0,0:0:0:0:
64,192,6937,1,0,0:0:0:0:
192,192,7108,1,0,0:0:0:0:
320,192,7278,1,0,0:0:0:0:
192,192,7449,1,0,0:0:0:0:
320,192,7619,1,0,0:0:0:0:
448,192,7619,1,0,0:0:0:0:
64,192,7790,1,0,0:0:0:0:
192,192,7960,1,0,0:0:0:0:
448,192,7960,1,0,0:0:0:0:
320,192,8130,1,0,0:0:0:0:
192,192,8301,1,0,0:0:0:0:
448,192,8471,1,0,0:0:0:0:
320,192,8642,1,0,0:0:0:0:
64,192,8812,1,0,0:0:0:0:
192,192,8983,1,0,0:0:0:0:
448,192,8983,1,0,0:0:0:0:
320,192,9153,1,0,0:0:0:0:
64,192,9324,1,0,0:0:0:0:
192,192,9324,1,0,0:0:0:0:
448,192,9494,1,0,0:0:0:0:
320,192,9665,1,0,0:0:0:0:
64,192,9835,1,0,0:0:0:0:
192,192,10005,1,0,0:0:0:0:
448,192,10176,1,0,0:0:0:0:
320,192,10346,1,0,0:0:0:0:
64,192,10346,1,0,0:0:0:0:
192,192,10517,1,0,0:0:0:0:
320,192,10687,1,0,0:0:0:0:
448,192,10687,1,0,0:0:0:0:
64,192,10858,1,0,0:0:0:0:
320,192,11028,1,0,0:0:0:0:
192,192,11199,1,0,0:0:0:0:
448,192,11369,1,0,0:0:0:0:
320,192,11540,1,0,0:0:0:0:
64,192,11710,1,0,0:0:0:0:
448,192,11710,1,0,0:0:0:0:
192,192,11880,1,0,0:0:0:0:
320,192,12051,1,0,0:0:0:0:
448,192,12051,1,0,0:0:0:0:
64,192,12221,1,0,0:0:0:0:
448,192,12392,1,8,0:0:0:0:
320,192,12477,1,8,0:0:0:0:
192,192,12562,1,8,0:0:0:0:
64,192,12647,1,8,0:0:0:0:
448,192,12733,1,8,0:0:0:0:
320,192,12818,1,8,0:0:0:0:
64,192,12903,1,8,0:0:0:0:
192,192,12988,1,8,0:0:0:0:
320,192,13074,1,0,0:0:0:0:
448,192,13074,1,0,0:0:0:0:
64,192,13415,1,2,0:0:0:0:
448,192,13415,1,2,0:0:0:0:
192,192,13585,1,2,0:0:0:0:
320,192,13755,1,8,0:0:0:0:
448,192,13755,1,8,0:0:0:0:
64,192,13926,1,2,0:0:0:0:
448,192,13926,1,2,0:0:0:0:
192,192,14096,1,2,0:0:0:0:
320,192,14267,1,8,0:0:0:0:
448,192,14267,1,8,0:0:0:0:
192,192,14437,1,2,0:0:0:0:
64,192,14608,1,8,0:0:0:0:
448,192,14608,1,8,0:0:0:0:
192,192,14778,1,2,0:0:0:0:
320,192,14778,1,2,0:0:0:0:
448,192,14949,1,2,0:0:0:0:
64,192,15119,1,8,0:0:0:0:
320,192,15119,1,8,0:0:0:0:
192,192,15290,1,2,0:0:0:0:
64,192,15460,1,8,0:0:0:0:
448,192,15460,1,8,0:0:0:0:
64,192,15630,1,8,0:0:0:0:
448,192,15630,1,8,0:0:0:0:
192,192,15801,1,2,0:0:0:0:
320,192,15801,1,8,0:0:0:0:
64,192,15971,1,2,0:0:0:0:
192,192,16142,1,2,0:0:0:0:
448,192,16142,1,2,0:0:0:0:
320,192,16312,1,2,0:0:0:0:
64,192,16483,1,8,0:0:0:0:
192,192,16483,1,8,0:0:0:0:
64,192,16653,1,2,0:0:0:0:
448,192,16653,1,2,0:0:0:0:
320,192,16824,1,2,0:0:0:0:
64,192,16994,1,8,0:0:0:0:
192,192,16994,1,8,0:0:0:0:
320,192,17165,1,2,0:0:0:0:
64,192,17335,1,8,0:0:0:0:
448,192,17335,1,8,0:0:0:0:
64,192,17505,1,2,0:0:0:0:
192,192,17505,1,2,0:0:0:0:
320,192,17676,1,2,0:0:0:0:
64,192,17846,1,8,0:0:0:0:
448,192,17846,1,8,0:0:0:0:
192,192,18017,1,2,0:0:0:0:
64,192,18017,1,2,0:0:0:0:
448,192,18187,1,8,0:0:0:0:
320,192,18272,1,8,0:0:0:0:
192,192,18358,1,8,0:0:0:0:
64,192,18443,1,8,0:0:0:0:
320,192,18528,1,8,0:0:0:0:
448,192,18528,1,8,0:0:0:0:
192,192,18699,1,2,0:0:0:0:
64,192,18869,1,2,0:0:0:0:
448,192,18869,1,2,0:0:0:0:
320,192,19040,1,2,0:0:0:0:
64,192,19210,1,8,0:0:0:0:
192,192,19210,1,8,0:0:0:0:
64,192,19380,1,2,0:0:0:0:
448,192,19380,1,2,0:0:0:0:
320,192,19551,1,2,0:0:0:0:
64,192,19721,1,8,0:0:0:0:
192,192,19721,1,8,0:0:0:0:
320,192,19892,1,2,0:0:0:0:
64,192,20062,5,8,0:0:0:0:
448,192,20062,1,8,0:0:0:0:
192,192,20233,1,2,0:0:0:0:
448,192,20233,1,2,0:0:0:0:
320,192,20403,1,2,0:0:0:0:
64,192,20574,1,8,0:0:0:0:
192,192,20574,1,8,0:0:0:0:
320,192,20744,1,2,0:0:0:0:
64,192,20915,1,8,0:0:0:0:
448,192,20915,1,8,0:0:0:0:
64,192,21085,1,8,0:0:0:0:
448,192,21085,1,8,0:0:0:0:
320,192,21255,5,2,0:0:0:0:
192,192,21255,1,8,0:0:0:0:
448,192,21426,1,2,0:0:0:0:
64,192,21596,1,2,0:0:0:0:
320,192,21596,1,2,0:0:0:0:
192,192,21767,1,2,0:0:0:0:
320,192,21937,1,8,0:0:0:0:
448,192,21937,1,8,0:0:0:0:
64,192,22108,1,2,0:0:0:0:
448,192,22108,1,2,0:0:0:0:
192,192,22278,1,2,0:0:0:0:
64,192,22449,1,8,0:0:0:0:
320,192,22449,1,8,0:0:0:0:
448,192,22619,128,2,22790:0:0:0:0:
192,192,22619,1,2,0:0:0:0:
320,192,22790,1,8,0:0:0:0:
64,192,22790,1,8,0:0:0:0:
192,192,22960,128,2,23130:0:0:0:0:
448,192,22960,1,2,0:0:0:0:
320,192,23130,1,2,0:0:0:0:
448,192,23301,128,8,23471:0:0:0:0:
64,192,23301,1,8,0:0:0:0:
192,192,23471,1,10,0:0:0:0:
64,192,23642,128,8,23812:0:0:0:0:
448,192,23642,1,8,0:0:0:0:
448,192,23983,1,2,0:0:0:0:
320,192,23983,1,2,0:0:0:0:
192,192,24153,1,0,0:0:0:0:
448,192,24324,1,2,0:0:0:0:
64,192,24324,1,0,0:0:0:0:
320,192,24494,1,0,0:0:0:0:
64,192,24665,1,2,0:0:0:0:
192,192,24665,1,2,0:0:0:0:
448,192,24835,1,8,0:0:0:0:
320,192,24920,1,8,0:0:0:0:
64,192,25005,1,8,0:0:0:0:
192,192,25005,1,0,0:0:0:0:
448,192,25176,1,0,0:0:0:0:
64,192,25346,1,2,0:0:0:0:
320,192,25346,1,0,0:0:0:0:
192,192,25517,1,0,0:0:0:0:
64,192,25687,1,2,0:0:0:0:
448,192,25687,1,0,0:0:0:0:
320,192,25858,1,8,0:0:0:0:
64,192,26028,1,2,0:0:0:0:
448,192,26028,1,0,0:0:0:0:
320,192,26113,1,8,0:0:0:0:
64,192,26199,1,2,0:0:0:0:
192,192,26199,1,0,0:0:0:0:
448,192,26369,1,2,0:0:0:0:
192,192,26540,1,8,0:0:0:0:
320,192,26625,1,8,0:0:0:0:
64,192,26710,1,2,0:0:0:0:
448,192,26710,1,8,0:0:0:0:
192,192,26880,1,0,0:0:0:0:
64,192,27051,128,0,28074:0:0:0:0:
448,192,27051,1,0,0:0:0:0:
320,192,27392,1,0,0:0:0:0:
192,192,27562,1,0,0:0:0:0:
192,192,28074,1,0,0:0:0:0:
320,192,28244,1,0,0:0:0:0:
448,192,28415,128,0,29437:0:0:0:0:
64,192,28415,1,0,0:0:0:0:
320,192,28755,1,0,0:0:0:0:
192,192,28926,1,2,0:0:0:0:
64,192,29267,1,8,0:0:0:0:
192,192,29352,1,10,0:0:0:0:
320,192,29437,1,10,0:0:0:0:
192,192,29608,1,0,0:0:0:0:
64,192,29778,128,0,30119:0:0:0:0:
320,192,29778,1,0,0:0:0:0:
448,192,30119,128,0,30460:0:0:0:0:
192,192,30119,1,0,0:0:0:0:
64,192,30460,128,0,30801:0:0:0:0:
320,192,30460,1,0,0:0:0:0:
448,192,30801,128,0,31142:0:0:0:0:
320,192,30801,1,0,0:0:0:0:
192,192,30971,1,0,0:0:0:0:
320,192,31142,128,0,31312:0:0:0:0:
64,192,31142,1,0,0:0:0:0:
192,192,31312,128,0,31483:0:0:0:0:
448,192,31312,1,0,0:0:0:0:
64,192,31483,128,0,31824:0:0:0:0:
320,192,31483,1,0,0:0:0:0:
448,192,31824,128,0,32165:0:0:0:0:
192,192,31824,1,0,0:0:0:0:
320,192,31994,1,0,0:0:0:0:
64,192,32165,1,0,0:0:0:0:
192,192,32335,1,0,0:0:0:0:
64,192,32505,128,0,33187:0:0:0:0:
448,192,32505,1,0,0:0:0:0:
448,192,32846,128,0,33187:0:0:0:0:
192,192,33187,1,2,0:0:0:0:
320,192,33699,1,0,0:0:0:0:
448,192,33869,128,0,34551:0:0:0:0:
192,192,33869,1,0,0:0:0:0:
64,192,34210,128,0,34551:0:0:0:0:
192,192,34551,1,0,0:0:0:0:
320,192,34721,1,10,0:0:0:0:
192,192,34892,1,10,0:0:0:0:
448,192,35062,1,0,0:0:0:0:
64,192,35233,128,0,35403:0:0:0:0:
320,192,35233,1,0,0:0:0:0:
448,192,35403,128,0,35574:0:0:0:0:
192,192,35403,1,0,0:0:0:0:
64,192,35574,128,0,35744:0:0:0:0:
320,192,35574,1,0,0:0:0:0:
192,192,35744,1,0,0:0:0:0:
448,192,35915,128,0,36085:0:0:0:0:
320,192,36085,1,0,0:0:0:0:
64,192,36085,128,0,36255:0:0:0:0:
192,192,36255,1,0,0:0:0:0:
448,192,36255,128,0,36426:0:0:0:0:
320,192,36596,128,0,36767:0:0:0:0:
448,192,36596,1,0,0:0:0:0:
64,192,36767,128,0,36937:0:0:0:0:
192,192,36767,1,0,0:0:0:0:
320,192,36937,128,0,37108:0:0:0:0:
448,192,36937,1,2,0:0:0:0:
448,192,37108,128,2,37278:0:0:0:0:
64,192,37108,1,2,0:0:0:0:
192,192,37278,128,0,37449:0:0:0:0:
320,192,37278,1,2,0:0:0:0:
64,192,37449,1,10,0:0:0:0:
192,192,37534,1,2,0:0:0:0:
448,192,37619,128,0,37960:0:0:0:0:
320,192,37619,1,2,0:0:0:0:
64,192,37960,128,0,38642:0:0:0:0:
320,192,37960,1,0,0:0:0:0:
192,192,37960,1,0,0:0:0:0:
64,192,38983,128,0,39324:0:0:0:0:
320,192,38983,1,0,0:0:0:0:
448,192,39324,128,0,40005:0:0:0:0:
192,192,39324,1,0,0:0:0:0:
320,192,39324,1,0,0:0:0:0:
448,192,40346,128,0,40687:0:0:0:0:
320,192,40687,1,0,0:0:0:0:
192,192,40687,1,0,0:0:0:0:
64,192,40687,128,0,41369:0:0:0:0:
192,192,41710,1,0,0:0:0:0:
448,192,41710,128,0,42051:0:0:0:0:
64,192,42051,128,0,42392:0:0:0:0:
320,192,42051,1,0,0:0:0:0:
320,192,42392,128,0,42733:0:0:0:0:
448,192,42392,1,0,0:0:0:0:
192,192,42733,128,0,43074:0:0:0:0:
64,192,42733,1,0,0:0:0:0:
448,192,43074,128,0,43415:0:0:0:0:
320,192,43074,1,0,0:0:0:0:
64,192,43415,128,0,44096:0:0:0:0:
192,192,43415,1,0,0:0:0:0:
320,192,43415,1,0,0:0:0:0:
64,192,44437,1,0,0:0:0:0:
192,192,44437,1,0,0:0:0:0:
448,192,44437,128,0,44778:0:0:0:0:
320,192,44778,128,0,45460:0:0:0:0:
64,192,45801,128,0,46142:0:0:0:0:
192,192,46142,128,0,46824:0:0:0:0:
320,192,46142,1,0,0:0:0:0:
448,192,46142,1,0,0:0:0:0:
64,192,47165,1,0,0:0:0:0:
192,192,47165,1,0,0:0:0:0:
448,192,47165,128,0,47505:0:0:0:0:
320,192,47505,128,0,48187:0:0:0:0:
64,192,48528,1,0,0:0:0:0:
448,192,48528,1,0,0:0:0:0:
192,192,48699,1,0,0:0:0:0:
448,192,48869,1,0,0:0:0:0:
320,192,49040,1,0,0:0:0:0:
64,192,49210,1,0,0:0:0:0:
192,192,49380,1,0,0:0:0:0:
320,192,49551,1,0,0:0:0:0:
448,192,49551,1,0,0:0:0:0:
64,192,49892,1,0,0:0:0:0:
192,192,49892,1,0,0:0:0:0:
320,192,50233,1,0,0:0:0:0:
448,192,50233,1,0,0:0:0:0:
64,192,50574,1,0,0:0:0:0:
192,192,50574,1,0,0:0:0:0:
448,192,50744,1,0,0:0:0:0:
320,192,50915,1,0,0:0:0:0:
64,192,51085,1,0,0:0:0:0:
448,192,51255,1,0,0:0:0:0:
192,192,51426,1,0,0:0:0:0:
64,192,51596,1,0,0:0:0:0:
320,192,51596,1,0,0:0:0:0:
192,192,51937,1,0,0:0:0:0:
448,192,51937,128,0,52108:0:0:0:0:
320,192,52278,1,0,0:0:0:0:
64,192,52278,128,0,52449:0:0:0:0:
448,192,52619,1,0,0:0:0:0:
192,192,52619,1,0,0:0:0:0:
320,192,52790,1,0,0:0:0:0:
64,192,52960,1,0,0:0:0:0:
192,192,53130,1,0,0:0:0:0:
320,192,53301,1,0,0:0:0:0:
448,192,53471,1,0,0:0:0:0:
320,192,53642,1,0,0:0:0:0:
64,192,53642,1,0,0:0:0:0:
192,192,53983,1,0,0:0:0:0:
448,192,53983,1,0,0:0:0:0:
64,192,54324,1,0,0:0:0:0:
320,192,54324,1,0,0:0:0:0:
192,192,54665,1,0,0:0:0:0:
448,192,54665,1,0,0:0:0:0:
320,192,54835,1,0,0:0:0:0:
64,192,55005,1,0,0:0:0:0:
192,192,55176,1,0,0:0:0:0:
448,192,55346,1,0,0:0:0:0:
192,192,55517,1,0,0:0:0:0:
64,192,55687,1,0,0:0:0:0:
320,192,55687,1,0,0:0:0:0:
192,192,56028,1,0,0:0:0:0:
448,192,56028,128,0,56199:0:0:0:0:
320,192,56369,1,0,0:0:0:0:
64,192,56369,128,0,56540:0:0:0:0:
320,192,56710,1,2,0:0:0:0:
448,192,56710,1,2,0:0:0:0:
192,192,57051,1,2,0:0:0:0:
64,192,57392,1,8,0:0:0:0:
448,192,57392,1,8,0:0:0:0:
320,192,57733,1,2,0:0:0:0:
64,192,57733,1,2,0:0:0:0:
192,192,57903,1,2,0:0:0:0:
320,192,58074,1,8,0:0:0:0:
448,192,58074,1,8,0:0:0:0:
64,192,58415,1,8,0:0:0:0:
448,192,58415,1,8,0:0:0:0:
64,192,58755,1,2,0:0:0:0:
192,192,58755,1,2,0:0:0:0:
192,192,59096,1,8,0:0:0:0:
448,192,59096,1,8,0:0:0:0:
320,192,59267,1,2,0:0:0:0:
64,192,59437,1,8,0:0:0:0:
192,192,59437,1,8,0:0:0:0:
64,192,59778,1,2,0:0:0:0:
448,192,59778,1,2,0:0:0:0:
320,192,59949,1,10,0:0:0:0:
64,192,60119,1,8,0:0:0:0:
192,192,60119,1,8,0:0:0:0:
320,192,60460,1,8,0:0:0:0:
448,192,60460,1,8,0:0:0:0:
64,192,60801,1,2,0:0:0:0:
320,192,60801,1,2,0:0:0:0:
192,192,60971,1,2,0:0:0:0:
320,192,61142,1,8,0:0:0:0:
448,192,61142,1,8,0:0:0:0:
192,192,61312,1,2,0:0:0:0:
64,192,61483,1,8,0:0:0:0:
448,192,61483,1,8,0:0:0:0:
320,192,61653,1,2,0:0:0:0:
64,192,61824,1,2,0:0:0:0:
192,192,61824,1,2,0:0:0:0:
192,192,62165,1,2,0:0:0:0:
448,192,62165,1,2,0:0:0:0:
320,192,62505,1,10,0:0:0:0:
64,192,62505,1,8,0:0:0:0:
64,192,62846,1,2,0:0:0:0:
192,192,62846,1,2,0:0:0:0:
448,192,63187,1,8,0:0:0:0:
192,192,63187,1,0,0:0:0:0:
320,192,63528,1,2,0:0:0:0:
192,192,63699,1,2,0:0:0:0:
320,192,63869,1,8,0:0:0:0:
448,192,63869,1,8,0:0:0:0:
192,192,64210,1,0,0:0:0:0:
64,192,64210,128,0,64380:0:0:0:0:
320,192,64551,1,0,0:0:0:0:
448,192,64551,128,0,64721:0:0:0:0:
192,192,64892,1,2,0:0:0:0:
64,192,64892,128,2,65233:0:0:0:0:
448,192,65233,128,2,65744:0:0:0:0:
320,192,65233,1,2,0:0:0:0:
64,192,65574,1,8,0:0:0:0:
192,192,65574,1,0,0:0:0:0:
64,192,65744,1,0,0:0:0:0:
448,192,65915,128,0,66255:0:0:0:0:
320,192,65915,1,2,0:0:0:0:
192,192,66085,1,2,0:0:0:0:
64,192,66255,128,8,66596:0:0:0:0:
320,192,66255,1,8,0:0:0:0:
320,192,66596,128,8,66767:0:0:0:0:
448,192,66596,1,8,0:0:0:0:
320,192,66937,128,2,67278:0:0:0:0:
64,192,66937,1,2,0:0:0:0:
64,192,67278,128,8,67790:0:0:0:0:
448,192,67278,1,8,0:0:0:0:
192,192,67449,1,10,0:0:0:0:
320,192,67619,1,8,0:0:0:0:
448,192,67619,1,8,0:0:0:0:
192,192,67790,1,0,0:0:0:0:
64,192,67960,128,2,68301:0:0:0:0:
448,192,67960,1,0,0:0:0:0:
320,192,68130,1,2,0:0:0:0:
448,192,68301,128,8,68642:0:0:0:0:
192,192,68301,1,8,0:0:0:0:
192,192,68642,128,8,68812:0:0:0:0:
320,192,68642,1,8,0:0:0:0:
64,192,68983,128,2,69324:0:0:0:0:
448,192,68983,1,2,0:0:0:0:
320,192,69153,1,2,0:0:0:0:
448,192,69324,128,8,69665:0:0:0:0:
192,192,69324,1,8,0:0:0:0:
320,192,69494,1,2,0:0:0:0:
64,192,69665,1,8,0:0:0:0:
192,192,69665,1,8,0:0:0:0:
320,192,69835,1,2,0:0:0:0:
448,192,70005,128,2,70346:0:0:0:0:
320,192,70005,1,2,0:0:0:0:
64,192,70346,128,2,70687:0:0:0:0:
192,192,70346,1,2,0:0:0:0:
192,192,70687,1,8,0:0:0:0:
448,192,70687,1,8,0:0:0:0:
320,192,71028,128,2,71710:0:0:0:0:
64,192,71028,1,2,0:0:0:0:
64,192,71369,1,8,0:0:0:0:
448,192,71369,1,8,0:0:0:0:
64,192,71710,128,0,72051:0:0:0:0:
192,192,71710,1,0,0:0:0:0:
320,192,71880,1,2,0:0:0:0:
448,192,72051,128,8,72903:0:0:0:0:
192,192,72051,1,10,0:0:0:0:
64,192,73074,128,0,73415:0:0:0:0:
320,192,73074,1,0,0:0:0:0:
192,192,73244,1,0,0:0:0:0:
448,192,73415,128,0,74267:0:0:0:0:
320,192,73415,1,0,0:0:0:0:
192,192,73585,1,0,0:0:0:0:
64,192,73755,1,0,0:0:0:0:
192,192,74096,1,0,0:0:0:0:
320,192,74267,1,0,0:0:0:0:
448,192,74437,128,0,74778:0:0:0:0:
64,192,74437,1,0,0:0:0:0:
192,192,74778,128,0,75630:0:0:0:0:
64,192,74778,1,0,0:0:0:0:
320,192,74949,1,0,0:0:0:0:
64,192,75119,1,0,0:0:0:0:
448,192,75460,1,0,0:0:0:0:
320,192,75630,1,0,0:0:0:0:
192,192,75801,128,0,76142:0:0:0:0:
64,192,75801,1,0,0:0:0:0:
320,192,76142,128,0,76994:0:0:0:0:
448,192,76142,1,0,0:0:0:0:
192,192,76312,1,0,0:0:0:0:
64,192,76483,1,0,0:0:0:0:
192,192,76824,1,0,0:0:0:0:
64,192,76994,1,0,0:0:0:0:
320,192,77165,128,0,77505:0:0:0:0:
448,192,77165,1,0,0:0:0:0:
192,192,77335,1,0,0:0:0:0:
64,192,77505,128,0,78187:0:0:0:0:
448,192,77505,1,0,0:0:0:0:
192,192,77676,1,0,0:0:0:0:
448,192,77846,1,0,0:0:0:0:
192,192,78017,1,0,0:0:0:0:
320,192,78187,1,0,0:0:0:0:
192,192,78358,1,0,0:0:0:0:
64,192,78528,128,0,78869:0:0:0:0:
448,192,78528,1,0,0:0:0:0:
320,192,78699,1,0,0:0:0:0:
448,192,78869,128,0,79551:0:0:0:0:
192,192,78869,1,0,0:0:0:0:
320,192,79040,1,0,0:0:0:0:
64,192,79210,1,0,0:0:0:0:
320,192,79551,1,0,0:0:0:0:
64,192,79721,1,0,0:0:0:0:
448,192,79892,128,0,80233:0:0:0:0:
192,192,79892,1,0,0:0:0:0:
192,192,80233,128,0,80915:0:0:0:0:
320,192,80233,1,0,0:0:0:0:
448,192,80403,1,0,0:0:0:0:
64,192,80574,1,0,0:0:0:0:
320,192,80915,1,0,0:0:0:0:
64,192,81085,1,0,0:0:0:0:
192,192,81255,128,0,81596:0:0:0:0:
448,192,81255,1,0,0:0:0:0:
64,192,81596,128,0,82278:0:0:0:0:
320,192,81596,1,0,0:0:0:0:
448,192,81767,1,0,0:0:0:0:
192,192,81937,1,0,0:0:0:0:
448,192,82278,1,0,0:0:0:0:
320,192,82449,1,0,0:0:0:0:
64,192,82619,128,0,82960:0:0:0:0:
192,192,82619,1,0,0:0:0:0:
448,192,82960,128,0,83386:0:0:0:0:
320,192,82960,1,0,0:0:0:0:
192,192,83130,1,0,0:0:0:0:
64,192,83301,1,0,0:0:0:0:
192,192,83471,1,0,0:0:0:0:
448,192,83642,1,0,0:0:0:0:
320,192,83812,1,0,0:0:0:0:
64,192,83983,1,2,0:0:0:0:
192,192,83983,1,0,0:0:0:0:
320,192,84324,1,0,0:0:0:0:
64,192,84665,1,2,0:0:0:0:
192,192,84665,1,2,0:0:0:0:
448,192,85005,1,0,0:0:0:0:
64,192,85346,1,2,0:0:0:0:
192,192,85346,1,2,0:0:0:0:
320,192,85687,1,0,0:0:0:0:
64,192,86028,1,2,0:0:0:0:
448,192,86028,1,2,0:0:0:0:
192,192,86369,1,0,0:0:0:0:
320,192,86710,1,0,0:0:0:0:
448,192,86710,1,2,0:0:0:0:
64,192,87051,1,0,0:0:0:0:
320,192,87392,1,2,0:0:0:0:
192,192,87392,1,0,0:0:0:0:
448,192,87733,1,0,0:0:0:0:
320,192,87903,1,0,0:0:0:0:
192,192,88074,1,2,0:0:0:0:
64,192,88074,1,0,0:0:0:0:
448,192,88415,1,0,0:0:0:0:
320,192,88585,1,0,0:0:0:0:
64,192,88755,1,0,0:0:0:0:
448,192,88755,1,0,0:0:0:0:
192,192,88926,1,0,0:0:0:0:
320,192,89096,1,0,0:0:0:0:
192,192,89267,1,0,0:0:0:0:
448,192,89437,1,2,0:0:0:0:
320,192,89437,1,2,0:0:0:0:
192,192,89778,1,0,0:0:0:0:
448,192,90119,1,2,0:0:0:0:
320,192,90119,1,2,0:0:0:0:
64,192,90460,1,0,0:0:0:0:
192,192,90630,1,0,0:0:0:0:
448,192,90801,1,2,0:0:0:0:
320,192,90801,1,2,0:0:0:0:
192,192,91142,1,0,0:0:0:0:
320,192,91483,1,2,0:0:0:0:
64,192,91483,1,0,0:0:0:0:
448,192,91824,1,0,0:0:0:0:
448,192,92165,1,2,0:0:0:0:
64,192,92165,1,2,0:0:0:0:
320,192,92505,1,0,0:0:0:0:
448,192,92846,1,2,0:0:0:0:
64,192,92846,1,2,0:0:0:0:
192,192,93187,1,0,0:0:0:0:
320,192,93358,1,0,0:0:0:0:
448,192,93528,1,2,0:0:0:0:
64,192,93528,1,2,0:0:0:0:
192,192,93869,1,0,0:0:0:0:
64,192,94210,1,2,0:0:0:0:
448,192,94210,1,10,0:0:0:0:
320,192,94210,1,0,0:0:0:0:
448,192,94892,1,10,0:0:0:0:
64,192,94892,1,8,0:0:0:0:
192,192,95062,1,2,0:0:0:0:
320,192,95233,1,2,0:0:0:0:
64,192,95403,1,2,0:0:0:0:
192,192,95574,1,8,0:0:0:0:
448,192,95574,1,8,0:0:0:0:
320,192,95744,1,2,0:0:0:0:
192,192,95915,1,2,0:0:0:0:
64,192,96085,1,2,0:0:0:0:
448,192,96085,1,2,0:0:0:0:
320,192,96255,1,2,0:0:0:0:
192,192,96426,1,8,0:0:0:0:
64,192,96426,1,8,0:0:0:0:
448,192,96596,1,2,0:0:0:0:
320,192,96767,1,2,0:0:0:0:
448,192,96937,1,8,0:0:0:0:
64,192,96937,1,8,0:0:0:0:
192,192,97108,1,2,0:0:0:0:
320,192,97278,1,8,0:0:0:0:
448,192,97278,1,8,0:0:0:0:
64,192,97449,1,8,0:0:0:0:
192,192,97449,1,8,0:0:0:0:
320,192,97619,1,8,0:0:0:0:
448,192,97619,1,8,0:0:0:0:
192,192,97790,1,2,0:0:0:0:
64,192,97960,1,2,0:0:0:0:
448,192,97960,1,2,0:0:0:0:
320,192,98130,1,2,0:0:0:0:
192,192,98301,1,8,0:0:0:0:
64,192,98301,1,8,0:0:0:0:
64,192,98471,1,8,0:0:0:0:
448,192,98471,1,8,0:0:0:0:
320,192,98642,1,2,0:0:0:0:
64,192,98812,1,2,0:0:0:0:
192,192,98812,1,2,0:0:0:0:
448,192,98983,1,2,0:0:0:0:
320,192,99153,1,8,0:0:0:0:
64,192,99153,1,8,0:0:0:0:
192,192,99324,1,2,0:0:0:0:
448,192,99494,1,2,0:0:0:0:
64,192,99665,1,8,0:0:0:0:
320,192,99665,1,8,0:0:0:0:
192,192,99835,1,2,0:0:0:0:
448,192,100005,1,8,0:0:0:0:
320,192,100091,1,8,0:0:0:0:
64,192,100176,1,8,0:0:0:0:
192,192,100261,1,8,0:0:0:0:
320,192,100346,1,8,0:0:0:0:
448,192,100346,1,8,0:0:0:0:
192,192,100517,1,2,0:0:0:0:
64,192,100687,1,2,0:0:0:0:
448,192,100687,1,2,0:0:0:0:
320,192,100858,1,2,0:0:0:0:
64,192,101028,1,8,0:0:0:0:
192,192,101028,1,8,0:0:0:0:
320,192,101199,1,2,0:0:0:0:
448,192,101199,1,2,0:0:0:0:
192,192,101369,1,2,0:0:0:0:
64,192,101540,1,8,0:0:0:0:
448,192,101540,1,8,0:0:0:0:
320,192,101710,1,2,0:0:0:0:
64,192,101880,1,8,0:0:0:0:
192,192,101880,1,8,0:0:0:0:
320,192,102051,1,2,0:0:0:0:
448,192,102051,1,2,0:0:0:0:
192,192,102221,1,2,0:0:0:0:
64,192,102392,1,0,0:0:0:0:
448,192,102392,1,0,0:0:0:0:
320,192,102562,1,2,0:0:0:0:
192,192,102562,1,2,0:0:0:0:
448,192,102733,1,2,0:0:0:0:
64,192,102903,1,8,0:0:0:0:
192,192,102903,1,8,0:0:0:0:
320,192,103074,1,8,0:0:0:0:
448,192,103074,1,8,0:0:0:0:
192,192,103244,1,2,0:0:0:0:
64,192,103415,1,2,0:0:0:0:
448,192,103415,1,2,0:0:0:0:
320,192,103585,1,2,0:0:0:0:
64,192,103755,1,8,0:0:0:0:
448,192,103755,1,8,0:0:0:0:
192,192,103926,1,2,0:0:0:0:
320,192,103926,1,2,0:0:0:0:
64,192,104096,1,2,0:0:0:0:
192,192,104267,1,8,0:0:0:0:
448,192,104267,1,8,0:0:0:0:
320,192,104437,1,2,0:0:0:0:
64,192,104608,1,0,0:0:0:0:
192,192,104608,1,0,0:0:0:0:
320,192,104778,1,0,0:0:0:0:
448,192,104778,128,0,104949:0:0:0:0:
192,192,105119,1,0,0:0:0:0:
64,192,105119,128,0,105290:0:0:0:0:
448,192,105460,128,0,105630:0:0:0:0:
320,192,105460,1,0,0:0:0:0:
192,192,105545,1,8,0:0:0:0:
64,192,105630,1,8,0:0:0:0:
192,192,105716,1,8,0:0:0:0:
320,192,105801,1,8,0:0:0:0:
448,192,105801,1,8,0:0:0:0:
64,192,105971,1,2,0:0:0:0:
192,192,106142,1,2,0:0:0:0:
448,192,106142,1,2,0:0:0:0:
320,192,106312,1,2,0:0:0:0:
64,192,106483,1,8,0:0:0:0:
192,192,106483,1,8,0:0:0:0:
320,192,106653,1,2,0:0:0:0:
448,192,106653,1,2,0:0:0:0:
192,192,106824,1,2,0:0:0:0:
64,192,106994,1,8,0:0:0:0:
448,192,106994,1,8,0:0:0:0:
320,192,107165,1,2,0:0:0:0:
64,192,107335,1,8,0:0:0:0:
192,192,107335,1,8,0:0:0:0:
320,192,107505,1,2,0:0:0:0:
448,192,107505,1,2,0:0:0:0:
192,192,107676,1,2,0:0:0:0:
64,192,107846,1,8,0:0:0:0:
448,192,107846,1,8,0:0:0:0:
320,192,108017,1,2,0:0:0:0:
64,192,108187,1,8,0:0:0:0:
192,192,108187,1,8,0:0:0:0:
320,192,108358,1,8,0:0:0:0:
448,192,108358,1,8,0:0:0:0:
64,192,108528,1,8,0:0:0:0:
192,192,108528,1,8,0:0:0:0:
448,192,108699,1,2,0:0:0:0:
320,192,108869,1,2,0:0:0:0:
192,192,108869,1,2,0:0:0:0:
448,192,109040,1,2,0:0:0:0:
64,192,109210,1,8,0:0:0:0:
192,192,109210,1,8,0:0:0:0:
320,192,109380,1,2,0:0:0:0:
448,192,109380,1,2,0:0:0:0:
192,192,109551,1,2,0:0:0:0:
64,192,109721,1,8,0:0:0:0:
448,192,109721,1,8,0:0:0:0:
320,192,109892,1,2,0:0:0:0:
192,192,110062,1,8,0:0:0:0:
64,192,110062,1,8,0:0:0:0:
320,192,110233,1,2,0:0:0:0:
448,192,110233,1,2,0:0:0:0:
192,192,110403,1,2,0:0:0:0:
64,192,110574,1,8,0:0:0:0:
448,192,110574,1,8,0:0:0:0:
192,192,110744,1,2,0:0:0:0:
448,192,110915,1,8,0:0:0:0:
320,192,111000,1,8,0:0:0:0:
64,192,111085,1,8,0:0:0:0:
192,192,111170,1,8,0:0:0:0:
320,192,111255,1,8,0:0:0:0:
448,192,111255,1,8,0:0:0:0:
192,192,111426,1,2,0:0:0:0:
64,192,111596,1,2,0:0:0:0:
448,192,111596,1,2,0:0:0:0:
320,192,111767,1,2,0:0:0:0:
192,192,111937,1,8,0:0:0:0:
64,192,111937,1,8,0:0:0:0:
320,192,112108,1,2,0:0:0:0:
448,192,112108,1,2,0:0:0:0:
192,192,112278,1,2,0:0:0:0:
64,192,112449,1,8,0:0:0:0:
448,192,112449,1,8,0:0:0:0:
320,192,112619,1,2,0:0:0:0:
64,192,112790,1,8,0:0:0:0:
192,192,112790,1,8,0:0:0:0:
320,192,112960,1,2,0:0:0:0:
448,192,112960,1,2,0:0:0:0:
192,192,113130,1,2,0:0:0:0:
64,192,113301,1,8,0:0:0:0:
448,192,113301,1,8,0:0:0:0:
320,192,113471,1,2,0:0:0:0:
192,192,113642,1,8,0:0:0:0:
448,192,113642,1,8,0:0:0:0:
64,192,113812,1,8,0:0:0:0:
320,192,113812,1,8,0:0:0:0:
192,192,113983,1,8,0:0:0:0:
448,192,113983,1,8,0:0:0:0:
320,192,114153,1,2,0:0:0:0:
64,192,114324,1,2,0:0:0:0:
192,192,114324,1,2,0:0:0:0:
320,192,114494,1,2,0:0:0:0:
192,192,114665,1,8,0:0:0:0:
448,192,114665,1,8,0:0:0:0:
64,192,114835,1,2,0:0:0:0:
320,192,114835,1,2,0:0:0:0:
192,192,115005,1,2,0:0:0:0:
320,192,115176,1,2,0:0:0:0:
448,192,115346,128,2,115517:0:0:0:0:
64,192,115346,1,0,0:0:0:0:
192,192,115517,1,8,0:0:0:0:
320,192,115517,1,8,0:0:0:0:
64,192,115687,128,2,115858:0:0:0:0:
448,192,115687,1,2,0:0:0:0:
448,192,116028,128,8,116199:0:0:0:0:
64,192,116028,1,8,0:0:0:0:
320,192,116199,1,2,0:0:0:0:
64,192,116369,128,8,116540:0:0:0:0:
448,192,116369,1,8,0:0:0:0:
320,192,116710,1,0,0:0:0:0:
64,192,116880,1,0,0:0:0:0:
448,192,117051,1,0,0:0:0:0:
192,192,117221,1,0,0:0:0:0:
64,192,117392,1,0,0:0:0:0:
448,192,117392,1,0,0:0:0:0:
320,192,117562,1,0,0:0:0:0:
64,192,117733,1,0,0:0:0:0:
192,192,117903,1,0,0:0:0:0:
448,192,118074,1,0,0:0:0:0:
320,192,118244,1,0,0:0:0:0:
64,192,118244,1,0,0:0:0:0:
192,192,118415,1,0,0:0:0:0:
320,192,118585,1,0,0:0:0:0:
448,192,118755,1,0,0:0:0:0:
64,192,118755,1,0,0:0:0:0:
192,192,118926,1,0,0:0:0:0:
448,192,118926,1,0,0:0:0:0:
192,192,119096,1,0,0:0:0:0:
320,192,119096,1,0,0:0:0:0:
320,192,119267,1,0,0:0:0:0:
64,192,119267,1,0,0:0:0:0:
192,192,119437,1,0,0:0:0:0:
320,192,119608,1,0,0:0:0:0:
448,192,119608,1,0,0:0:0:0:
64,192,119778,1,0,0:0:0:0:
192,192,119778,1,0,0:0:0:0:
320,192,119949,1,0,0:0:0:0:
64,192,120119,1,0,0:0:0:0:
448,192,120119,1,0,0:0:0:0:
192,192,120290,1,0,0:0:0:0:
320,192,120460,1,0,0:0:0:0:
64,192,120630,1,0,0:0:0:0:
192,192,120801,1,0,0:0:0:0:
448,192,120971,1,0,0:0:0:0:
64,192,121142,1,0,0:0:0:0:
320,192,121142,1,0,0:0:0:0:
192,192,121312,1,0,0:0:0:0:
320,192,121483,1,0,0:0:0:0:
448,192,121483,1,0,0:0:0:0:
448,192,121653,1,0,0:0:0:0:
192,192,121653,1,0,0:0:0:0:
192,192,121824,1,0,0:0:0:0:
320,192,121824,1,0,0:0:0:0:
64,192,121994,1,0,0:0:0:0:
320,192,121994,1,0,0:0:0:0:
192,192,122165,1,0,0:0:0:0:
320,192,122335,1,0,0:0:0:0:
448,192,122335,1,0,0:0:0:0:
64,192,122505,1,0,0:0:0:0:
192,192,122505,1,0,0:0:0:0:
320,192,122676,1,0,0:0:0:0:
448,192,122846,1,0,0:0:0:0:
192,192,122846,1,0,0:0:0:0:
320,192,123017,1,0,0:0:0:0:
64,192,123187,1,0,0:0:0:0:
192,192,123358,1,0,0:0:0:0:
320,192,123528,1,0,0:0:0:0:
448,192,123699,1,0,0:0:0:0:
64,192,123699,1,0,0:0:0:0:
192,192,123869,1,0,0:0:0:0:
320,192,124040,1,0,0:0:0:0:
192,192,124210,1,0,0:0:0:0:
448,192,124210,1,0,0:0:0:0:
320,192,124380,1,0,0:0:0:0:
448,192,124380,1,0,0:0:0:0:
64,192,124551,1,0,0:0:0:0:
320,192,124551,1,0,0:0:0:0:
192,192,124721,1,0,0:0:0:0:
448,192,124721,1,0,0:0:0:0:
320,192,124892,1,0,0:0:0:0:
64,192,125062,1,0,0:0:0:0:
192,192,125062,1,0,0:0:0:0:
320,192,125233,1,0,0:0:0:0:
448,192,125233,1,0,0:0:0:0:
192,192,125403,1,0,0:0:0:0:
64,192,125574,1,0,0:0:0:0:
320,192,125574,1,0,0:0:0:0:
192,192,125744,1,0,0:0:0:0:
320,192,125915,1,0,0:0:0:0:
448,192,126085,1,0,0:0:0:0:
64,192,126255,1,0,0:0:0:0:
192,192,126426,1,0,0:0:0:0:
448,192,126426,1,0,0:0:0:0:
64,192,126596,1,0,0:0:0:0:
320,192,126596,1,0,0:0:0:0:
192,192,126767,1,0,0:0:0:0:
320,192,126937,1,0,0:0:0:0:
448,192,126937,1,0,0:0:0:0:
64,192,127108,1,0,0:0:0:0:
192,192,127108,1,0,0:0:0:0:
320,192,127278,1,0,0:0:0:0:
448,192,127278,1,0,0:0:0:0:
64,192,127449,1,0,0:0:0:0:
192,192,127449,1,0,0:0:0:0:
