osu file format v14

[General]
AudioFilename: audio.mp3
AudioLeadIn: 0
PreviewTime: 445
Countdown: 0
SampleSet: Soft
StackLeniency: 0.7
Mode: 0
LetterboxInBreaks: 0
WidescreenStoryboard: 1

[Editor]
Bookmarks: 16505,32505,40505,48505,56505,72505,88505,104505,112505,120505,128505,142505,158505,174505,190505,206505,222505,238005
DistanceSpacing: 0.5
BeatDivisor: 6
GridSize: 4
TimelineZoom: 1.7

[Metadata]
Title:Unidentified Flavourful Object
TitleUnicode:Unidentified Flavourful Object
Artist:Mili
ArtistUnicode:Mili
Creator:eIis
Version:Insane
Source:Deemo
Tags:aka akayume ufo english sueishnao yamato kasai hamo momocashew cassie wei miracle milk video game nirosue flavor
BeatmapID:2622151
BeatmapSetID:1259728

[Difficulty]
HPDrainRate:5
CircleSize:4.2
OverallDifficulty:8
ApproachRate:8.8
SliderMultiplier:1.4
SliderTickRate:1

[Events]
//Background and Video events
0,0,"ufo4.jpg",0,0
//Break Periods
2,58264,71376
//Storyboard Layer 0 (Background)
//Storyboard Layer 1 (Fail)
//Storyboard Layer 2 (Pass)
//Storyboard Layer 3 (Foreground)
//Storyboard Layer 4 (Overlay)
//Storyboard Sound Samples

[TimingPoints]
505,500,4,2,2,20,1,0
16005,-125,4,2,2,20,0,0
16505,-100,4,2,2,20,0,0
24005,-62.5,4,2,2,20,0,0
24505,-100,4,2,2,20,0,0
28005,-71.4285714285714,4,2,2,20,0,0
28505,-100,4,2,2,20,0,0
29505,-125,4,2,2,20,0,0
30504,-100,4,2,2,20,0,0
32505,-83.3333333333333,4,2,2,30,0,0
34505,-100,4,2,2,30,0,0
36505,-71.4285714285714,4,2,2,30,0,0
40505,-71.4285714285714,4,2,2,40,0,0
41005,-62.5,4,2,2,40,0,0
41505,-55.5555555555556,4,2,2,40,0,0
42005,-50,4,2,2,40,0,0
42505,-100,4,2,2,40,0,0
44505,-71.4285714285714,4,2,2,40,0,0
45005,-62.5,4,2,2,40,0,0
45505,-55.5555555555556,4,2,2,40,0,0
46005,-50,4,2,2,40,0,0
46505,-100,4,2,2,30,0,0
49505,-142.857142857143,4,2,2,30,0,0
50505,-111.111111111111,4,2,2,30,0,0
56005,-200,4,2,2,30,0,0
72005,-83.3333333333333,4,2,2,30,0,0
72421,-83.3333333333333,4,2,2,5,0,0
72505,-83.3333333333333,4,2,2,30,0,0
73088,-83.3333333333333,4,2,2,5,0,0
73838,-83.3333333333333,4,2,2,30,0,0
73921,-83.3333333333333,4,2,2,5,0,0
74005,-83.3333333333333,4,2,2,30,0,0
74088,-83.3333333333333,4,2,2,5,0,0
74338,-83.3333333333333,4,2,2,30,0,0
75005,-100,4,2,2,30,0,0
75505,-125,4,2,2,30,0,0
76005,-166.666666666667,4,2,2,30,0,0
77005,-83.3333333333333,4,2,2,30,0,0
77088,-83.3333333333333,4,2,2,5,0,0
77505,-83.3333333333333,4,2,2,30,0,0
77755,-83.3333333333333,4,2,2,5,0,0
77838,-83.3333333333333,4,2,2,30,0,0
77921,-83.3333333333333,4,2,2,5,0,0
78005,-83.3333333333333,4,2,2,30,0,0
78088,-83.3333333333333,4,2,2,5,0,0
78505,-166.666666666667,4,2,2,30,0,0
79005,-125,4,2,2,30,0,0
79505,-100,4,2,2,30,0,0
80005,-83.3333333333333,4,2,2,30,0,0
80755,-83.3333333333333,4,2,2,25,0,0
81005,-83.3333333333333,4,2,2,20,0,0
81255,-83.3333333333333,4,2,2,15,0,0
81505,-83.3333333333333,4,2,2,10,0,0
82005,-83.3333333333333,4,2,2,30,0,0
82505,-100,4,2,2,30,0,0
83505,-125,4,2,2,30,0,0
84505,-83.3333333333333,4,2,2,30,0,0
85088,-83.3333333333333,4,2,2,5,0,0
85505,-83.3333333333333,4,2,2,30,0,0
85755,-83.3333333333333,4,2,2,5,0,0
85838,-83.3333333333333,4,2,2,30,0,0
85921,-83.3333333333333,4,2,2,5,0,0
86005,-83.3333333333333,4,2,2,30,0,0
86088,-83.3333333333333,4,2,2,5,0,0
86505,-125,4,2,2,30,0,0
88338,-125,4,2,2,20,0,0
90505,-125,4,2,2,30,0,0
92505,-166.666666666667,4,2,2,20,0,0
96338,-166.666666666667,4,2,2,35,0,0
96505,-83.3333333333334,4,2,2,35,0,0
98005,-100,4,2,2,35,0,0
100505,-71.4285714285714,4,2,2,35,0,0
101005,-83.3333333333333,4,2,2,35,0,0
101505,-100,4,2,2,35,0,0
102005,-125,4,2,2,35,0,0
103005,-71.4285714285714,4,2,2,35,0,0
103505,-100,4,2,2,35,0,0
104505,-62.5,4,2,1,50,0,0
105505,-71.4285714285714,4,2,1,50,0,0
106005,-100,4,2,1,50,0,0
106505,-62.5,4,2,1,50,0,0
107505,-100,4,2,1,50,0,0
107588,-100,4,2,1,40,0,0
108005,-83.3333333333333,4,2,1,50,0,0
108505,-62.5,4,2,1,50,0,0
109005,-71.4285714285714,4,2,1,50,0,0
110505,-62.5,4,2,1,50,0,0
111171,-71.4285714285714,4,2,1,50,0,0
111505,-100,4,2,1,30,0,0
112005,-83.3333333333333,4,2,1,30,0,0
112505,-125,4,2,1,30,0,0
115505,-125,4,2,2,30,0,0
116505,-166.666666666667,4,2,2,30,0,0
117505,-125,4,2,2,30,0,0
118505,-250,4,2,2,30,0,0
120505,-125,4,2,2,20,0,0
126504,-83.3333333333333,4,2,2,30,0,0
128504,-62.5,4,2,0,30,0,0
129505,-71.4285714285714,4,2,0,30,0,0
130005,-100,4,2,0,30,0,0
131005,-71.4285714285714,4,2,0,30,0,0
131505,-100,4,2,0,30,0,0
132505,-71.4285714285714,4,2,0,30,0,0
134005,-100,4,2,0,30,0,0
134505,-71.4285714285714,4,2,0,30,0,0
135088,-71.4285714285714,4,2,0,5,0,0
135338,-71.4285714285714,4,2,0,30,0,0
136005,-166.666666666667,4,2,0,30,0,0
136505,-125,4,2,2,30,0,0
137505,-100,4,2,2,30,0,0
139505,-166.666666666667,4,2,2,30,0,0
140505,-100,4,2,2,30,0,0
141505,-166.666666666667,4,2,2,30,0,0
142505,-71.4285714285714,4,2,2,30,0,0
146505,-125,4,2,2,20,0,0
150505,-71.4285714285714,4,2,2,30,0,0
154505,-125,4,2,2,20,0,0
158005,-125,4,2,2,30,0,0
158171,-125,4,2,2,40,0,0
158338,-125,4,2,2,50,0,0
158505,-71.4285714285714,4,2,2,50,0,1
161505,-100,4,2,2,50,0,1
162505,-71.4285714285714,4,2,2,50,0,1
165505,-100,4,2,2,45,0,0
166505,-62.5,4,2,2,50,0,1
168505,-71.4285714285714,4,2,2,50,0,1
169505,-62.5,4,2,2,50,0,1
170505,-55.5555555555556,4,2,2,50,0,1
172338,-55.5555555555556,4,2,2,40,0,1
172505,-100,4,2,2,40,0,1
173505,-125,4,2,2,40,0,1
174505,-125,4,2,2,30,0,0
174838,-125,4,2,2,20,0,0
180005,-125,4,2,2,25,0,0
180505,-83.3333333333333,4,2,2,25,0,0
180588,-83.3333333333333,4,2,2,5,0,0
181005,-83.3333333333333,4,2,2,25,0,0
181088,-83.3333333333333,4,2,2,5,0,0
181505,-83.3333333333333,4,2,2,25,0,0
181588,-83.3333333333333,4,2,2,5,0,0
182005,-83.3333333333333,4,2,2,25,0,0
182088,-83.3333333333333,4,2,2,5,0,0
182171,-83.3333333333333,4,2,2,25,0,0
184505,-100,4,2,2,25,0,0
188505,-100,4,2,2,35,0,0
190505,-71.4285714285714,4,2,1,40,0,0
191005,-83.3333333333333,4,2,1,40,0,0
191505,-71.4285714285714,4,2,1,40,0,0
192005,-83.3333333333333,4,2,1,40,0,0
192505,-71.4285714285714,4,2,1,40,0,0
193005,-83.3333333333333,4,2,1,40,0,0
193505,-71.4285714285714,4,2,1,40,0,0
194005,-83.3333333333333,4,2,1,40,0,0
194505,-55.5555555555556,4,2,1,40,0,0
195005,-71.4285714285714,4,2,1,40,0,0
195505,-55.5555555555556,4,2,1,40,0,0
196005,-71.4285714285714,4,2,1,40,0,0
197005,-83.3333333333333,4,2,1,40,0,0
197505,-71.4285714285714,4,2,1,40,0,0
198005,-83.3333333333333,4,2,1,40,0,0
198505,-83.3333333333333,4,2,1,30,0,0
200505,-71.4285714285714,4,2,1,30,0,0
206338,-71.4285714285714,4,2,1,5,0,0
206505,-166.666666666667,4,2,2,14,0,0
222505,-250.000000000001,4,2,2,14,0,0
226505,-250.000000000001,4,2,2,12,0,0
230505,-333.333333333336,4,2,2,9,0,0
234505,-500.000000000005,4,2,2,7,0,0

[Colours]
Combo1 : 255,79,83
Combo2 : 255,255,128
Combo3 : 199,245,197
Combo4 : 255,255,191

[HitObjects]
409,136,505,5,2,0:0:0:0:
425,133,671,1,2,0:0:0:0:
434,146,838,1,2,0:0:0:0:
344,174,1005,1,2,0:3:0:0:
344,174,1338,1,2,0:0:0:0:
479,231,1505,5,2,0:0:0:0:
447,217,1671,1,2,0:0:0:0:
411,224,1838,1,2,0:0:0:0:
512,300,2005,1,2,0:3:0:0:
512,300,2338,1,2,0:0:0:0:
428,361,2505,5,2,0:0:0:0:
428,361,2671,1,2,0:0:0:0:
428,361,2838,1,2,0:0:0:0:
299,338,3005,1,2,0:3:0:0:
299,338,3338,1,2,0:0:0:0:
369,312,3505,5,2,0:0:0:0:
369,312,3671,1,2,0:0:0:0:
369,312,3838,1,2,0:0:0:0:
356,384,4005,1,2,0:3:0:0:
103,136,4505,5,2,0:0:0:0:
87,133,4671,1,2,0:0:0:0:
78,146,4838,1,2,0:0:0:0:
168,174,5005,1,2,0:3:0:0:
168,174,5338,1,2,0:0:0:0:
33,231,5505,5,2,0:0:0:0:
65,217,5671,1,2,0:0:0:0:
101,224,5838,1,2,0:0:0:0:
0,300,6005,1,2,0:3:0:0:
0,300,6338,1,2,0:0:0:0:
84,361,6505,5,2,0:0:0:0:
84,361,6671,1,2,0:0:0:0:
84,361,6838,1,2,0:0:0:0:
231,337,7005,1,2,0:3:0:0:
231,337,7338,1,2,0:0:0:0:
150,310,7505,5,2,0:0:0:0:
156,345,7671,1,2,0:0:0:0:
163,382,7838,1,2,0:0:0:0:
128,194,8005,1,2,0:3:0:0:
402,248,8505,5,2,0:0:0:0:
386,251,8671,1,2,0:0:0:0:
377,238,8838,1,2,0:0:0:0:
467,210,9005,1,2,0:3:0:0:
467,210,9338,1,2,0:0:0:0:
332,153,9505,5,2,0:0:0:0:
364,167,9671,1,2,0:0:0:0:
400,160,9838,1,2,0:0:0:0:
299,84,10005,1,2,0:3:0:0:
299,84,10338,1,2,0:0:0:0:
383,23,10505,5,2,0:0:0:0:
383,23,10671,1,2,0:0:0:0:
383,23,10838,1,2,0:0:0:0:
512,46,11005,1,2,0:3:0:0:
512,46,11338,1,2,0:0:0:0:
445,79,11505,5,2,0:0:0:0:
445,79,11671,1,2,0:0:0:0:
445,79,11838,1,2,0:0:0:0:
454,0,12005,1,2,0:3:0:0:
110,248,12505,5,2,0:0:0:0:
126,251,12671,1,2,0:0:0:0:
135,238,12838,1,2,0:0:0:0:
45,210,13005,1,2,0:3:0:0:
45,210,13338,1,2,0:0:0:0:
180,153,13505,5,2,0:0:0:0:
148,167,13671,1,2,0:0:0:0:
112,160,13838,1,2,0:0:0:0:
213,84,14005,1,2,0:3:0:0:
213,84,14338,1,2,0:0:0:0:
145,24,14505,6,0,P|184:-1|230:0,1,93.3333333333333,2|0,0:0|0:0,0:0:0:0:
248,4,15005,2,0,P|283:34|296:78,1,93.3333333333333,2|0,0:3|0:0,0:0:0:0:
292,98,15505,2,0,P|272:139|233:163,1,93.3333333333333,2|0,0:0|0:0,0:0:0:0:
207,163,16005,2,2,P|246:186|265:228,1,93.3333333333333,2|0,0:0|0:0,0:0:0:0:
261,253,16505,6,0,B|303:225|303:225|342:242,1,93.3333333333333,8|2,1:0|0:0,0:0:0:0:
361,384,17005,2,0,B|316:361|316:361|312:317,1,93.3333333333333,2|2,0:0|0:0,0:0:0:0:
427,237,17505,2,0,B|429:286|429:286|394:311,1,93.3333333333333,2|2,0:0|0:0,0:0:0:0:
380,174,18005,1,2,0:3:0:0:
499,150,18338,1,2,0:0:0:0:
411,13,18505,6,0,P|370:-8|325:0,1,93.3333333333333,2|2,0:3|0:0,0:0:0:0:
271,102,19005,2,0,P|316:106|356:83,1,93.3333333333333,2|2,0:0|0:0,0:0:0:0:
221,16,19505,1,2,0:0:0:0:
263,200,19838,1,2,0:0:0:0:
335,214,20005,1,2,0:0:0:0:
127,282,20338,1,2,0:0:0:0:
179,223,20505,6,0,B|211:252|211:252|203:301,1,93.3333333333333,2|0,0:3|0:0,0:0:0:0:
150,359,21005,2,0,B|107:372|107:372|69:341,1,93.3333333333333,2|2,0:0|0:0,0:0:0:0:
26,185,21505,2,0,L|126:176,1,93.3333333333333,2|2,0:0|0:0,0:0:0:0:
271,231,22005,2,0,L|170:222,1,93.3333333333333,2|2,0:3|0:0,0:0:0:0:
156,60,22505,6,0,P|200:50|238:75,1,93.3333333333333,2|0,0:3|0:0,0:0:0:0:
348,191,23005,2,0,P|317:157|320:111,1,93.3333333333333,2|0,0:0|0:0,0:0:0:0:
443,1,23505,2,0,P|428:44|388:64,1,93.3333333333333,2|0,0:3|0:0,0:0:0:0:
348,191,24005,2,2,P|421:172|481:233,1,149.333333333333,2|0,0:0|0:0,0:0:0:0:
390,349,24505,6,0,B|351:374|351:374|308:354,1,93.3333333333333,8|2,1:0|0:0,0:0:0:0:
213,268,25005,2,0,B|256:248|256:248|295:273,1,93.3333333333333,2|2,0:0|0:0,0:0:0:0:
190,345,25505,2,0,B|151:370|151:370|108:350,1,93.3333333333333,2|2,0:0|0:0,0:0:0:0:
0,284,26005,1,2,0:3:0:0:
82,151,26338,1,2,0:0:0:0:
146,186,26505,6,0,L|136:289,1,93.3333333333333,2|2,0:3|0:0,0:0:0:0:
14,210,27005,2,0,L|4:107,1,93.3333333333333,2|2,0:0|0:0,0:0:0:0:
4,117,27505,1,2,0:0:0:0:
133,0,27838,1,2,0:0:0:0:
59,13,28005,1,2,0:0:0:0:
158,150,28338,1,0,0:0:0:0:
193,83,28505,6,0,B|236:63|236:63|275:88,1,93.3333333333333,2|0,0:3|0:0,0:0:0:0:
412,167,29005,2,0,B|437:128|437:128|417:85,1,93.3333333333333,2|2,0:0|0:0,0:0:0:0:
334,176,29505,2,0,L|342:259,1,74.6666666666667,2|0,0:0|0:0,0:0:0:0:
412,301,30005,2,0,L|403:384,1,74.6666666666667,2|2,0:0|0:0,0:0:0:0:
279,309,30504,6,0,B|207:288|215:342|135:312,2,140,2|2|2,0:0|0:0|0:0,0:0:0:0:
403,375,31838,1,2,0:0:0:0:
403,375,32005,1,2,0:0:0:0:
459,326,32171,1,2,0:0:0:0:
432,256,32338,1,2,0:0:0:0:
318,135,32505,6,0,L|325:210,2,55.9999982910157,2|2|2,0:3|0:0|0:0,0:0:0:0:
307,43,33005,2,0,L|362:37,2,55.9999982910157,2|2|2,0:3|0:0|0:0,0:0:0:0:
210,55,33505,2,0,L|202:-20,2,55.9999982910157,2|2|2,0:3|0:0|0:0,0:0:0:0:
221,147,34005,2,0,L|165:152,2,55.9999982910157,2|2|2,0:0|0:0|0:0,0:0:0:0:
89,134,34505,6,0,P|86:157|92:180,2,46.6666666666667,2|2|2,0:3|0:0|0:0,0:0:0:0:
153,225,35005,2,0,P|155:248|150:270,1,46.6666666666667,2|2,0:3|0:0,0:0:0:0:
49,346,35338,1,2,0:3:0:0:
49,346,35505,2,0,P|70:337|93:336,2,46.6666666666667,2|2|2,0:3|0:0|0:0,0:0:0:0:
199,384,36005,1,2,0:0:0:0:
233,319,36171,1,2,0:0:0:0:
332,304,36338,1,2,0:0:0:0:
438,366,36505,6,0,L|446:279,1,65.3333313395183,2|2,0:3|0:0,0:0:0:0:
443,300,36838,1,2,0:0:0:0:
322,212,37005,2,0,L|330:299,1,65.3333313395183,2|2,0:3|0:0,0:0:0:0:
327,277,37338,1,2,0:0:0:0:
492,225,37505,2,0,P|464:208|431:209,1,65.3333313395183,2|2,0:3|0:0,0:0:0:0:
431,209,37838,1,2,0:0:0:0:
355,74,38005,2,0,P|382:57|415:58,1,65.3333313395183,2|2,0:3|0:0,0:0:0:0:
416,58,38338,1,2,0:0:0:0:
292,186,38505,5,2,2:3:0:0:
171,127,38671,1,2,2:0:0:0:
282,51,38838,1,2,2:0:0:0:
214,191,39005,5,2,2:3:0:0:
205,57,39171,1,2,2:0:0:0:
326,116,39338,1,2,2:0:0:0:
171,127,39505,5,2,2:3:0:0:
283,52,39671,1,2,2:0:0:0:
293,186,39838,1,2,2:0:0:0:
71,151,40005,5,6,2:0:0:0:
71,151,40505,6,0,P|103:148|132:161,1,65.3333313395183,8|0,1:0|0:0,0:0:0:0:
58,297,40838,1,2,0:0:0:0:
30,289,41005,2,0,P|10:263|11:216,1,74.6666666666667,2|0,0:3|0:0,0:0:0:0:
168,230,41338,1,2,2:0:0:0:
211,293,41505,2,0,L|321:278,1,83.9999974365235,2|0,0:3|0:0,0:0:0:0:
451,214,41838,1,2,2:0:0:0:
397,292,42005,2,0,L|411:384,1,93.3333333333333,2|0,0:3|0:0,0:0:0:0:
294,281,42338,1,2,0:0:0:0:
342,165,42505,6,0,P|373:165|392:175,1,46.6666666666667,2|0,0:0|0:0,0:0:0:0:
456,136,42838,1,2,0:0:0:0:
456,136,43005,2,0,P|454:112|462:91,1,46.6666666666667,2|0,0:0|0:0,0:0:0:0:
427,27,43338,1,2,0:0:0:0:
427,27,43505,2,0,P|396:27|377:17,1,46.6666666666667,2|0,0:0|0:0,0:0:0:0:
313,56,43838,1,2,0:0:0:0:
313,56,44005,2,0,P|314:79|306:100,1,46.6666666666667,2|0,0:0|0:0,0:0:0:0:
120,31,44505,6,0,P|149:17|181:20,1,65.3333313395183,8|0,1:0|0:0,0:0:0:0:
82,141,44838,1,2,0:0:0:0:
55,140,45005,2,0,P|28:121|19:78,1,74.6666666666667,2|0,0:3|0:0,0:0:0:0:
172,102,45338,1,2,0:0:0:0:
239,139,45505,2,0,L|230:235,1,83.9999974365235,2|0,0:3|0:0,0:0:0:0:
111,342,45838,1,2,0:0:0:0:
56,266,46005,2,0,L|152:257,1,93.3333333333333,2|0,0:3|0:0,0:0:0:0:
246,384,46338,1,2,0:0:0:0:
318,285,46505,6,0,P|348:283|368:292,1,46.6666666666667,2|0,0:0|0:0,0:0:0:0:
424,338,46838,1,2,0:0:0:0:
424,338,47005,2,0,P|454:339|474:330,1,46.6666666666667,2|0,0:0|0:0,0:0:0:0:
489,264,47338,1,2,0:0:0:0:
489,263,47505,2,0,P|466:256|443:259,1,46.6666666666667,2|0,0:0|0:0,0:0:0:0:
381,218,47838,1,2,0:0:0:0:
381,218,48004,2,0,P|378:194|384:172,1,46.6666666666667,2|0,0:0|0:0,0:0:0:0:
396,54,48505,6,0,P|333:32|286:79,1,140,2|0,0:0|0:0,0:0:0:0:
78,30,49505,2,2,P|174:57|177:117,1,163.333328348796,2|0,0:0|0:0,0:0:0:0:
71,228,50505,2,0,L|55:102,1,125.999996154785,2|2,0:0|0:0,0:0:0:0:
195,188,51505,2,0,L|179:313,2,125.999996154785,2|2|2,0:0|0:0|0:0,0:0:0:0:
306,384,53505,5,2,0:0:0:0:
512,233,54338,2,0,L|454:230,1,41.9999987182618,2|2,0:0|0:0,0:0:0:0:
405,268,55005,1,2,0:0:0:0:
400,299,55505,1,2,0:0:0:0:
406,313,56005,2,0,P|366:320|336:335,1,70,2|2,0:0|1:0,0:0:0:0:
217,15,72005,6,0,P|286:9|312:94,1,167.999994873047,2|2,0:0|0:0,0:0:0:0:
109,181,73005,2,0,L|106:153,1,27.9999991455078,2|0,0:0|0:0,0:0:0:0:
239,375,73838,1,2,0:0:0:0:
243,379,74005,2,0,L|245:351,1,27.9999991455078,2|0,0:0|0:0,0:0:0:0:
214,233,74338,1,2,0:0:0:0:
214,233,74505,6,0,P|265:216|309:248,1,111.999996582031,2|0,0:0|0:0,0:0:0:0:
368,327,75005,2,0,P|374:281|410:254,1,93.3333333333333,2|0,0:0|0:0,0:0:0:0:
507,244,75505,2,0,P|476:223|464:189,1,74.6666666666667,2|0,0:0|0:0,0:0:0:0:
500,98,76005,2,0,P|467:114|439:113,1,55.9999982910157,2|0,0:0|0:0,0:0:0:0:
397,59,76505,5,2,0:0:0:0:
126,138,77005,2,0,L|154:141,1,27.9999991455078,2|0,0:0|0:0,0:0:0:0:
320,41,77505,2,0,P|284:21|244:32,1,83.9999974365235
226,60,77838,1,2,0:0:0:0:
226,60,78005,2,0,L|229:88,1,27.9999991455078,2|0,0:0|0:0,0:0:0:0:
0,182,78505,6,0,P|24:195|38:219,1,55.9999982910157,2|0,0:0|0:0,0:0:0:0:
12,307,79005,2,0,P|44:290|80:297,1,74.6666666666667,2|0,0:0|0:0,0:0:0:0:
150,355,79505,2,0,P|152:318|196:278,1,93.3333333333333,2|0,0:0|0:0,0:0:0:0:
292,279,80005,2,0,P|260:258|256:181,1,111.999996582031,2|0,0:0|0:0,0:0:0:0:
308,139,80505,6,0,L|355:142,16,27.9999991455078,2|0|0|0|0|0|0|0|0|0|0|0|0|0|0|0|0,0:0|0:0|0:0|0:0|0:0|0:0|0:0|0:0|0:0|0:0|0:0|0:0|0:0|0:0|0:0|0:0|0:0,0:0:0:0:
411,146,82005,1,2,0:0:0:0:
510,259,82338,1,2,0:0:0:0:
510,259,82505,2,0,P|431:259|404:322,1,140,2|2,0:0|0:0,0:0:0:0:
251,326,83505,2,0,P|307:337|327:393,1,112,2|2,0:0|0:0,0:0:0:0:
139,210,84505,6,0,P|89:192|43:221,1,111.999996582031,2|0,0:0|0:0,0:0:0:0:
9,286,85005,2,0,L|16:326,1,27.9999991455078,2|0,0:0|0:0,0:0:0:0:
136,125,85505,2,0,P|177:118|213:139,1,83.9999974365235,2|0,0:0|0:0,0:0:0:0:
228,168,85838,1,2,0:0:0:0:
228,168,86005,2,0,L|221:208,1,27.9999991455078,2|0,0:0|0:0,0:0:0:0:
464,25,86505,6,0,B|343:-25|361:117|253:85,1,224,2|2,0:0|0:0,0:0:0:0:
55,143,88338,1,2,0:0:0:0:
55,143,88505,6,0,L|64:226,1,74.6666666666667,2|0,0:3|0:0,0:0:0:0:
135,234,89005,2,0,L|126:317,1,74.6666666666667,2|0,0:0|0:0,0:0:0:0:
122,384,89505,2,0,L|205:375,1,74.6666666666667,2|0,0:0|0:0,0:0:0:0:
234,310,90005,2,0,L|317:319,1,74.6666666666667,2|0,0:0|0:0,0:0:0:0:
393,384,90505,5,2,0:3:0:0:
491,303,91005,1,2,0:0:0:0:
444,184,91505,1,2,0:0:0:0:
316,191,92338,1,2,0:0:0:0:
316,191,92505,2,0,L|382:196,1,55.9999982910157,2|0,0:0|0:0,0:0:0:0:
399,209,93005,2,0,L|404:143,1,55.9999982910157,2|2,0:0|0:0,0:0:0:0:
419,126,93505,2,0,L|353:121,1,55.9999982910157,2|0,0:0|0:0,0:0:0:0:
335,105,94005,2,0,L|330:171,1,55.9999982910157,2|0,0:0|0:0,0:0:0:0:
316,191,94505,5,2,0:0:0:0:
125,0,96338,1,2,0:0:0:0:
8,60,96505,5,2,0:0:0:0:
42,58,96671,1,2,0:0:0:0:
106,104,96838,1,2,0:0:0:0:
106,200,97005,2,0,P|39:178|-7:188,1,111.999996582031,2|2,0:3|0:0,0:0:0:0:
93,375,97505,5,2,0:0:0:0:
129,314,97671,1,2,0:0:0:0:
161,303,97838,1,2,0:0:0:0:
180,304,98005,2,0,P|223:316|277:319,1,93.3333333333333,2|2,0:3|0:0,0:0:0:0:
393,374,98505,5,2,0:0:0:0:
400,364,98671,1,2,0:0:0:0:
412,358,98838,1,2,0:0:0:0:
426,356,99005,2,0,P|461:326|458:281,1,93.3333333333333,2|2,0:3|0:0,0:0:0:0:
350,159,99505,5,2,0:0:0:0:
378,289,99671,1,2,0:0:0:0:
458,201,99838,1,2,0:0:0:0:
274,244,100004,1,2,0:3:0:0:
63,55,100338,1,2,0:0:0:0:
118,109,100505,6,0,L|110:194,1,65.3333313395183,2|0,0:3|0:0,0:0:0:0:
174,47,100838,1,2,0:0:0:0:
198,71,101005,2,0,L|191:126,1,55.9999982910157,2|0,0:3|0:0,0:0:0:0:
269,20,101338,1,2,0:0:0:0:
282,38,101505,2,0,L|276:84,1,46.6666666666667,2|0,0:3|0:0,0:0:0:0:
355,0,101838,1,2,0:0:0:0:
359,12,102005,2,0,L|354:49,1,37.3333333333333,2|0,0:3|0:0,0:0:0:0:
344,146,102338,1,2,0:0:0:0:
512,189,102505,5,2,0:0:0:0:
446,86,102671,1,2,0:0:0:0:
396,201,102838,1,2,0:0:0:0:
489,287,103005,2,0,B|499:266|499:266|434:253|408:305,1,130.666662679037,2|2,0:3|0:0,0:0:0:0:
333,329,103505,2,0,P|332:305|326:283,2,46.6666666666667,2|2|2,0:0|0:0|0:0,0:0:0:0:
274,380,104005,1,2,0:0:0:0:
239,379,104088,1,2,0:0:0:0:
206,365,104171,1,2,0:0:0:0:
184,336,104255,1,2,0:0:0:0:
179,301,104338,1,2,0:0:0:0:
193,268,104421,1,2,0:0:0:0:
226,248,104505,6,0,B|251:216|251:216|87:208,1,186.666666666667,4|0,1:0|0:0,1:0:0:0:
82,208,105005,1,2,0:0:0:0:
0,153,105171,1,2,0:0:0:0:
40,3,105338,1,2,0:0:0:0:
146,79,105505,2,0,P|219:92|273:38,1,130.666662679037,2|0,0:0|0:0,0:0:0:0:
306,0,106005,2,0,P|302:39|338:80,1,93.3333333333333,0|2,1:0|0:0,0:0:0:0:
475,170,106505,6,0,B|514:136|514:136|502:313,1,224,4|2,1:0|0:0,1:0:0:0:
383,202,107171,1,2,0:0:0:0:
343,188,107255,1,2,0:0:0:0:
302,196,107338,1,2,0:0:0:0:
277,227,107421,1,2,0:0:0:0:
273,268,107505,2,0,L|280:306,4,23.3333333333333,2|2|2|2|2,0:0|0:0|0:0|0:0|0:0,0:0:0:0:
181,363,108005,2,0,B|158:373|158:373|164:285,1,111.999996582031,2|0,1:3|0:0,0:0:0:0:
91,138,108505,6,0,B|59:113|59:113|51:277,1,186.666666666667,4|0,1:0|0:0,0:0:0:0:
51,279,109005,2,0,P|110:298|156:256,1,130.666662679037,2|2,0:0|0:0,0:0:0:0:
262,195,109505,2,0,P|200:182|182:122,1,130.666662679037,2|2,0:0|0:0,0:0:0:0:
72,52,110005,2,0,P|101:65|133:64,1,65.3333313395183,2|0,0:0|0:0,0:0:0:0:
214,0,110338,1,0,1:0:0:0:
379,87,110505,5,4,1:0:0:0:
243,182,110671,1,2,0:0:0:0:
332,19,110838,2,0,P|367:8|404:10,1,74.6666666666667,2|0,0:0|0:0,0:0:0:0:
473,134,111171,2,0,P|447:93|400:81,1,97.9999970092775,2|0,0:0|0:0,0:0:0:0:
379,87,111505,1,2,0:0:0:0:
512,0,111671,1,2,0:0:0:0:
438,203,111838,1,2,0:0:0:0:
431,200,111921,1,2,0:0:0:0:
424,197,112005,2,0,B|394:184|394:184|401:291,1,139.999995727539,0|0,1:0|0:0,0:0:0:0:
402,312,112505,6,0,B|300:272|312:377|221:352,1,186.666666666667,2|0,0:0|0:0,0:0:0:0:
169,321,113505,1,2,0:0:0:0:
0,370,114005,1,2,0:0:0:0:
48,151,114505,5,2,0:0:0:0:
163,176,114838,1,2,0:0:0:0:
74,119,115171,1,2,0:0:0:0:
148,100,115505,2,0,P|207:80|208:31,1,112,2|0,0:0|0:0,0:0:0:0:
400,9,116338,1,2,0:0:0:0:
400,9,116505,6,0,P|393:103|414:148,1,139.999995727539,2|2,0:0|0:0,0:0:0:0:
476,179,117505,2,0,P|415:179|377:224,1,112,2|2,0:0|0:0,0:0:0:0:
289,267,118505,2,0,B|379:265|344:344|426:347,1,168,2|2,0:0|0:0,0:0:0:0:
53,240,120505,6,0,L|48:190,2,37.3333333333333,2|0|0,0:0|0:0|0:0,0:0:0:0:
59,314,121005,2,0,L|18:342,2,37.3333333333333,2|0|0,0:0|0:0|0:0,0:0:0:0:
123,274,121505,2,0,L|168:295,2,37.3333333333333,2|0|0,0:0|0:0|0:0,0:0:0:0:
52,239,122005,1,2,0:0:0:0:
219,3,122505,6,0,L|268:-1,2,37.3333333333333,2|0|0,0:0|0:0|0:0,0:0:0:0:
172,63,123005,2,0,L|134:59,2,37.3333333333333,2|0|0,0:0|0:0|0:0,0:0:0:0:
237,103,123505,2,0,L|274:99,2,37.3333333333333,2|0|0,0:0|0:0|0:0,0:0:0:0:
174,145,124005,1,2,0:0:0:0:
485,188,124505,6,0,L|488:140,2,37.3333333333333,2|0|0,0:0|0:0|0:0,0:0:0:0:
420,228,125005,2,0,L|404:182,2,37.3333333333333,2|0|0,0:0|0:0|0:0,0:0:0:0:
492,259,125505,2,0,L|512:227,2,37.3333333333333,2|0|0,0:0|0:0|0:0,0:0:0:0:
432,302,126005,1,2,0:0:0:0:
149,352,126504,6,0,P|151:324|163:299,1,55.9999982910157,2|2,0:0|0:0,0:0:0:0:
280,334,126838,1,2,0:0:0:0:
280,334,127004,2,0,P|254:345|227:347,1,55.9999982910157,2|2,0:0|0:0,0:0:0:0:
198,226,127338,1,2,0:0:0:0:
198,226,127504,2,0,P|220:241|236:265,1,55.9999982910157,2|2,0:0|0:0,0:0:0:0:
93,332,127838,1,2,0:0:0:0:
93,332,127921,1,2,0:0:0:0:
93,332,128004,1,2,0:3:0:0:
90,301,128088,1,2,0:0:0:0:
88,270,128171,1,2,0:0:0:0:
86,239,128254,1,2,0:0:0:0:
84,209,128338,2,0,P|90:187|97:175,1,27.9999991455078,2|2,0:0|0:0,0:0:0:0:
209,112,128504,6,0,P|138:116|106:52,1,149.333333333333,4|2,1:0|0:0,0:0:0:0:
226,96,129004,1,2,0:0:0:0:
346,0,129171,1,2,0:0:0:0:
451,58,129338,1,2,0:0:0:0:
360,102,129505,2,0,P|419:125|440:185,1,130.666662679037,0|2,1:0|0:0,0:0:0:0:
371,239,130005,2,0,P|390:199|434:202,1,93.3333333333333,2|0,0:0|1:0,0:0:0:0:
414,361,130505,5,4,1:0:0:0:
292,256,130671,1,0,0:0:0:0:
213,349,130838,1,0,0:0:0:0:
172,196,131005,2,0,P|228:181|247:104,1,130.666662679037,2|0,0:0|0:0,0:0:0:0:
55,223,131505,2,0,P|78:223|99:232,1,46.6666666666667,0|0,1:0|0:0,0:0:0:0:
112,245,131838,1,0,0:0:0:0:
77,31,132005,1,2,0:0:0:0:
77,31,132338,1,2,0:0:0:0:
249,117,132505,6,0,P|279:60|341:47,1,130.666662679037,4|2,1:0|0:0,0:0:0:0:
339,46,132921,1,2,0:0:0:0:
339,46,133005,1,2,1:2:0:0:
486,196,133171,1,2,0:0:0:0:
396,159,133338,1,2,0:0:0:0:
329,262,133505,2,0,P|380:254|408:330,1,130.666662679037,0|2,1:0|0:0,0:0:0:0:
512,299,134005,2,0,P|483:337|483:382,1,93.3333333333333,2|0,0:0|1:0,0:0:0:0:
270,360,134505,6,0,P|219:320|233:251,1,130.666662679037,4|0,1:0|0:0,0:0:0:0:
270,360,135005,2,0,L|314:368,1,32.6666656697591,2|0,0:1|0:0,0:0:0:0:
211,185,135338,1,2,0:0:0:0:
82,274,135505,6,0,P|20:260|0:202,1,130.666662679037,0|2,1:0|0:0,0:0:0:0:
53,87,136005,2,0,L|61:150,1,55.9999982910157,2|2,0:0|0:0,0:0:0:0:
154,168,136505,6,0,P|180:172|205:185,1,37.3333333333333,2|0,0:0|0:0,0:0:0:0:
262,147,136838,1,2,0:0:0:0:
262,147,137005,2,0,P|252:122|251:94,1,37.3333333333333,2|2,0:0|0:0,0:0:0:0:
193,51,137338,1,0,0:0:0:0:
193,51,137505,2,0,P|184:72|168:90,2,46.6666666666667,2|2|2,0:0|0:0|0:0,0:0:0:0:
286,0,138005,1,2,0:0:0:0:
475,89,138338,1,2,0:0:0:0:
439,156,138505,6,0,P|416:157|393:166,2,46.6666666666667,2|2|2,0:0|0:0|0:0,0:0:0:0:
511,181,139005,2,0,P|500:201|509:279,1,93.3333333333333,2|2,0:0|0:0,0:0:0:0:
448,320,139505,1,2,0:0:0:0:
448,320,139671,2,0,P|418:328|389:339,1,55.9999982910157,2|2,0:0|0:0,0:0:0:0:
321,384,140338,1,0,0:0:0:0:
281,264,140505,6,0,L|221:258,1,46.6666666666667,2|0,0:0|0:0,0:0:0:0:
134,278,140838,1,2,0:0:0:0:
134,278,141005,2,0,P|165:225|158:187,1,93.3333333333333,2|0,0:0|0:0,0:0:0:0:
107,147,141505,2,0,L|46:153,1,55.9999982910157,2|0,0:0|0:0,0:0:0:0:
9,89,142005,2,0,L|12:61,2,27.9999991455078,2|2|2,0:0|0:0|0:0,0:0:0:0:
107,147,142505,6,0,P|136:159|169:160,2,65.3333313395183,2|2|2,0:3|0:0|0:0,0:0:0:0:
127,22,143005,2,0,P|101:42|85:70,2,65.3333313395183,2|2|2,0:3|0:0|0:0,0:0:0:0:
228,102,143505,2,0,P|224:69|208:41,2,65.3333313395183,2|2|2,0:3|0:0|0:0,0:0:0:0:
107,147,144005,2,0,P|136:159|169:160,1,65.3333313395183,2|2,0:3|0:0,0:0:0:0:
169,160,144255,1,2,0:0:0:0:
169,160,144338,1,2,0:0:0:0:
303,136,144505,6,0,L|298:218,2,65.3333313395183,2|0|2,0:3|0:0|0:0,0:0:0:0:
309,40,145005,2,0,L|240:-5,2,65.3333313395183,2|2|2,0:3|0:0|0:0,0:0:0:0:
385,98,145505,2,0,L|458:61,2,65.3333313395183,2|2|2,0:3|0:0|0:0,0:0:0:0:
303,136,146005,2,0,L|298:218,2,65.3333313395183,2|2|2,0:3|0:0|0:0,0:0:0:0:
456,226,146505,6,0,L|454:189,2,37.3333333333333,2|2|2,0:3|0:0|0:0,0:0:0:0:
464,301,147005,2,0,L|500:306,2,37.3333333333333,2|2|2,0:3|0:0|0:0,0:0:0:0:
393,272,147505,2,0,L|369:301,2,37.3333333333333,2|2|2,0:3|0:0|0:0,0:0:0:0:
456,226,148005,2,2,L|454:189,1,37.3333333333333,2|2,0:3|0:0,0:0:0:0:
454,189,148255,1,2,0:0:0:0:
454,189,148338,1,2,0:0:0:0:
300,218,148505,6,0,P|320:216|337:218,2,37.3333333333333,2|2|2,0:3|0:0|0:0,0:0:0:0:
224,226,149005,2,0,P|212:209|206:193,2,37.3333333333333,2|2|2,0:3|0:0|0:0,0:0:0:0:
267,289,149505,2,0,P|258:307|247:320,2,37.3333333333333,2|2|2,0:3|0:0|0:0,0:0:0:0:
300,218,150005,2,0,P|320:216|337:218,2,37.3333333333333,2|2|2,0:3|0:0|0:0,0:0:0:0:
166,293,150505,6,0,P|135:304|103:302,2,65.3333313395183,2|2|2,0:3|0:0|0:0,0:0:0:0:
152,168,151005,2,0,P|177:188|191:217,2,65.3333313395183,2|2|2,0:3|0:0|0:0,0:0:0:0:
44,239,151505,2,0,P|48:206|66:179,2,65.3333313395183,2|2|2,0:3|0:0|0:0,0:0:0:0:
166,293,152005,2,0,P|135:304|103:302,1,65.3333313395183,2|2,0:3|0:0,0:0:0:0:
103,302,152255,1,2,0:0:0:0:
103,302,152338,1,2,0:0:0:0:
152,168,152505,6,0,L|188:222,2,65.3333313395183,2|2|2,0:3|0:0|0:0,0:0:0:0:
65,173,153005,2,0,L|0:177,2,65.3333313395183,2|2|2,0:3|0:0|0:0,0:0:0:0:
104,92,153505,2,0,L|132:33,2,65.3333313395183,2|2|2,2:3|2:0|2:0,2:0:0:0:
152,168,154005,2,0,L|188:222,2,65.3333313395183,2|2|2,0:3|0:0|0:0,0:0:0:0:
267,67,154505,6,0,L|262:25,2,37.3333333333333,2|2|2,0:3|0:0|0:0,0:0:0:0:
272,141,155004,2,0,L|239:166,2,37.3333333333333,2|2|2,0:3|0:0|0:0,0:0:0:0:
335,99,155504,2,0,L|373:116,2,37.3333333333333,2|2|2,0:3|0:0|0:0,0:0:0:0:
267,67,156005,2,0,L|262:25,1,37.3333333333333,2|2,0:3|0:0,0:0:0:0:
263,30,156255,1,2,0:0:0:0:
263,30,156338,1,2,0:0:0:0:
406,114,156505,6,0,P|386:112|369:114,2,37.3333333333333,2|2|2,0:3|0:0|0:0,0:0:0:0:
482,122,157005,2,0,P|494:105|500:89,2,37.3333333333333,2|2|2,0:3|0:0|0:0,0:0:0:0:
439,185,157505,2,0,P|448:203|459:216,2,37.3333333333333,2|2|2,0:3|0:0|0:0,0:0:0:0:
406,114,158005,1,2,0:3:0:0:
320,209,158171,1,2,0:3:0:0:
382,358,158338,1,2,0:3:0:0:
188,244,158505,6,0,B|158:207|3:157|-79:325|62:371|89:308,1,326.666656697591,4|0,1:0|0:0,0:0:0:0:
267,339,159505,2,0,B|204:293|217:206|283:179|283:179|247:103|159:117,1,326.666656697591,8|0,1:0|0:0,0:0:0:0:
0,140,160505,6,0,P|32:136|58:117,1,65.3333313395183,2|0,0:0|0:0,0:0:0:0:
168,48,160838,2,0,P|155:77|158:109,1,65.3333313395183,2|0,0:0|0:0,0:0:0:0:
159,235,161171,2,0,P|139:208|110:196,1,65.3333313395183,2|0,0:0|0:0,0:0:0:0:
237,91,161505,2,0,L|298:98,1,46.6666666666667,2|0,0:0|0:0,0:0:0:0:
317,167,161838,2,0,L|365:128,1,46.6666666666667,2|0,0:0|0:0,0:0:0:0:
427,164,162171,2,0,L|433:103,1,46.6666666666667,2|0,0:0|0:0,0:0:0:0:
315,0,162505,6,0,P|300:28|302:60,1,65.3333313395183,2|0,1:0|0:0,0:0:0:0:
476,56,162838,1,2,0:0:0:0:
476,56,163005,2,0,P|447:40|415:42,1,65.3333313395183,2|0,0:0|0:0,0:0:0:0:
332,230,163338,1,2,0:0:0:0:
286,171,163505,2,0,P|314:155|346:157,1,65.3333313395183,2|0,0:0|0:0,0:0:0:0:
481,243,163838,1,2,0:0:0:0:
447,335,164005,2,0,P|414:337|386:321,1,65.3333313395183,2|0,0:0|0:0,0:0:0:0:
332,230,164338,1,2,0:0:0:0:
275,343,164505,5,2,0:3:0:0:
236,346,164671,1,2,0:0:0:0:
196,349,164838,1,2,0:0:0:0:
68,247,165005,5,2,0:3:0:0:
142,252,165171,1,2,0:0:0:0:
218,258,165338,1,2,0:0:0:0:
136,122,165505,6,0,P|113:117|90:123,1,46.6666666666667,2|0,0:0|0:0,0:0:0:0:
188,68,165838,2,0,P|180:46|164:29,1,46.6666666666667,2|0,0:0|0:0,0:0:0:0:
256,95,166171,2,0,P|270:76|276:54,1,46.6666666666667,2|0,0:0|0:0,0:0:0:0:
345,227,166505,6,0,B|460:253|564:166|577:98|493:31|436:82|439:134,1,373.333333333333,4|2,1:0|0:0,0:0:0:0:
512,360,167505,2,0,P|467:304|397:316,1,149.333333333333,8|0,1:0|0:0,0:0:0:0:
273,384,168005,2,0,P|320:330|295:263,1,149.333333333333,2|0,0:0|0:0,0:0:0:0:
99,370,168505,6,0,P|132:370|161:385,1,65.3333313395183,2|0,1:0|0:0,0:0:0:0:
221,281,168838,2,0,P|189:280|161:296,1,65.3333313395183,2|0,0:3|0:0,0:0:0:0:
12,209,169171,2,0,P|40:194|73:195,1,65.3333313395183,2|0,0:3|0:0,0:0:0:0:
185,61,169505,6,0,P|177:25|151:0,1,74.6666666666667,2|0,0:3|0:0,0:0:0:0:
145,189,169838,2,0,P|179:200|215:191,1,74.6666666666667,2|0,0:3|0:0,0:0:0:0:
36,69,170171,2,0,P|8:93|0:128,1,74.6666666666667,2|0,0:3|0:0,0:0:0:0:
235,120,170505,6,0,B|257:108|282:118|282:118|364:210|551:209|578:114|505:9|433:41|394:111|429:170|429:170|476:280|438:351|438:351|430:318|393:298,1,755.999976928712,12|0,1:0|0:0,0:0:0:0:
349,258,172338,1,2,0:0:0:0:
329,275,172505,2,0,B|205:247|225:389|117:356,1,233.333333333333,2|0,0:0|0:0,0:0:0:0:
27,291,173505,2,0,P|40:213|106:256,1,186.666666666667,2|0,0:0|0:0,0:0:0:0:
107,273,174505,5,2,0:0:0:0:
235,287,174838,1,2,0:0:0:0:
235,287,175005,1,2,0:0:0:0:
287,169,175338,1,2,0:0:0:0:
287,169,175505,1,2,0:0:0:0:
190,83,175838,1,2,0:0:0:0:
190,83,176005,1,2,0:0:0:0:
78,148,176338,5,2,0:0:0:0:
99,141,176505,1,2,0:0:0:0:
119,141,176671,1,2,0:0:0:0:
139,147,176838,1,2,0:0:0:0:
156,159,177005,1,2,0:0:0:0:
234,178,177338,5,2,0:0:0:0:
231,166,177505,1,2,0:0:0:0:
233,155,177671,1,2,0:0:0:0:
237,145,177838,2,0,L|255:147,2,18.6666666666667,2|2|2,0:0|0:0|0:0,0:0:0:0:
487,75,178505,5,2,0:0:0:0:
364,64,178838,1,2,0:0:0:0:
364,64,179005,1,2,0:0:0:0:
315,177,179338,1,2,0:0:0:0:
315,177,179505,1,2,0:0:0:0:
407,258,179838,1,2,0:0:0:0:
407,258,180005,1,2,0:0:0:0:
512,195,180338,1,0,0:0:0:0:
512,195,180505,6,0,L|484:193,1,27.9999991455078,2|0,0:0|0:0,0:0:0:0:
407,258,181005,2,0,L|379:256,1,27.9999991455078,2|0,0:0|0:0,0:0:0:0:
499,353,181505,2,0,L|471:351,1,27.9999991455078,2|0,0:0|0:0,0:0:0:0:
379,256,182005,2,0,L|377:283,1,27.9999991455078,2|0,0:0|0:0,0:0:0:0:
372,359,182171,1,2,0:0:0:0:
372,359,182338,1,2,0:0:0:0:
299,324,182505,5,2,0:0:0:0:
191,384,182838,1,2,0:0:0:0:
191,384,183005,1,2,0:0:0:0:
100,300,183338,1,2,0:0:0:0:
100,300,183505,1,2,0:0:0:0:
151,189,183838,1,2,0:0:0:0:
151,189,184005,1,2,0:0:0:0:
273,204,184338,1,2,0:0:0:0:
273,204,184505,6,0,P|321:171|320:120,1,93.3333333333333,2|2,0:0|0:0,0:0:0:0:
399,141,185005,2,0,P|391:96|354:70,1,93.3333333333333,2|0,0:0|0:0,0:0:0:0:
374,0,185505,2,0,P|329:-7|292:20,1,93.3333333333333,2|2,0:0|0:0,0:0:0:0:
293,20,185921,1,2,0:0:0:0:
293,20,186005,1,2,0:0:0:0:
0,89,186505,6,0,P|44:96|71:133,1,93.3333333333333,2|2,0:0|0:0,0:0:0:0:
7,187,187005,2,0,P|27:146|71:133,1,93.3333333333333,2|2,0:0|0:0,0:0:0:0:
103,210,187505,2,0,P|70:178|71:133,1,93.3333333333333,2|2,0:0|0:0,0:0:0:0:
154,126,188005,2,0,P|114:147|71:133,1,93.3333333333333,2|2,0:0|0:0,0:0:0:0:
231,42,188505,6,0,L|239:135,1,93.3333333333333,2|0,0:0|0:0,0:0:0:0:
189,197,189005,2,0,L|280:218,1,93.3333333333333,2|0,0:0|0:0,0:0:0:0:
323,284,189505,2,0,L|371:203,1,93.3333333333333,2|0,0:0|0:0,0:0:0:0:
447,183,190005,1,2,0:0:0:0:
444,154,190088,1,2,0:0:0:0:
429,129,190171,1,2,0:0:0:0:
406,112,190255,1,2,0:0:0:0:
378,106,190338,2,0,L|338:114,1,23.3333333333333,2|2,0:0|0:0,0:0:0:0:
284,192,190505,6,0,B|270:218|270:218|370:203,1,130.666662679037,4|2,1:0|0:0,0:0:0:0:
485,321,191005,2,0,P|450:281|397:291,1,111.999996582031,2|2,0:0|0:0,0:0:0:0:
248,370,191505,2,0,B|222:384|222:384|237:284,1,130.666662679037,0|2,1:0|0:0,0:0:0:0:
113,250,192005,2,0,P|72:284|78:337,1,111.999996582031,2|2,0:0|0:0,0:0:0:0:
197,207,192505,6,0,B|218:187|218:187|119:170,1,130.666662679037,4|2,1:0|0:0,0:0:0:0:
0,113,193005,2,0,P|37:75|86:95,1,111.999996582031,0|2,0:0|0:0,0:0:0:0:
237,35,193505,2,0,B|251:9|251:9|151:24,1,130.666662679037,0|2,1:0|0:0,0:0:0:0:
217,132,194005,2,0,P|270:139|310:102,1,111.999996582031,2|2,0:0|0:0,0:0:0:0:
456,66,194505,6,0,B|483:37|483:37|492:169,1,167.999994873047,4|2,1:0|0:0,0:0:0:0:
368,273,195005,2,0,L|378:132,1,130.666662679037
484,313,195505,2,0,B|512:340|512:340|381:349,1,167.999994873047,4|2,1:0|0:0,0:0:0:0:
247,254,196005,2,0,L|255:384,1,130.666662679037
86,363,196505,6,0,B|62:340|62:340|159:333,1,130.666662679037,4|2,1:0|0:0,0:0:0:0:
247,254,197005,2,0,P|210:215|159:230,1,111.999996582031,2|2,0:0|0:0,0:0:0:0:
27,152,197505,2,0,B|-1:135|-1:135|17:231,1,130.666662679037,0|2,1:0|0:0,0:0:0:0:
108,139,198005,2,0,P|98:86|46:71,1,111.999996582031,2|2,0:0|0:0,0:0:0:0:
225,9,198505,5,4,1:0:0:0:
302,21,198838,1,2,0:0:0:0:
302,21,199005,1,2,0:0:0:0:
329,94,199338,1,2,0:0:0:0:
329,94,199505,1,2,0:0:0:0:
406,106,199838,1,2,0:0:0:0:
406,106,200005,1,2,0:0:0:0:
512,37,200338,5,0,0:0:0:0:
438,178,200505,2,0,B|416:202|416:202|405:105,1,130.666662679037,0|0,1:0|0:0,0:0:0:0:
397,29,201005,1,2,0:0:0:0:
397,29,201338,1,2,0:0:0:0:
290,135,201505,2,0,B|265:156|265:156|362:167,1,130.666662679037,0|2,1:0|0:0,0:0:0:0:
438,178,202005,1,2,0:0:0:0:
288,384,202505,6,0,B|312:362|312:362|215:351,1,130.666662679037,0|2,1:0|0:0,0:0:0:0:
143,339,203005,1,2,0:0:0:0:
126,266,203338,1,2,0:0:0:0:
126,266,203505,1,2,0:0:0:0:
51,250,203838,1,2,0:0:0:0:
51,250,204005,1,2,0:0:0:0:
32,176,204338,5,2,0:0:0:0:
104,75,204505,2,0,B|125:50|125:50|136:147,1,130.666662679037,0|0,1:0|0:0,0:0:0:0:
146,222,205005,1,2,0:0:0:0:
146,222,205505,1,0,0:0:0:0:
296,157,206005,1,2,0:0:0:0:
512,316,206505,6,0,L|447:309,1,55.9999982910157,2|2,0:3|0:0,0:0:0:0:
400,365,207005,2,0,L|373:305,1,55.9999982910157,2|2,0:0|0:0,0:0:0:0:
301,292,207505,2,0,L|339:239,1,55.9999982910157,2|2,0:0|0:0,0:0:0:0:
313,169,208005,2,0,L|377:175,1,55.9999982910157,2|2,0:0|0:0,0:0:0:0:
434,66,208505,2,0,L|428:121,1,55.9999982910157,2|2,0:3|0:0,0:0:0:0:
368,174,209005,2,0,L|313:169,1,55.9999982910157,2|2,0:0|0:0,0:0:0:0:
262,109,209505,2,0,L|267:53,1,55.9999982910157,2|2,0:0|0:0,0:0:0:0:
326,0,210005,1,2,0:0:0:0:
58,104,210505,6,0,L|63:159,1,55.9999982910157,2|2,0:3|0:0,0:0:0:0:
7,216,211005,2,0,L|58:238,1,55.9999982910157,2|2,0:0|0:0,0:0:0:0:
78,316,211505,2,0,L|123:282,1,55.9999982910157,2|2,0:0|0:0,0:0:0:0:
200,304,212005,2,0,L|194:248,1,55.9999982910157,2|2,0:0|0:0,0:0:0:0:
319,267,212505,2,0,L|313:322,1,55.9999982910157,2|2,0:3|0:0,0:0:0:0:
366,379,213005,2,0,L|421:384,1,55.9999982910157,2|2,0:0|0:0,0:0:0:0:
477,329,213505,1,2,0:0:0:0:
380,219,213838,1,2,0:0:0:0:
380,219,214005,1,2,0:0:0:0:
442,74,214338,1,2,0:0:0:0:
478,144,214505,6,0,L|422:149,1,55.9999982910157,2|2,0:3|0:0,0:0:0:0:
380,219,215005,2,0,L|346:173,1,55.9999982910157,2|2,0:0|0:0,0:0:0:0:
269,171,215505,2,0,L|291:119,1,55.9999982910157,2|2,0:0|0:0,0:0:0:0:
255,50,216005,2,0,L|310:44,1,55.9999982910157,2|2,0:0|0:0,0:0:0:0:
204,116,216505,2,0,L|148:110,1,55.9999982910157,2|2,0:3|0:0,0:0:0:0:
79,71,217005,2,0,L|73:126,1,55.9999982910157,2|2,0:0|0:0,0:0:0:0:
37,196,217505,2,0,L|92:201,1,55.9999982910157,2|2,0:0|0:0,0:0:0:0:
162,241,218005,1,2,0:0:0:0:
301,335,218505,6,0,L|356:329,1,55.9999982910157,2|2,0:3|0:0,0:0:0:0:
414,384,219005,2,0,L|436:332,1,55.9999982910157,2|2,0:0|0:0,0:0:0:0:
512,310,219505,2,0,L|478:264,1,55.9999982910157,2|2,0:0|0:0,0:0:0:0:
496,188,220005,2,0,L|440:193,1,55.9999982910157,2|2,0:0|0:0,0:0:0:0:
314,170,220505,2,0,L|308:114,1,55.9999982910157,2|2,0:3|0:0,0:0:0:0:
270,44,221005,2,0,L|325:38,1,55.9999982910157,2|2,0:0|0:0,0:0:0:0:
396,0,221505,1,2,0:0:0:0:
382,135,221838,1,2,0:0:0:0:
308,114,222005,1,2,0:0:0:0:
262,125,222171,1,0,0:0:0:0:
253,145,222338,1,0,0:0:0:0:
253,159,222505,6,0,P|223:158|193:164,3,56,2|2|2|2,0:3|0:0|0:0|0:0,0:0:0:0:
55,237,224505,2,0,P|56:207|50:177,2,56,2|2|2,0:3|0:0|0:0,0:0:0:0:
36,364,225838,1,2,0:0:0:0:
36,364,226005,2,0,L|14:365,2,18.6666666666667,2|2|0,0:0|0:0|0:0,0:0:0:0:
149,317,226505,6,0,P|179:318|209:312,3,56,2|2|2|2,0:3|0:0|0:0|0:0,0:0:0:0:
362,374,228505,2,0,P|332:375|302:369,3,56,2|2|2|2,0:3|0:0|0:0|0:0,0:0:0:0:
459,260,230338,1,2,0:0:0:0:
459,260,230505,6,0,P|460:284|457:304,3,41.9999987182618,2|2|2|2,0:3|0:0|0:0|0:0,0:0:0:0:
387,186,232505,2,0,P|385:210|389:230,2,41.9999987182618,2|2|2,0:3|0:0|0:0,0:0:0:0:
437,131,233838,1,2,0:0:0:0:
437,131,234005,2,0,L|455:132,2,13.9999995727539,2|2|2,0:0|0:0|0:0,0:0:0:0:
387,70,234505,6,0,L|357:68,3,28,2|2|2|2,0:3|0:0|0:0|0:0,0:0:0:0:
288,47,236505,2,0,L|286:77,2,28,2|2|2,0:3|0:0|0:0,0:0:0:0:
288,47,238005,5,8,1:0:0:0:
