osu file format v14

[General]
AudioFilename: audio.mp3
AudioLeadIn: 0
PreviewTime: 445
Countdown: 0
SampleSet: Soft
StackLeniency: 0.7
Mode: 0
LetterboxInBreaks: 0
WidescreenStoryboard: 1

[Editor]
Bookmarks: 16505,32505,40505,48505,56505,72505,88505,104505,112505,120505,128505,142505,158505,174505,190505,206505,222505,238005
DistanceSpacing: 1.4
BeatDivisor: 6
GridSize: 4
TimelineZoom: 2.1

[Metadata]
Title:Unidentified Flavourful Object
TitleUnicode:Unidentified Flavourful Object
Artist:Mili
ArtistUnicode:Mili
Creator:eIis
Version:Akayume's Hard
Source:Deemo
Tags:aka akayume ufo english sueishnao yamato kasai hamo momocashew cassie wei miracle milk video game nirosue flavor
BeatmapID:2930253
BeatmapSetID:1259728

[Difficulty]
HPDrainRate:5
CircleSize:4
OverallDifficulty:6.5
ApproachRate:8
SliderMultiplier:1.9
SliderTickRate:1

[Events]
//Background and Video events
0,0,"ufo4.jpg",0,0
//Break Periods
2,56705,71255
//Storyboard Layer 0 (Background)
//Storyboard Layer 1 (Fail)
//Storyboard Layer 2 (Pass)
//Storyboard Layer 3 (Foreground)
//Storyboard Layer 4 (Overlay)
//Storyboard Sound Samples

[TimingPoints]
505,500,4,2,2,20,1,0
505,-133.333333333333,4,2,2,20,0,0
8005,-133.333333333333,4,2,2,20,0,0
8505,-133.333333333333,4,2,2,20,0,0
16505,-100,4,2,2,20,0,0
32505,-100,4,2,2,30,0,0
40505,-90.9090909090909,4,2,2,40,0,0
46505,-90.9090909090909,4,2,2,30,0,0
48505,-133.333333333333,4,2,2,30,0,0
72338,-133.333333333333,4,2,2,5,0,0
72421,-133.333333333333,4,2,2,5,0,0
72505,-100,4,2,2,30,0,0
73088,-100,4,2,2,5,0,0
73838,-100,4,2,2,30,0,0
73921,-100,4,2,2,5,0,0
74005,-100,4,2,2,30,0,0
74088,-100,4,2,2,5,0,0
74338,-100,4,2,2,30,0,0
76088,-100,4,2,2,5,0,0
76505,-100,4,2,2,30,0,0
77088,-100,4,2,2,5,0,0
77338,-100,4,2,2,5,0,0
77505,-100,4,2,2,30,0,0
77755,-100,4,2,2,5,0,0
77838,-100,4,2,2,30,0,0
77921,-100,4,2,2,5,0,0
78005,-100,4,2,2,30,0,0
78088,-100,4,2,2,5,0,0
78338,-100,4,2,2,5,0,0
78505,-100,4,2,2,30,0,0
80088,-100,4,2,2,5,0,0
80505,-133.333333333333,4,2,2,30,0,0
80755,-133.333333333333,4,2,2,25,0,0
81005,-133.333333333333,4,2,2,20,0,0
81255,-133.333333333333,4,2,2,15,0,0
81505,-133.333333333333,4,2,2,10,0,0
82005,-133.333333333333,4,2,2,30,0,0
84505,-100,4,2,2,30,0,0
85088,-100,4,2,2,5,0,0
85338,-100,4,2,2,5,0,0
85505,-100,4,2,2,30,0,0
85755,-100,4,2,2,5,0,0
85838,-100,4,2,2,30,0,0
85921,-100,4,2,2,5,0,0
86005,-100,4,2,2,30,0,0
86088,-100,4,2,2,5,0,0
86505,-133.333333333333,4,2,2,30,0,0
88338,-133.333333333333,4,2,2,20,0,0
88505,-100,4,2,2,20,0,0
90505,-100,4,2,2,30,0,0
92505,-133.333333333333,4,2,2,20,0,0
96338,-133.333333333333,4,2,2,35,0,0
96505,-100,4,2,2,35,0,0
104505,-90.9090909090909,4,2,1,50,0,0
107588,-90.9090909090909,4,2,1,40,0,0
108005,-90.9090909090909,4,2,1,50,0,0
111505,-90.9090909090909,4,2,1,30,0,0
112505,-133.333333333333,4,2,1,30,0,0
115505,-133.333333333333,4,2,2,30,0,0
116505,-133.333333333333,4,2,2,30,0,0
118505,-133.333333333333,4,2,2,30,0,0
120505,-133.333333333333,4,2,2,20,0,0
126504,-133.333333333333,4,2,2,30,0,0
128504,-90.9090909090909,4,2,0,30,0,0
135088,-90.9090909090909,4,2,0,5,0,0
135338,-90.9090909090909,4,2,0,30,0,0
136505,-100,4,2,2,30,0,0
142505,-90.9090909090909,4,2,2,30,0,0
146505,-133.333333333333,4,2,2,20,0,0
150505,-90.9090909090909,4,2,2,30,0,0
154505,-133.333333333333,4,2,2,20,0,0
158005,-133.333333333333,4,2,2,30,0,0
158171,-133.333333333333,4,2,2,40,0,0
158338,-133.333333333333,4,2,2,50,0,0
158505,-90.9090909090909,4,2,2,50,0,0
165505,-90.9090909090909,4,2,2,45,0,0
166505,-90.9090909090909,4,2,2,50,0,0
172338,-90.9090909090909,4,2,2,40,0,0
172505,-100,4,2,2,40,0,0
174505,-100,4,2,2,30,0,0
174838,-100,4,2,2,20,0,0
180005,-100,4,2,2,25,0,0
180588,-100,4,2,2,5,0,0
181005,-100,4,2,2,25,0,0
181088,-100,4,2,2,5,0,0
181505,-100,4,2,2,25,0,0
181588,-100,4,2,2,5,0,0
182005,-100,4,2,2,25,0,0
182088,-100,4,2,2,5,0,0
182171,-100,4,2,2,25,0,0
188505,-90.9090909090909,4,2,2,35,0,0
190505,-83.3333333333333,4,2,1,40,0,0
198505,-100,4,2,1,30,0,0
206338,-100,4,2,1,5,0,0
206505,-133.333333333333,4,2,2,14,0,0
222505,-200,4,2,2,14,0,0
226505,-200,4,2,2,12,0,0
230505,-200,4,2,2,9,0,0
234505,-200,4,2,2,7,0,0

[Colours]
Combo1 : 255,79,83
Combo2 : 255,255,128
Combo3 : 199,245,197
Combo4 : 255,255,191

[HitObjects]
365,62,505,6,0,L|356:2,2,47.5000018119813,2|2|2,0:0|0:0|0:0,0:0:0:0:
306,124,1005,1,2,0:3:0:0:
468,190,1338,1,2,0:0:0:0:
468,190,1505,2,0,L|524:212,2,47.5000018119813,2|2|2,0:0|0:0|0:0,0:0:0:0:
443,107,2005,1,2,0:3:0:0:
305,215,2338,1,2,0:0:0:0:
305,215,2505,2,0,L|257:252,2,47.5000018119813,2|2|2,0:0|0:0|0:0,0:0:0:0:
390,235,3005,1,2,0:3:0:0:
365,62,3338,1,2,0:0:0:0:
365,62,3505,2,0,L|356:2,2,47.5000018119813,2|2|2,0:0|0:0|0:0,0:0:0:0:
306,124,4005,1,2,0:3:0:0:
148,326,4505,6,0,L|157:386,2,47.5000018119813,2|2|2,0:0|0:0|0:0,0:0:0:0:
207,264,5005,1,2,0:3:0:0:
45,198,5338,1,2,0:0:0:0:
45,198,5505,2,0,L|-11:176,2,47.5000018119813,2|2|2,0:0|0:0|0:0,0:0:0:0:
70,281,6005,1,2,0:3:0:0:
208,173,6338,1,2,0:0:0:0:
208,173,6505,2,0,L|256:136,2,47.5000018119813,2|2|2,0:0|0:0|0:0,0:0:0:0:
123,153,7005,1,2,0:3:0:0:
155,372,7338,1,2,0:0:0:0:
155,372,7505,2,0,L|148:326,2,47.5000018119813,2|2|2,0:0|0:0|0:0,0:0:0:0:
207,264,8005,1,2,0:3:0:0:
423,266,8505,6,0,L|364:262,2,47.5000018119813,2|2|2,0:0|0:0|0:0,0:0:0:0:
490,318,9005,1,2,0:3:0:0:
386,181,9338,1,2,0:0:0:0:
386,181,9505,2,0,L|418:131,2,47.5000018119813,2|2|2,0:0|0:0|0:0,0:0:0:0:
308,213,10005,1,2,0:3:0:0:
478,191,10338,1,2,0:0:0:0:
478,191,10505,2,0,L|504:244,2,47.5000018119813,2|2|2,0:0|0:0|0:0,0:0:0:0:
489,107,11005,1,2,0:3:0:0:
423,266,11338,1,2,0:0:0:0:
423,266,11505,2,0,L|364:262,2,47.5000018119813,2|2|2,0:0|0:0|0:0,0:0:0:0:
490,318,12005,1,2,0:3:0:0:
285,163,12505,6,0,L|226:167,2,47.5000018119813,2|2|2,0:0|0:0|0:0,0:0:0:0:
352,111,13005,1,2,0:3:0:0:
248,248,13338,1,2,0:0:0:0:
248,248,13505,2,0,L|280:298,2,47.5000018119813,2|2|2,0:0|0:0|0:0,0:0:0:0:
170,216,14005,1,2,0:3:0:0:
340,238,14338,1,2,0:0:0:0:
340,238,14505,2,0,L|406:101,1,142.500005435944,2|2,0:0|0:3,0:0:0:0:
255,32,15338,1,0,0:0:0:0:
255,32,15505,2,0,B|327:58|326:-21|398:19,1,142.500005435944,2|2,0:0|0:0,0:0:0:0:
264,116,16338,1,2,0:0:0:0:
264,116,16505,6,0,B|207:133|194:76|134:111,1,126.666666666667,8|2,0:1|0:0,0:0:0:0:
65,152,17005,2,0,P|53:183|59:232,1,63.3333333333333,2|0,0:0|0:0,0:0:0:0:
127,267,17338,1,2,0:0:0:0:
127,267,17505,2,0,P|66:248|24:315,1,126.666666666667,2|2,0:0|0:0,0:0:0:0:
43,374,18005,1,2,0:3:0:0:
206,300,18338,1,2,0:0:0:0:
206,300,18505,6,0,B|270:286|272:341|329:332,1,126.666666666667,2|0,0:3|0:0,0:0:0:0:
389,272,19005,2,0,B|344:223|391:194|355:149,1,126.666666666667,2|2,0:0|0:0,0:0:0:0:
274,128,19505,2,0,B|254:190|205:164|184:218,1,126.666666666667,2|2,0:0|0:0,0:0:0:0:
292,234,20005,1,2,0:0:0:0:
340,66,20338,1,2,0:0:0:0:
340,66,20505,6,0,B|302:54|281:37|281:37|260:53|202:65,1,126.666666666667,2|0,0:3|0:0,0:0:0:0:
157,2,21005,2,0,P|135:39|138:79,1,63.3333333333333,2|0,0:0|0:0,0:0:0:0:
57,104,21338,1,2,0:0:0:0:
57,104,21505,2,0,P|106:93|143:166,1,126.666666666667,2|2,0:0|0:0,0:0:0:0:
93,219,22005,1,2,0:3:0:0:
258,151,22338,1,2,0:0:0:0:
258,151,22505,6,0,B|228:177|228:177|239:223|225:268,1,126.666666666667,2|0,0:3|0:0,0:0:0:0:
275,337,23005,2,0,B|312:349|312:349|346:317|392:307,1,126.666666666667,2|0,0:0|0:0,0:0:0:0:
428,229,23505,2,0,B|420:190|420:190|375:176|343:141,1,126.666666666667,2|0,0:3|0:0,0:0:0:0:
322,238,24005,1,2,0:0:0:0:
158,300,24338,1,0,0:0:0:0:
158,300,24505,6,0,B|159:246|159:246|163:239|163:239|164:164,1,126.666666666667,8|2,1:0|0:0,0:0:0:0:
242,132,25005,2,0,P|216:99|184:87,1,63.3333333333333,2|0,0:0|0:0,0:0:0:0:
108,98,25338,1,2,0:0:0:0:
108,98,25505,2,0,B|82:120|82:120|58:172|84:217,1,126.666666666667,2|2,0:0|0:0,0:0:0:0:
45,291,26005,1,2,0:3:0:0:
213,345,26338,1,2,0:0:0:0:
213,345,26505,6,0,B|248:354|264:368|264:368|303:337|302:281,1,126.666666666667,2|2,0:3|0:0,0:0:0:0:
330,225,27005,2,0,B|320:189|324:169|324:169|278:151|230:179,1,126.666666666667,2|2,0:0|0:0,0:0:0:0:
168,184,27505,2,0,B|142:210|122:216|122:216|129:265|178:293,1,126.666666666667,2|2,0:0|0:0,0:0:0:0:
240,253,28005,1,2,0:0:0:0:
405,184,28338,1,0,0:0:0:0:
405,184,28505,6,0,B|435:136|417:93|417:93|374:67,1,126.666666666667,2|0,0:3|0:0,0:0:0:0:
303,93,29005,1,2,0:0:0:0:
153,7,29338,1,2,0:0:0:0:
153,7,29505,2,0,B|96:5|68:42|68:42|67:92,1,126.666666666667,2|0,0:0|0:0,0:0:0:0:
126,141,30005,1,2,0:0:0:0:
126,314,30338,1,0,0:0:0:0:
126,314,30505,2,0,B|152:363|198:369|198:369|242:345,1,126.666666666667,2|0,0:0|0:0,0:0:0:0:
255,271,31005,2,0,B|281:222|327:216|327:216|371:240,1,126.666666666667,2|0,0:0|0:0,0:0:0:0:
403,306,31505,1,2,0:0:0:0:
471,142,31838,1,2,0:0:0:0:
471,142,32005,2,0,B|472:173|472:173|470:178|470:178|471:209,2,63.3333333333333,2|2|2,0:0|0:0|0:0,0:0:0:0:
428,64,32505,6,0,B|345:13|300:70|301:50|293:59|310:59|241:96|227:94|235:84|233:106|204:63|204:63|241:77|283:65|264:65|272:57|272:77|310:113|255:168|254:146|243:156|264:155|219:211|277:262,1,506.666666666667,2|2,0:3|0:0,0:0:0:0:
346,289,34005,2,0,P|296:338|222:325,1,126.666666666667,2|2,0:0|0:0,0:0:0:0:
179,274,34505,2,0,B|93:255|39:304|39:304|59:327|64:357|64:357|73:328|100:306|100:306|30:234|50:176|50:176|73:132|54:85,1,506.666666666667,2|2,0:3|0:0,0:0:0:0:
16,11,36005,2,0,P|54:0|86:12,1,63.3333333333333,2|2,0:0|0:0,0:0:0:0:
144,63,36338,1,2,0:0:0:0:
210,4,36505,6,0,P|183:29|169:63,2,63.3333333333333,2|2|2,0:3|0:0|0:0,0:0:0:0:
258,78,37005,2,0,P|285:103|299:137,2,63.3333333333333,2|2|2,0:3|0:0|0:0,0:0:0:0:
211,154,37505,1,2,0:3:0:0:
71,262,37838,1,2,0:0:0:0:
71,262,38005,1,2,0:3:0:0:
78,173,38171,1,2,0:0:0:0:
155,215,38338,1,2,0:0:0:0:
151,303,38505,6,0,B|208:305|208:305|213:299|213:299|290:303,1,126.666666666667,2|2,2:3|2:0,0:0:0:0:
362,290,39005,2,0,B|335:239|335:239|327:238|327:238|292:169,1,126.666666666667,2|2,2:3|2:0,0:0:0:0:
246,114,39505,2,0,B|215:162|215:162|218:169|218:169|176:234,1,126.666666666667,2|2,2:3|2:0,0:0:0:0:
311,179,40005,1,6,2:0:0:0:
466,21,40505,6,0,B|496:38|496:38|511:87,2,69.6666687927247,8|2|2,1:0|0:0|0:0,0:0:0:0:
420,99,41005,2,0,B|386:113|352:103|352:89|344:96|357:96|319:67|265:99,1,139.333337585449,2|2,0:3|2:0,0:0:0:0:
214,33,41505,2,0,P|195:76|198:109,1,69.6666687927247,2|0,0:3|0:0,0:0:0:0:
248,171,41838,1,2,2:0:0:0:
158,183,42005,2,0,P|170:226|198:249,1,69.6666687927247,2|0,0:3|0:0,0:0:0:0:
275,265,42338,1,2,0:0:0:0:
379,154,42505,6,0,B|347:169|347:169|341:203,2,69.6666687927247,2|2|2,0:0|0:0|0:0,0:0:0:0:
422,234,43005,2,0,B|419:292|419:292|423:300|423:300|419:381,1,139.333337585449,2|2,0:0|0:0,0:0:0:0:
329,377,43505,2,0,P|282:370|260:349,1,69.6666687927247,2|0,0:0|0:0,0:0:0:0:
224,275,43838,1,2,0:0:0:0:
170,348,44005,1,2,0:0:0:0:
48,153,44505,6,0,B|14:164|14:164|2:211,2,69.6666687927247,8|2|2,1:0|0:0|0:0,0:0:0:0:
90,233,45005,2,0,B|142:266|167:150|230:200,1,139.333337585449,2|2,0:3|0:0,0:0:0:0:
243,104,45505,2,0,P|276:125|288:168,1,69.6666687927247,2|0,0:3|0:0,0:0:0:0:
281,242,45838,1,2,0:0:0:0:
364,277,46005,2,0,L|458:265,1,69.6666687927247,2|0,0:3|0:0,0:0:0:0:
453,179,46338,1,2,0:0:0:0:
332,98,46505,6,0,P|307:121|298:155,2,69.6666687927247,2|0|0,0:0|0:0|0:0,0:0:0:0:
422,82,47005,2,0,P|414:48|389:25,2,69.6666687927247,2|0|0,0:0|0:0|0:0,0:0:0:0:
389,169,47505,2,0,P|422:178|455:168,2,69.6666687927247,2|0|0,0:0|0:0|0:0,0:0:0:0:
321,92,48005,1,2,0:0:0:0:
316,84,48505,6,0,P|281:133|285:221,1,142.500005435944,2|0,0:0|0:0,0:0:0:0:
375,300,49338,1,0,0:0:0:0:
375,300,49505,2,2,B|310:295|310:295|303:298|303:298|231:294,1,142.500005435944,2|0,0:0|0:0,0:0:0:0:
115,332,50338,1,0,0:0:0:0:
115,332,50505,6,0,P|103:355|95:384,2,47.5000018119813,2|0|0,0:0|0:0|0:0,0:0:0:0:
93,246,51005,1,2,0:0:0:0:
9,80,51505,2,0,P|5:54|-6:27,2,47.5000018119813,2|0|0,0:0|0:0|0:0,0:0:0:0:
76,137,52005,1,2,0:0:0:0:
83,146,52505,6,0,B|123:153|146:131|146:131|198:119|218:168,1,142.500005435944,2|0,0:0|0:0,0:0:0:0:
300,249,53338,1,0,0:0:0:0:
300,249,53505,2,0,B|295:179|295:179|299:170|299:170|295:101,1,142.500005435944,2|0,0:0|0:0,0:0:0:0:
211,24,54338,1,2,0:0:0:0:
211,24,54505,2,0,P|245:61|333:26,2,142.500005435944,2|2|2,0:0|0:0|0:0,0:0:0:0:
33,75,56005,6,0,B|57:50|108:63|116:131|68:162,1,142.500005435944,2|2,0:0|1:0,0:0:0:0:
61,137,72005,6,0,P|100:169|91:230,1,95.0000036239625,2|0,0:0|0:0,0:0:0:0:
28,270,72505,6,0,P|69:238|153:265,1,126.666666666667,2|0,0:0|0:0,0:0:0:0:
213,191,73005,2,0,P|206:212|210:234,1,31.6666666666667,2|0,0:0|0:0,0:0:0:0:
226,183,73838,1,2,0:0:0:0:
226,183,74005,2,0,P|221:161|207:144,1,31.6666666666667,2|0,0:0|0:0,0:0:0:0:
308,45,74338,1,2,0:0:0:0:
308,45,74505,6,0,B|308:99|308:99|311:106|311:106|311:181,1,126.666666666667,2|0,0:0|0:0,0:0:0:0:
315,266,75005,2,0,B|361:239|361:239|366:232|366:232|431:195,1,126.666666666667,2|0,0:0|0:0,0:0:0:0:
503,150,75505,2,0,B|456:123|456:123|448:122|448:122|383:84,1,126.666666666667,2|0,0:0|0:0,0:0:0:0:
431,205,76005,2,0,P|438:226|434:248,1,31.6666666666667,2|0,0:0|0:0,0:0:0:0:
512,384,76505,6,0,P|479:354|381:348,1,126.666666666667,2|0,0:0|0:0,0:0:0:0:
306,326,77005,2,0,P|315:299|325:286,1,31.6666666666667,2|0,0:0|0:0,0:0:0:0:
214,204,77338,1,2,0:0:0:0:
214,204,77505,2,0,L|216:349,1,126.666666666667,2|2,0:0|0:0,0:0:0:0:
128,367,78005,2,0,P|119:340|109:327,1,31.6666666666667,2|0,0:0|0:0,0:0:0:0:
30,224,78338,1,2,0:0:0:0:
30,224,78505,6,0,P|47:188|131:169,1,126.666666666667,2|0,0:0|0:0,0:0:0:0:
113,72,79005,2,0,P|152:68|211:131,1,126.666666666667,2|0,0:0|0:0,0:0:0:0:
286,67,79505,2,0,P|308:99|283:181,1,126.666666666667,2|0,0:0|0:0,0:0:0:0:
204,222,80005,2,0,L|206:268,1,31.6666666666667,2|0,0:0|0:0,0:0:0:0:
421,336,80505,6,0,B|444:284|414:232|414:232|388:172|433:119|442:73|442:73|464:110|531:141|526:210,1,427.500016307831,2|2,0:0|0:0,0:0:0:0:
361,22,82338,1,0,0:0:0:0:
361,22,82505,6,0,L|208:19,1,142.500005435944,2|2,0:0|0:0,0:0:0:0:
114,206,83505,2,0,L|267:203,1,142.500005435944,2|2,0:0|0:0,0:0:0:0:
33,381,84505,6,0,P|1:337|11:241,1,126.666666666667,2|0,0:0|0:0,0:0:0:0:
30,176,85005,2,0,P|7:186|-10:187,1,31.6666666666667,2|0,0:0|0:0,0:0:0:0:
105,90,85338,1,2,0:0:0:0:
105,90,85505,2,0,P|137:134|127:230,1,126.666666666667,2|2,0:0|0:0,0:0:0:0:
108,295,86005,2,0,P|131:285|148:284,1,31.6666666666667,2|0,0:0|0:0,0:0:0:0:
309,51,86505,6,0,P|233:109|361:173,1,285.000010871888,2|0,0:0|0:0,0:0:0:0:
487,237,87838,1,2,0:0:0:0:
487,237,88005,1,2,0:0:0:0:
404,352,88338,1,2,0:0:0:0:
404,352,88505,6,0,B|341:350|341:350|339:354|339:354|259:352,1,126.666666666667,2|0,0:3|0:0,0:0:0:0:
211,295,89005,1,2,0:0:0:0:
39,379,89338,1,2,0:0:0:0:
39,379,89505,2,0,P|81:340|8:258,1,190,2|2,0:0|0:0,0:0:0:0:
57,73,90338,1,2,0:0:0:0:
57,73,90505,6,0,P|98:93|182:90,1,126.666666666667,2|0,0:3|0:0,0:0:0:0:
230,19,91005,2,0,P|266:57|247:144,1,126.666666666667,2|0,0:0|0:0,0:0:0:0:
202,194,91505,2,0,P|240:158|288:198,1,126.666666666667,2|0,0:0|0:0,0:0:0:0:
318,282,92005,1,2,0:0:0:0:
474,174,92338,1,2,0:0:0:0:
474,174,92505,6,0,L|473:72,1,95.0000036239625,2|0,0:0|0:0,0:0:0:0:
512,17,93005,1,2,0:0:0:0:
343,36,93338,1,2,0:0:0:0:
343,36,93505,2,0,B|321:57|321:57|310:170,2,142.500005435944,2|2|2,0:0|0:0|0:0,0:0:0:0:
384,206,94838,5,2,0:0:0:0:
384,206,95005,1,2,0:0:0:0:
312,305,95338,1,2,0:0:0:0:
312,305,95505,1,2,0:0:0:0:
240,206,95838,1,2,0:0:0:0:
240,206,96005,1,2,0:0:0:0:
168,305,96338,1,2,0:0:0:0:
168,305,96505,6,0,P|215:315|246:340,2,63.3333333333333,2|2|2,0:0|0:0|0:0,0:0:0:0:
93,353,97005,2,0,B|85:323|58:301|58:301|85:279|92:249,1,126.666666666667,2|2,0:3|0:0,0:0:0:0:
97,160,97505,2,0,P|50:170|19:195,2,63.3333333333333,2|2|2,0:0|0:0|0:0,0:0:0:0:
168,212,98005,2,0,B|175:182|202:160|202:160|175:138|168:108,1,126.666666666667,2|2,0:3|0:0,0:0:0:0:
172,104,98421,1,0,0:0:0:0:
176,100,98505,6,0,P|225:92|264:98,1,63.3333333333333,2|2,0:0|0:0,0:0:0:0:
307,148,98838,1,2,0:0:0:0:
367,82,99005,2,0,B|402:71|428:79|428:79|437:110|418:157,1,126.666666666667,2|2,0:3|0:0,0:0:0:0:
449,224,99505,2,0,P|484:212|513:209,2,63.3333333333333,2|2|2,0:0|0:0|0:0,0:0:0:0:
427,310,100005,2,0,P|353:295|299:271,1,126.666666666667,2|0,0:3|0:0,0:0:0:0:
256,201,100505,6,0,P|229:231|221:264,1,63.3333333333333,2|0,0:3|0:0,0:0:0:0:
192,338,100838,1,2,0:0:0:0:
192,338,101005,2,0,P|156:319|137:290,1,63.3333333333333,2|0,0:3|0:0,0:0:0:0:
141,215,101338,1,2,0:0:0:0:
52,215,101505,2,0,P|34:250|35:284,2,63.3333333333333,2|0|2,0:3|0:0|0:0,0:0:0:0:
15,134,102005,1,2,0:3:0:0:
149,19,102338,1,0,0:0:0:0:
149,19,102505,6,0,P|114:26|86:37,2,63.3333333333333,2|2|2,0:0|0:0|0:0,0:0:0:0:
151,107,103005,2,0,P|139:140|135:170,2,63.3333333333333,2|0|0,0:3|0:0|0:0,0:0:0:0:
228,149,103505,2,0,P|251:175|275:194,2,63.3333333333333,2|2|2,0:0|0:0|0:0,0:0:0:0:
307,110,104005,5,2,0:0:0:0:
391,135,104171,5,2,0:0:0:0:
415,220,104338,5,2,0:0:0:0:
334,303,104505,6,0,L|163:299,1,139.333337585449,4|0,1:0|0:0,1:0:0:0:
138,228,105005,2,0,P|110:259|105:292,1,69.6666687927247,2|2,0:0|0:0,0:0:0:0:
45,354,105338,1,2,0:0:0:0:
2,273,105505,2,0,B|4:202|4:202|7:197|7:197|10:121,1,139.333337585449,2|0,0:0|0:0,0:0:0:0:
46,51,106005,2,0,P|84:79|95:122,1,69.6666687927247,0|0,1:0|0:0,0:0:0:0:
180,120,106338,1,2,0:0:0:0:
310,45,106505,6,0,B|256:73|268:137|268:137|298:182|267:239,1,209.000006378174,4|2,1:0|0:0,1:0:0:0:
184,204,107171,5,2,0:0:0:0:
103,244,107338,5,2,0:0:0:0:
107,334,107505,6,0,L|256:327,1,139.333337585449,2|2,0:0|0:0,0:0:0:0:
383,359,108005,2,0,P|363:340|377:286,1,69.6666687927247,2|0,1:3|0:0,0:0:0:0:
431,239,108338,1,0,0:0:0:0:
377,165,108505,6,0,B|350:138|350:138|230:150,1,139.333337585449,4|0,1:0|0:0,0:0:0:0:
183,210,109005,1,2,0:0:0:0:
259,18,109338,1,2,0:0:0:0:
259,18,109505,2,0,P|317:21|412:22,1,139.333337585449,2|2,0:0|0:0,0:0:0:0:
470,77,110005,2,0,P|433:90|394:110,1,69.6666687927247,2|0,0:0|0:0,0:0:0:0:
367,185,110338,1,0,1:0:0:0:
423,304,110505,6,0,P|416:342|414:386,1,69.6666687927247,4|0,1:0|0:0,0:0:0:0:
327,345,110838,2,0,P|324:310|318:276,1,69.6666687927247,2|0,0:0|0:0,0:0:0:0:
238,232,111171,1,2,0:0:0:0:
195,312,111338,1,2,0:0:0:0:
117,264,111505,2,0,L|116:111,1,139.333337585449,2|0,0:0|0:0,0:0:0:0:
208,11,112005,2,0,L|208:98,1,69.6666687927247,0|0,1:0|0:0,0:0:0:0:
270,160,112338,1,2,0:0:0:0:
270,160,112421,1,2,0:0:0:0:
270,160,112505,6,0,B|287:173|305:175|305:175|338:164|375:159|375:159|397:165|409:179,1,142.500005435944,2|0,0:0|0:0,0:0:0:0:
479,4,113505,2,0,P|446:36|474:134,1,142.500005435944,2|0,0:0|0:0,0:0:0:0:
344,268,114505,2,0,P|393:246|448:245,2,95.0000036239625,2|0|0,0:0|0:0|0:0,0:0:0:0:
286,377,115505,2,0,P|214:370|149:338,1,142.500005435944,2|0,0:0|0:0,0:0:0:0:
60,264,116338,1,2,0:0:0:0:
60,264,116505,6,0,B|92:215|68:164|68:164|51:158|51:158|11:112|51:38,1,237.500009059906,2|0,0:0|0:0,0:0:0:0:
122,91,117505,2,0,B|161:112|195:87|195:87|226:69|279:89,1,142.500005435944,2|0,0:0|0:0,0:0:0:0:
425,26,118505,6,0,L|478:29,2,47.5000018119813,2|0|0,0:0|0:0|0:0,0:0:0:0:
377,102,119005,2,0,L|324:105,2,47.5000018119813,2|0|0,0:0|0:0|0:0,0:0:0:0:
425,178,119505,2,0,L|478:181,2,47.5000018119813,2|0|0,0:0|0:0|0:0,0:0:0:0:
377,254,120005,2,0,L|324:257,1,47.5000018119813,2|0,0:0|0:0,0:0:0:0:
246,269,120338,1,2,0:0:0:0:
246,269,120421,1,2,0:0:0:0:
246,269,120505,5,2,0:0:0:0:
150,347,120838,1,2,0:0:0:0:
150,347,121005,2,0,P|115:366|90:368,2,47.5000018119813,2|0|0,0:0|0:0|0:0,0:0:0:0:
92,283,121505,2,0,P|53:271|34:255,2,47.5000018119813,2|0|0,0:0|0:0|0:0,0:0:0:0:
96,196,122005,1,2,0:0:0:0:
33,47,122338,1,2,0:0:0:0:
33,47,122421,1,2,0:0:0:0:
33,47,122505,5,2,0:0:0:0:
149,0,122838,1,2,0:0:0:0:
149,0,123005,2,0,P|188:1|211:11,2,47.5000018119813,2|0|0,0:0|0:0|0:0,0:0:0:0:
167,84,123505,2,0,P|194:113|203:137,2,47.5000018119813,2|0|0,0:0|0:0|0:0,0:0:0:0:
120,157,124005,1,2,0:0:0:0:
286,227,124338,1,2,0:0:0:0:
286,227,124421,1,2,0:0:0:0:
286,227,124505,5,2,0:0:0:0:
354,340,124838,1,2,0:0:0:0:
354,340,125005,2,0,P|389:359|414:361,2,47.5000018119813,2|0|0,0:0|0:0|0:0,0:0:0:0:
411,276,125505,2,0,P|450:264|469:248,2,47.5000018119813,2|0|0,0:0|0:0|0:0,0:0:0:0:
407,189,126005,1,2,0:0:0:0:
278,92,126338,1,2,0:0:0:0:
278,92,126421,1,2,0:0:0:0:
278,92,126504,6,0,L|299:40,2,47.5000018119813,2|2|2,0:0|0:0|0:0,0:0:0:0:
281,177,127004,2,0,L|332:155,2,47.5000018119813,2|2|2,0:0|0:0|0:0,0:0:0:0:
223,239,127504,2,0,L|275:259,2,47.5000018119813,2|2|2,0:0|0:0|0:0,0:0:0:0:
185,156,128004,5,2,0:3:0:0:
82,179,128171,5,2,0:0:0:0:
70,292,128338,5,2,0:0:0:0:
153,371,128504,6,0,L|146:198,1,139.333337585449,4|2,1:0|0:0,0:0:0:0:
143,141,129004,2,0,P|110:136|67:153,2,69.6666687927247,0|0|0,1:0|0:0|0:0,0:0:0:0:
218,90,129505,2,0,B|256:110|290:88|290:88|329:64|378:101,1,139.333337585449,0|0,1:0|0:0,0:0:0:0:
416,21,130005,2,0,P|434:50|442:90,1,69.6666687927247,2|0,0:0|0:0,0:0:0:0:
396,163,130338,1,0,1:0:0:0:
462,224,130505,2,0,P|481:192|488:155,2,69.6666687927247,4|0|0,1:0|0:0|0:0,0:0:0:0:
507,302,131005,2,0,B|474:324|474:324|357:307,1,139.333337585449,2|0,0:0|0:0,0:0:0:0:
259,234,131505,5,0,1:0:0:0:
181,275,131671,2,0,L|182:344,1,69.6666687927247,2|0,0:0|0:0,0:0:0:0:
98,366,132005,2,0,L|97:273,2,69.6666687927247,2|0|2,0:0|0:0|0:0,0:0:0:0:
16,326,132505,6,0,L|18:226,1,69.6666687927247,4|2,1:0|0:0,0:0:0:0:
54,173,132838,1,0,0:0:0:0:
134,214,133005,2,0,L|222:212,2,69.6666687927247,0|0|0,1:0|0:0|0:0,0:0:0:0:
51,166,133505,2,0,P|45:128|114:50,1,139.333337585449,0|0,1:0|0:0,0:0:0:0:
177,105,134005,2,0,L|335:103,1,139.333337585449,2|0,0:0|0:0,0:0:0:0:
402,74,134505,6,0,P|400:36|403:-3,2,69.6666687927247,4|0|0,1:0|0:0|0:0,0:0:0:0:
471,133,135005,1,2,0:1:0:0:
331,246,135338,1,2,0:0:0:0:
331,246,135505,2,0,P|329:284|332:323,2,69.6666687927247,0|0|0,1:0|0:0|0:0,0:0:0:0:
400,187,136005,1,2,0:0:0:0:
220,161,136338,1,2,0:0:0:0:
220,161,136505,6,0,P|179:180|181:271,1,126.666666666667,2|2,0:0|0:0,0:0:0:0:
218,328,137005,2,0,P|186:339|130:327,1,63.3333333333333,2|0,0:0|0:0,0:0:0:0:
85,285,137338,1,2,0:0:0:0:
3,320,137505,2,0,L|1:390,2,63.3333333333333,2|0|0,0:0|0:0|0:0,0:0:0:0:
88,278,138005,2,0,L|83:132,1,126.666666666667,2|0,0:0|0:0,0:0:0:0:
52,68,138505,6,0,P|15:93|7:122,2,63.3333333333333,2|0|0,0:0|0:0|0:0,0:0:0:0:
121,12,139005,2,0,P|201:21|253:72,1,126.666666666667,2|0,0:0|0:0,0:0:0:0:
276,127,139505,2,0,P|356:118|408:67,1,126.666666666667,2|0,0:0|0:0,0:0:0:0:
411,3,140005,1,2,0:0:0:0:
506,159,140338,1,0,0:0:0:0:
506,159,140505,6,0,P|461:151|425:155,2,63.3333333333333,2|0|0,0:0|0:0|0:0,0:0:0:0:
510,247,141005,1,2,0:0:0:0:
333,229,141338,1,0,0:0:0:0:
257,276,141505,2,0,P|248:319|261:364,2,63.3333333333333,2|0|0,0:0|0:0|0:0,0:0:0:0:
340,224,142005,2,0,P|349:181|336:136,1,63.3333333333333,2|2,0:0|0:0,0:0:0:0:
321,80,142338,1,2,0:0:0:0:
261,142,142505,6,0,B|227:154|227:154|193:149,2,69.6666687927247,2|2|2,0:3|0:0|0:0,0:0:0:0:
146,226,143005,2,0,B|118:202|118:202|105:170,2,69.6666687927247,2|2|2,0:3|0:0|0:0,0:0:0:0:
16,169,143505,2,0,B|22:133|22:133|43:106,2,69.6666687927247,2|2|2,0:3|0:0|0:0,0:0:0:0:
0,27,144005,2,0,B|34:14|34:14|68:18,1,69.6666687927247,2|2,0:3|0:0,0:0:0:0:
67,17,144255,1,2,0:0:0:0:
67,17,144338,1,2,0:0:0:0:
156,4,144505,6,0,L|151:73,2,69.6666687927247,2|2|2,0:3|0:0|0:0,0:0:0:0:
241,71,145005,2,0,L|245:140,2,69.6666687927247,2|2|2,0:3|0:0|0:0,0:0:0:0:
160,170,145505,2,0,L|155:239,2,69.6666687927247,2|2|2,0:3|0:0|0:0,0:0:0:0:
244,236,146005,2,0,L|248:305,1,69.6666687927247,2|2,0:3|0:0,0:0:0:0:
187,372,146338,1,2,0:0:0:0:
332,344,146505,5,2,0:3:0:0:
452,173,146838,1,2,0:0:0:0:
452,173,147005,2,0,P|478:193|486:220,2,47.5000018119813,2|2|2,0:3|0:0|0:0,0:0:0:0:
415,99,147505,2,0,P|445:86|472:93,2,47.5000018119813,2|2|2,0:3|0:0|0:0,0:0:0:0:
333,94,148005,2,2,P|337:61|356:41,1,47.5000018119813,2|2,0:3|0:0,0:0:0:0:
351,48,148255,1,2,0:0:0:0:
357,46,148338,1,2,0:0:0:0:
278,2,148505,5,2,0:3:0:0:
65,173,148838,1,2,0:0:0:0:
65,173,149005,2,0,P|32:169|12:150,2,47.5000018119813,2|2|2,0:3|0:0|0:0,0:0:0:0:
70,91,149505,2,0,P|57:61|64:34,2,47.5000018119813,2|2|2,0:3|0:0|0:0,0:0:0:0:
144,54,150005,2,0,P|164:28|191:20,1,47.5000018119813,2|2,0:3|0:0,0:0:0:0:
259,31,150338,1,2,0:0:0:0:
222,130,150505,6,0,B|230:164|230:164|230:169|230:169|241:213,2,69.6666687927247,2|2|2,0:3|0:0|0:0,0:0:0:0:
356,118,151005,2,0,B|337:147|337:147|334:151|334:151|310:190,2,69.6666687927247,2|2|2,0:3|0:0|0:0,0:0:0:0:
459,204,151505,2,0,B|425:212|425:212|420:212|420:212|376:223,2,69.6666687927247,2|2|2,0:3|0:0|0:0,0:0:0:0:
471,337,152005,2,0,B|441:318|441:318|437:315|437:315|398:291,1,69.6666687927247,2|2,0:3|0:0,0:0:0:0:
406,301,152255,1,2,0:0:0:0:
400,303,152338,1,2,0:0:0:0:
256,384,152505,6,0,P|287:359|311:323,2,69.6666687927247,2|2|2,0:3|0:0|0:0,0:0:0:0:
153,302,153005,2,0,P|192:306|235:297,2,69.6666687927247,2|2|2,0:3|0:0|0:0,0:0:0:0:
138,171,153505,2,0,P|163:202|199:225,2,69.6666687927247,2|2|2,2:3|2:0|2:0,2:0:0:0:
220,67,154005,2,0,P|215:106|224:148,1,69.6666687927247,2|2,0:3|0:0,0:0:0:0:
297,181,154338,1,2,0:0:0:0:
353,45,154505,5,2,0:3:0:0:
465,253,154838,1,2,0:0:0:0:
465,253,155005,2,0,L|512:274,2,47.5000018119813,2|2|2,0:3|0:0|0:0,0:0:0:0:
408,188,155505,2,0,L|456:169,2,47.5000018119813,2|2|2,0:3|0:0|0:0,0:0:0:0:
321,182,156005,2,0,L|342:135,1,47.5000018119813,2|2,0:3|0:0,0:0:0:0:
343,133,156255,1,2,0:0:0:0:
347,128,156338,1,2,0:0:0:0:
270,74,156505,5,2,0:3:0:0:
222,275,156838,1,2,0:0:0:0:
222,275,157005,2,0,P|262:268|281:258,2,47.5000018119813,2|2|2,0:3|0:0|0:0,0:0:0:0:
169,206,157505,2,0,P|139:251|139:308,1,95.0000036239625,2|2,0:3|0:0,0:0:0:0:
90,369,158005,5,2,0:3:0:0:
29,302,158171,1,2,0:3:0:0:
71,222,158338,1,2,0:3:0:0:
1,143,158505,6,0,B|100:86|163:154|163:169|164:185|222:270|339:201,1,348.333343963623,4|0,1:0|0:0,0:0:0:0:
367,141,159505,2,0,B|267:263|301:365|461:353|423:227,1,348.333343963623,8|0,1:0|0:0,0:0:0:0:
504,188,160505,6,0,P|489:137|443:78,1,104.500003189087,2|0,0:0|0:0,0:0:0:0:
426,64,160838,1,2,0:0:0:0:
259,135,161171,1,2,0:0:0:0:
107,35,161505,6,0,P|132:81|141:155,1,104.500003189087,2|0,0:0|0:0,0:0:0:0:
142,176,161838,1,2,0:0:0:0:
316,225,162171,1,2,0:0:0:0:
160,318,162505,6,0,B|201:309|225:332|225:332|257:365|316:339,1,139.333337585449,2|2,1:0|0:0,0:0:0:0:
374,381,163005,2,0,P|365:341|380:294,1,69.6666687927247,2|0,0:0|0:0,0:0:0:0:
448,266,163338,1,2,0:0:0:0:
448,266,163505,2,0,P|457:226|442:179,1,69.6666687927247,2|0,0:0|0:0,0:0:0:0:
512,132,163838,1,2,0:0:0:0:
512,132,164005,2,0,B|450:92|450:92|376:131,1,139.333337585449,2|2,0:0|0:0,0:0:0:0:
371,210,164505,6,0,P|332:203|311:182,1,69.6666687927247,2|2,0:3|0:0,0:0:0:0:
248,124,164838,1,2,0:0:0:0:
248,124,165005,2,0,P|225:156|225:186,1,69.6666687927247,2|2,0:3|0:0,0:0:0:0:
275,260,165338,1,2,0:0:0:0:
275,260,165505,2,0,P|216:255|146:257,1,104.500003189087,2|0,0:0|0:0,0:0:0:0:
132,279,165838,2,0,P|137:220|135:150,1,104.500003189087,2|0,0:0|0:0,0:0:0:0:
96,153,166171,1,2,0:0:0:0:
218,19,166505,6,0,B|261:6|287:29|285:37|304:64|373:54,1,139.333337585449,4|0,1:0|0:0,0:0:0:0:
440,50,167005,2,0,P|419:77|414:124,1,69.6666687927247,2|0,0:0|0:0,0:0:0:0:
470,181,167338,1,2,0:0:0:0:
470,181,167505,2,0,P|436:198|383:199,1,69.6666687927247,8|0,1:0|0:0,0:0:0:0:
317,205,167838,1,2,0:0:0:0:
317,205,168005,2,0,P|337:232|343:279,2,69.6666687927247,2|0|0,0:0|0:0|0:0,0:0:0:0:
256,272,168505,6,0,P|203:270|124:270,1,104.500003189087,2|0,1:0|0:0,0:0:0:0:
120,236,168838,2,0,P|77:271|90:324,1,104.500003189087,2|0,0:3|0:0,0:0:0:0:
111,350,169171,1,2,0:3:0:0:
37,124,169505,2,0,P|72:81|125:94,1,104.500003189087,2|0,0:3|0:0,0:0:0:0:
136,127,169838,2,0,P|171:170|224:157,1,104.500003189087,2|0,0:3|0:0,0:0:0:0:
251,137,170171,2,0,P|256:69|248:22,1,104.500003189087,2|0,0:3|0:0,0:0:0:0:
288,6,170505,6,0,B|326:-10|365:8|356:23|387:51|445:34,1,139.333337585449,12|0,1:0|0:0,0:0:0:0:
496,83,171005,1,2,0:0:0:0:
442,255,171338,1,2,0:0:0:0:
442,255,171505,2,0,B|384:257|384:257|383:259|383:259|298:263,1,139.333337585449,2|0,0:0|0:0,0:0:0:0:
229,314,172005,2,0,P|277:277|222:206,1,139.333337585449,2|0,0:0|0:0,0:0:0:0:
163,221,172505,6,0,P|141:255|141:278,2,63.3333333333333,2|0|0,0:0|0:0|0:0,0:0:0:0:
206,143,173005,2,0,P|187:106|167:95,2,63.3333333333333,2|0|0,0:0|0:0|0:0,0:0:0:0:
252,219,173505,2,0,P|292:221|312:209,2,63.3333333333333,2|0|0,0:0|0:0|0:0,0:0:0:0:
206,135,174005,1,2,0:0:0:0:
449,28,174505,6,0,B|469:50|469:50|451:167,1,126.666666666667,2|2,0:0|0:0,0:0:0:0:
409,225,175005,1,2,0:0:0:0:
285,104,175338,1,2,0:0:0:0:
285,104,175505,1,2,0:0:0:0:
150,218,175838,1,2,0:0:0:0:
150,218,176005,2,0,P|132:172|142:81,1,126.666666666667,2|2,0:0|0:0,0:0:0:0:
70,35,176505,6,0,P|52:61|44:91,2,63.3333333333333,2|0|0,0:0|0:0|0:0,0:0:0:0:
156,5,177005,1,2,0:0:0:0:
312,97,177338,1,2,0:0:0:0:
312,97,177505,2,0,P|326:124|332:155,2,63.3333333333333,2|0|0,0:0|0:0|0:0,0:0:0:0:
228,70,178005,1,2,0:0:0:0:
151,324,178505,6,0,B|207:325|207:325|211:323|211:323|293:325,1,126.666666666667,2|2,0:0|0:0,0:0:0:0:
358,360,179005,1,2,0:0:0:0:
437,203,179338,1,2,0:0:0:0:
437,203,179505,1,2,0:0:0:0:
310,86,179838,1,2,0:0:0:0:
310,86,180005,2,0,B|254:85|254:85|250:87|250:87|168:85,1,126.666666666667,2|0,0:0|0:0,0:0:0:0:
100,54,180505,6,0,P|132:10|157:-1,2,63.3333333333333,2|0|0,0:0|0:0|0:0,0:0:0:0:
113,141,181005,1,2,0:0:0:0:
268,235,181338,1,2,0:0:0:0:
268,235,181505,2,0,P|297:280|298:307,2,63.3333333333333,2|0|0,0:0|0:0|0:0,0:0:0:0:
179,241,182005,1,2,0:0:0:0:
145,322,182171,1,2,0:0:0:0:
145,322,182338,1,2,0:0:0:0:
70,273,182505,6,0,P|60:204|71:133,1,126.666666666667,2|0,0:0|0:0,0:0:0:0:
124,80,183005,1,2,0:0:0:0:
281,171,183338,1,2,0:0:0:0:
281,171,183505,1,2,0:0:0:0:
375,22,183838,1,2,0:0:0:0:
375,22,184005,1,2,0:0:0:0:
512,140,184338,1,2,0:0:0:0:
512,140,184505,6,0,P|465:119|374:143,1,126.666666666667,2|0,0:0|0:0,0:0:0:0:
318,180,185005,2,0,B|306:220|327:245|327:245|347:271|329:316,1,126.666666666667,2|0,0:0|0:0,0:0:0:0:
270,362,185505,2,0,P|223:383|132:359,1,126.666666666667,2|2,0:0|0:0,0:0:0:0:
102,296,186005,1,2,0:0:0:0:
35,38,186505,6,0,P|72:47|115:126,1,126.666666666667,2|2,0:0|0:0,0:0:0:0:
42,194,187005,2,0,B|97:193|97:193|106:203|106:203|186:205,1,126.666666666667,2|2,0:0|0:0,0:0:0:0:
170,294,187505,2,0,P|207:285|250:206,1,126.666666666667,2|2,0:0|0:0,0:0:0:0:
214,131,188005,1,2,0:0:0:0:
331,18,188338,1,2,0:0:0:0:
411,68,188505,6,0,L|415:141,1,69.6666687927247,2|0,0:0|0:0,0:0:0:0:
487,191,188838,1,2,0:0:0:0:
437,266,189005,2,0,L|364:270,1,69.6666687927247,2|0,0:0|0:0,0:0:0:0:
314,342,189338,1,2,0:0:0:0:
242,285,189505,6,0,L|242:239,4,34.8333343963623,2|0|0|0|0,0:0|0:0|0:0|0:0|0:0,0:0:0:0:
273,200,190005,5,2,0:0:0:0:
220,128,190171,5,2,0:0:0:0:
136,152,190338,5,2,0:0:0:0:
94,242,190505,6,0,B|107:206|107:206|107:129|92:79,1,151.999995361328,4|2,1:0|0:0,0:0:0:0:
113,2,191005,2,0,B|144:25|144:25|208:24,1,75.9999976806641,2|0,0:0|0:0,0:0:0:0:
270,2,191338,1,2,0:0:0:0:
367,81,191505,2,0,P|383:119|372:178,1,75.9999976806641,0|0,1:0|0:0,0:0:0:0:
336,231,191838,1,2,0:0:0:0:
258,182,192005,2,0,L|162:185,1,75.9999976806641,2|0,0:0|0:0,0:0:0:0:
118,119,192338,1,2,0:0:0:0:
18,184,192505,6,0,B|-9:229|3:291|3:291|29:306|74:286,1,151.999995361328,4|2,1:0|0:0,0:0:0:0:
121,249,193005,2,0,P|172:267|181:286,1,75.9999976806641,2|0,0:0|0:0,0:0:0:0:
192,374,193338,1,2,0:0:0:0:
292,299,193505,2,0,L|294:192,1,75.9999976806641,0|0,1:0|0:0,0:0:0:0:
222,165,193838,1,2,0:0:0:0:
306,129,194005,2,0,L|358:129,2,37.9999988403321,2|0|0,0:0|0:0|0:0,0:0:0:0:
96,204,194505,6,0,B|95:163|121:145|121:145|85:111|106:46,1,151.999995361328,4|2,1:0|0:0,0:0:0:0:
164,2,195005,2,0,P|200:-7|246:3,1,75.9999976806641,2|0,0:0|0:0,0:0:0:0:
319,44,195338,1,2,0:0:0:0:
226,128,195505,2,0,P|220:171|230:215,1,75.9999976806641,4|0,1:0|0:0,0:0:0:0:
295,262,195838,1,2,0:0:0:0:
339,182,196005,2,0,L|430:183,1,75.9999976806641,2|0,0:0|0:0,0:0:0:0:
493,228,196338,1,2,0:0:0:0:
512,98,196505,6,0,B|442:98|442:98|432:100|432:100|359:101,1,151.999995361328,4|2,1:0|0:0,0:0:0:0:
336,189,197005,2,0,P|297:168|279:121,1,75.9999976806641,2|0,0:0|0:0,0:0:0:0:
286,50,197338,1,2,0:0:0:0:
203,10,197505,2,0,B|161:11|156:58|155:63|155:69|146:113|93:109,1,151.999995361328,0|0,1:0|0:0,0:0:0:0:
66,25,198005,1,2,0:0:0:0:
8,305,198505,6,0,B|65:307|65:307|70:301|70:301|147:305,1,126.666666666667,4|2,1:0|0:0,0:0:0:0:
219,292,199005,2,0,B|192:241|192:241|184:240|184:240|149:171,1,126.666666666667,2|2,0:0|0:0,0:0:0:0:
103,116,199505,2,0,B|72:164|72:164|75:171|75:171|33:236,1,126.666666666667,2|2,0:0|0:0,0:0:0:0:
168,181,200005,1,2,0:0:0:0:
270,325,200338,1,2,0:0:0:0:
346,279,200505,6,0,L|346:149,1,126.666666666667,0|0,1:0|0:0,0:0:0:0:
429,104,201005,2,0,L|429:191,1,63.3333333333333,2|0,0:0|0:0,0:0:0:0:
504,242,201338,1,2,0:0:0:0:
471,324,201505,2,0,B|434:315|413:342|413:342|388:377|331:363,1,126.666666666667,0|0,1:0|0:0,0:0:0:0:
341,279,202005,1,2,0:0:0:0:
87,359,202505,6,0,P|94:316|168:268,1,126.666666666667,0|0,1:0|0:0,0:0:0:0:
104,197,203005,2,0,P|143:178|225:211,1,126.666666666667,2|0,0:0|0:0,0:0:0:0:
246,118,203505,2,0,P|284:139|303:225,1,126.666666666667,2|0,0:0|0:0,0:0:0:0:
253,306,204005,1,2,0:0:0:0:
422,144,204338,1,2,0:0:0:0:
372,70,204505,6,0,L|162:81,2,190,0|0|0,1:0|0:0|0:0,0:0:0:0:
372,70,206005,1,2,0:0:0:0:
471,152,206505,6,0,P|463:206|470:262,1,95.0000036239625,2|0,0:3|0:0,0:0:0:0:
430,318,207005,2,0,P|387:284|335:262,1,95.0000036239625,2|0,0:0|0:0,0:0:0:0:
306,199,207505,2,0,P|356:178|401:144,1,95.0000036239625,2|0,0:0|0:0,0:0:0:0:
379,75,208005,1,2,0:0:0:0:
230,12,208338,1,2,0:0:0:0:
230,12,208505,6,0,B|204:40|220:78|220:78|238:112|216:152,1,142.500005435944,2|0,0:3|0:0,0:0:0:0:
65,187,209338,1,2,0:0:0:0:
65,187,209505,2,0,P|96:178|160:202,1,95.0000036239625,2|0,0:0|0:0,0:0:0:0:
203,260,210005,1,2,0:0:0:0:
434,382,210505,6,0,L|435:284,1,95.0000036239625,2|0,0:3|0:0,0:0:0:0:
489,227,211005,2,0,L|409:169,1,95.0000036239625,2|0,0:0|0:0,0:0:0:0:
393,93,211505,2,0,L|300:125,1,95.0000036239625,2|0,0:0|0:0,0:0:0:0:
240,73,212005,1,2,0:0:0:0:
84,31,212338,1,2,0:0:0:0:
84,31,212505,6,0,P|100:88|106:137,1,95.0000036239625,2|0,0:3|0:0,0:0:0:0:
35,164,213005,2,0,P|19:221|13:270,1,95.0000036239625,2|0,0:0|0:0,0:0:0:0:
70,313,213505,1,2,0:0:0:0:
185,200,213838,1,2,0:0:0:0:
185,200,214005,1,2,0:0:0:0:
295,324,214338,1,2,0:0:0:0:
295,324,214505,6,0,L|308:223,1,95.0000036239625,2|0,0:3|0:0,0:0:0:0:
342,157,215005,2,0,L|422:218,1,95.0000036239625,2|0,0:0|0:0,0:0:0:0:
463,281,215505,2,0,L|369:320,1,95.0000036239625,2|0,0:0|0:0,0:0:0:0:
319,376,216005,1,2,0:0:0:0:
232,209,216338,1,2,0:0:0:0:
232,209,216505,6,0,P|183:218|164:262,1,95.0000036239625,2|0,0:3|0:0,0:0:0:0:
95,213,217005,2,0,P|66:254|84:298,1,95.0000036239625,2|0,0:0|0:0,0:0:0:0:
0,312,217505,2,0,P|9:361|53:380,1,95.0000036239625,2|0,0:0|0:0,0:0:0:0:
124,360,218005,1,2,0:0:0:0:
312,227,218505,6,0,P|327:195|283:137,1,95.0000036239625,2|0,0:3|0:0,0:0:0:0:
288,64,219005,2,0,P|252:67|224:134,1,95.0000036239625,2|0,0:0|0:0,0:0:0:0:
159,167,219505,2,0,P|179:195|251:186,1,95.0000036239625,2|0,0:0|0:0,0:0:0:0:
229,116,220005,1,2,0:0:0:0:
397,30,220338,1,2,0:0:0:0:
397,30,220505,6,0,P|404:74|408:127,1,95.0000036239625,2|0,0:3|0:0,0:0:0:0:
487,137,221005,2,0,P|480:181|476:234,1,95.0000036239625,2|0,0:0|0:0,0:0:0:0:
395,230,221505,2,0,P|402:274|406:327,1,95.0000036239625,2|0,0:0|0:0,0:0:0:0:
486,327,222005,2,0,P|482:357|480:377,2,47.5000018119813,2|0|0,0:0|0:0|0:0,0:0:0:0:
407,317,222505,6,0,L|336:319,1,63.3333333333333,2|0,0:3|0:0,0:0:0:0:
290,377,223005,2,0,L|227:343,1,63.3333333333333,2|0,0:0|0:0,0:0:0:0:
216,269,223505,2,0,L|153:302,1,63.3333333333333,2|0,0:0|0:0,0:0:0:0:
115,364,224005,1,2,0:0:0:0:
11,234,224505,6,0,P|25:207|58:201,1,63.3333333333333,2|0,0:3|0:0,0:0:0:0:
87,127,225005,2,0,P|112:110|144:121,1,63.3333333333333,2|0,0:0|0:0,0:0:0:0:
206,72,225505,2,0,P|236:70|258:96,1,63.3333333333333,2|0,0:0|0:0,0:0:0:0:
216,161,226005,2,0,L|216:200,2,31.6666666666667,2|0|0,0:0|0:0|0:0,0:0:0:0:
264,98,226505,6,0,B|293:89|293:89|337:97,1,63.3333333333333,2|0,0:3|0:0,0:0:0:0:
361,24,227005,2,0,B|387:38|387:38|413:74,1,63.3333333333333,2|0,0:0|0:0,0:0:0:0:
481,40,227505,2,0,B|490:68|490:68|482:113,1,63.3333333333333,2|0,0:0|0:0,0:0:0:0:
419,148,228005,1,2,0:0:0:0:
503,272,228505,6,0,P|474:265|442:269,1,63.3333333333333,2|0,0:3|0:0,0:0:0:0:
409,196,229005,2,0,P|383:211|363:237,1,63.3333333333333,2|0,0:0|0:0,0:0:0:0:
288,208,229505,2,0,P|280:237|284:269,1,63.3333333333333,2|0,0:0|0:0,0:0:0:0:
211,302,230005,2,0,P|226:327|252:347,1,63.3333333333333,2|0,0:0|0:0,0:0:0:0:
165,380,230505,6,0,L|96:378,1,63.3333333333333,2|0,0:3|0:0,0:0:0:0:
70,305,231005,2,0,L|139:303,1,63.3333333333333,2|0,0:0|0:0,0:0:0:0:
165,230,231505,2,0,L|96:228,1,63.3333333333333,2|0,0:0|0:0,0:0:0:0:
82,151,232005,1,2,0:0:0:0:
218,24,232505,6,0,P|238:47|248:77,1,63.3333333333333,2|0,0:3|0:0,0:0:0:0:
321,108,233005,2,0,P|323:77|337:49,1,63.3333333333333,2|0,0:0|0:0,0:0:0:0:
400,96,233505,2,0,P|414:123|416:155,1,63.3333333333333,2|0,0:0|0:0,0:0:0:0:
350,198,234005,2,0,P|332:199|314:198,2,31.6666666666667,2|0|0,0:0|0:0|0:0,0:0:0:0:
406,142,234505,6,0,P|422:157|434:201,1,63.3333333333333,2|0,0:3|0:0,0:0:0:0:
496,244,235005,2,0,P|491:265|458:297,1,63.3333333333333,2|0,0:0|0:0,0:0:0:0:
448,372,235505,2,0,P|427:378|382:366,1,63.3333333333333,2|0,0:0|0:0,0:0:0:0:
339,305,236005,1,2,0:0:0:0:
185,358,236505,2,0,B|182:327|182:327|183:321|183:321|182:294,1,63.3333333333333,2|0,0:3|0:0,0:0:0:0:
252,259,237005,2,0,B|255:228|255:228|253:222|253:222|255:195,1,63.3333333333333,2|0,0:0|0:0,0:0:0:0:
193,145,237505,1,2,0:0:0:0:
265,275,238005,5,8,1:0:0:0:
