osu file format v14

[General]
AudioFilename: audio.ogg
AudioLeadIn: 0
PreviewTime: 104505
Countdown: 0
SampleSet: Soft
StackLeniency: 0.7
Mode: 3
LetterboxInBreaks: 0
SpecialStyle: 0
WidescreenStoryboard: 0

[Editor]
DistanceSpacing: 1
BeatDivisor: 3
GridSize: 32
TimelineZoom: 4.299998

[Metadata]
Title:Unidentified Flavourful Object
TitleUnicode:Unidentified Flavourful Object
Artist:Mili
ArtistUnicode:Mili
Creator:Her LN Mapper
Version:All the flavours in the world are for me
Source:DEEMO
Tags:anatharax fa featured artist mg mpg mappers' guild Miracle Milk flavorful cassie wei momochashew yamato kasai hamo akane tachiwana UFO U.F.O English video game progressive alternative pop ln long notes density coordination
BeatmapID:4378501
BeatmapSetID:2089358

[Difficulty]
HPDrainRate:8
CircleSize:4
OverallDifficulty:7.5
ApproachRate:5
SliderMultiplier:1.4
SliderTickRate:1

[Events]
//Background and Video events
0,0,"I love mili.jpg",0,0
//Break Periods
//Storyboard Layer 0 (Background)
//Storyboard Layer 1 (Fail)
//Storyboard Layer 2 (Pass)
//Storyboard Layer 3 (Foreground)
//Storyboard Layer 4 (Overlay)
//Storyboard Sound Samples

[TimingPoints]
386,500,4,2,1,30,1,0

[HitObjects]
448,192,386,128,0,552:0:0:0:0:
192,192,386,128,0,719:0:0:0:0:
64,192,552,128,0,719:0:0:0:0:
320,192,719,128,0,886:0:0:0:0:
192,192,886,128,0,1052:0:0:0:0:
448,192,886,128,0,1219:0:0:0:0:
192,192,1219,128,0,1386:0:0:0:0:
64,192,1386,128,0,1719:0:0:0:0:
320,192,1386,128,0,1552:0:0:0:0:
448,192,1552,128,0,1719:0:0:0:0:
320,192,1719,128,0,2052:0:0:0:0:
192,192,1886,128,0,2386:0:0:0:0:
64,192,1886,128,0,2052:0:0:0:0:
320,192,2219,128,0,2386:0:0:0:0:
64,192,2386,128,0,2552:0:0:0:0:
448,192,2386,128,0,2719:0:0:0:0:
320,192,2552,128,0,2719:0:0:0:0:
192,192,2719,128,0,2886:0:0:0:0:
320,192,2886,128,0,3386:0:0:0:0:
64,192,2886,128,0,3052:0:0:0:0:
448,192,3219,128,0,3386:0:0:0:0:
64,192,3386,128,0,3719:0:0:0:0:
192,192,3386,128,0,3552:0:0:0:0:
320,192,3552,128,0,3719:0:0:0:0:
448,192,3719,128,0,3886:0:0:0:0:
64,192,3886,128,0,4052:0:0:0:0:
192,192,3886,128,0,4219:0:0:0:0:
448,192,4052,128,0,4386:0:0:0:0:
320,192,4219,128,0,4386:0:0:0:0:
192,192,4386,128,0,4552:0:0:0:0:
64,192,4386,128,0,4719:0:0:0:0:
448,192,4552,128,0,4719:0:0:0:0:
192,192,4719,128,0,4886:0:0:0:0:
448,192,4886,128,0,5219:0:0:0:0:
320,192,4886,128,0,5052:0:0:0:0:
192,192,5219,128,0,5386:0:0:0:0:
64,192,5386,128,0,5552:0:0:0:0:
320,192,5386,128,0,5719:0:0:0:0:
448,192,5552,128,0,5719:0:0:0:0:
192,192,5719,128,0,5886:0:0:0:0:
448,192,5886,128,0,6052:0:0:0:0:
64,192,5886,128,0,6386:0:0:0:0:
320,192,6219,128,0,6386:0:0:0:0:
192,192,6386,128,0,6719:0:0:0:0:
448,192,6386,128,0,6552:0:0:0:0:
64,192,6552,128,0,6719:0:0:0:0:
448,192,6719,128,0,6886:0:0:0:0:
64,192,6886,128,0,7386:0:0:0:0:
320,192,6886,128,0,7052:0:0:0:0:
320,192,7219,128,0,7386:0:0:0:0:
192,192,7386,128,0,7719:0:0:0:0:
448,192,7386,128,0,7552:0:0:0:0:
64,192,7552,128,0,7719:0:0:0:0:
320,192,7719,128,0,8052:0:0:0:0:
448,192,7886,128,0,8386:0:0:0:0:
64,192,7886,128,0,8219:0:0:0:0:
320,192,8386,128,0,8719:0:0:0:0:
192,192,8386,128,0,8552:0:0:0:0:
448,192,8552,128,0,8719:0:0:0:0:
192,192,8719,128,0,9052:0:0:0:0:
64,192,8886,128,0,9052:0:0:0:0:
320,192,8886,128,0,9386:0:0:0:0:
192,192,9219,128,0,9386:0:0:0:0:
64,192,9386,128,0,9552:0:0:0:0:
448,192,9386,128,0,9719:0:0:0:0:
192,192,9552,128,0,9719:0:0:0:0:
320,192,9719,128,0,9886:0:0:0:0:
448,192,9886,128,0,10052:0:0:0:0:
64,192,9886,128,0,10386:0:0:0:0:
320,192,10219,128,0,10386:0:0:0:0:
192,192,10386,128,0,10552:0:0:0:0:
448,192,10386,128,0,10719:0:0:0:0:
64,192,10552,128,0,10719:0:0:0:0:
320,192,10719,128,0,10886:0:0:0:0:
192,192,10886,128,0,11386:0:0:0:0:
448,192,10886,128,0,11052:0:0:0:0:
320,192,11219,128,0,11386:0:0:0:0:
448,192,11386,128,0,11719:0:0:0:0:
64,192,11386,128,0,11552:0:0:0:0:
192,192,11552,128,0,11886:0:0:0:0:
320,192,11719,128,0,11886:0:0:0:0:
448,192,11886,128,0,12052:0:0:0:0:
64,192,11886,128,0,12219:0:0:0:0:
320,192,12052,128,0,12386:0:0:0:0:
192,192,12219,128,0,12386:0:0:0:0:
448,192,12386,128,0,12719:0:0:0:0:
64,192,12386,128,0,12552:0:0:0:0:
320,192,12552,128,0,12719:0:0:0:0:
192,192,12719,128,0,12886:0:0:0:0:
320,192,12886,128,0,13386:0:0:0:0:
64,192,12886,128,0,13052:0:0:0:0:
448,192,13219,128,0,13386:0:0:0:0:
64,192,13386,128,0,13719:0:0:0:0:
192,192,13386,128,0,13552:0:0:0:0:
448,192,13552,128,0,13719:0:0:0:0:
192,192,13719,128,0,13886:0:0:0:0:
320,192,13886,128,0,14386:0:0:0:0:
64,192,13886,128,0,14052:0:0:0:0:
192,192,14219,128,0,14386:0:0:0:0:
448,192,14386,128,0,14719:0:0:0:0:
64,192,14386,128,0,14552:0:0:0:0:
192,192,14886,128,0,15052:0:0:0:0:
320,192,15219,128,0,15386:0:0:0:0:
64,192,15386,128,0,16052:0:0:0:0:
192,192,15386,128,0,15719:0:0:0:0:
320,192,15886,128,0,16219:0:0:0:0:
192,192,16219,128,0,16552:0:0:0:0:
320,192,16386,128,0,16552:0:0:0:0:
448,192,16386,128,0,16552:0:0:0:0:
320,192,16719,128,0,17052:0:0:0:0:
64,192,16886,128,0,17052:0:0:0:0:
448,192,16886,128,0,17052:0:0:0:0:
64,192,17219,128,0,17552:0:0:0:0:
192,192,17386,128,0,17719:0:0:0:0:
448,192,17719,128,0,18052:0:0:0:0:
192,192,17886,128,0,18052:0:0:0:0:
320,192,17886,128,0,18386:0:0:0:0:
448,192,18219,128,0,18552:0:0:0:0:
192,192,18386,128,0,18552:0:0:0:0:
64,192,18386,128,0,18719:0:0:0:0:
320,192,18719,128,0,19052:0:0:0:0:
192,192,18886,128,0,19052:0:0:0:0:
448,192,18886,128,0,19219:0:0:0:0:
64,192,19219,128,0,19552:0:0:0:0:
448,192,19386,128,0,19552:0:0:0:0:
320,192,19386,128,0,19719:0:0:0:0:
192,192,19719,128,0,20052:0:0:0:0:
64,192,19886,128,0,20052:0:0:0:0:
320,192,19886,128,0,20219:0:0:0:0:
192,192,20219,128,0,20552:0:0:0:0:
320,192,20386,128,0,20552:0:0:0:0:
64,192,20386,128,0,21052:0:0:0:0:
448,192,20719,128,0,21052:0:0:0:0:
192,192,20886,128,0,21052:0:0:0:0:
320,192,20886,128,0,21219:0:0:0:0:
192,192,21219,128,0,21552:0:0:0:0:
320,192,21386,128,0,21719:0:0:0:0:
64,192,21719,128,0,22052:0:0:0:0:
192,192,21886,128,0,22052:0:0:0:0:
448,192,21886,128,0,22219:0:0:0:0:
320,192,22219,128,0,22552:0:0:0:0:
64,192,22386,128,0,22552:0:0:0:0:
192,192,22386,128,0,22719:0:0:0:0:
320,192,22719,128,0,23052:0:0:0:0:
192,192,22886,128,0,23219:0:0:0:0:
448,192,22886,128,0,23052:0:0:0:0:
448,192,23219,128,0,23552:0:0:0:0:
320,192,23386,128,0,23552:0:0:0:0:
64,192,23386,128,0,23719:0:0:0:0:
448,192,23719,128,0,23886:0:0:0:0:
64,192,23886,128,0,24386:0:0:0:0:
320,192,23886,128,0,24219:0:0:0:0:
448,192,24219,128,0,24552:0:0:0:0:
192,192,24386,128,0,24552:0:0:0:0:
320,192,24386,128,0,24719:0:0:0:0:
64,192,24719,128,0,25052:0:0:0:0:
448,192,24886,128,0,25052:0:0:0:0:
192,192,24886,128,0,25052:0:0:0:0:
320,192,25219,128,0,25552:0:0:0:0:
64,192,25386,128,0,25719:0:0:0:0:
320,192,25719,128,0,26052:0:0:0:0:
448,192,25886,128,0,26386:0:0:0:0:
192,192,25886,128,0,26052:0:0:0:0:
320,192,26219,128,0,26552:0:0:0:0:
64,192,26386,128,0,26552:0:0:0:0:
192,192,26386,128,0,26886:0:0:0:0:
448,192,26719,128,0,27052:0:0:0:0:
64,192,26886,128,0,27052:0:0:0:0:
320,192,26886,128,0,27386:0:0:0:0:
192,192,27219,128,0,27552:0:0:0:0:
448,192,27386,128,0,27552:0:0:0:0:
64,192,27386,128,0,27886:0:0:0:0:
320,192,27719,128,0,28052:0:0:0:0:
192,192,27886,128,0,28052:0:0:0:0:
448,192,27886,128,0,28219:0:0:0:0:
192,192,28219,128,0,28719:0:0:0:0:
64,192,28386,128,0,28552:0:0:0:0:
320,192,28386,128,0,28886:0:0:0:0:
448,192,28719,128,0,29052:0:0:0:0:
64,192,28886,128,0,29052:0:0:0:0:
192,192,28886,128,0,29052:0:0:0:0:
320,192,29219,128,0,29552:0:0:0:0:
64,192,29386,128,0,29886:0:0:0:0:
448,192,29386,128,0,29552:0:0:0:0:
192,192,29719,128,0,30052:0:0:0:0:
448,192,29886,128,0,30386:0:0:0:0:
320,192,29886,128,0,30219:0:0:0:0:
192,192,30219,128,0,30719:0:0:0:0:
64,192,30386,128,0,30886:0:0:0:0:
320,192,30386,128,0,30552:0:0:0:0:
320,192,30719,128,0,31052:0:0:0:0:
448,192,30886,128,0,31219:0:0:0:0:
192,192,30886,128,0,31052:0:0:0:0:
192,192,31219,128,0,31552:0:0:0:0:
320,192,31386,128,0,31552:0:0:0:0:
448,192,31386,128,0,31719:0:0:0:0:
64,192,31719,128,0,31886:0:0:0:0:
320,192,31886,128,0,32052:0:0:0:0:
192,192,32052,128,0,32219:0:0:0:0:
448,192,32219,128,0,32386:0:0:0:0:
64,192,32386,128,0,32719:0:0:0:0:
320,192,32386,128,0,32552:0:0:0:0:
192,192,32552,128,0,32886:0:0:0:0:
320,192,32719,128,0,32886:0:0:0:0:
448,192,32886,128,0,33219:0:0:0:0:
64,192,32886,128,0,33052:0:0:0:0:
320,192,33052,128,0,33386:0:0:0:0:
192,192,33219,128,0,33386:0:0:0:0:
64,192,33386,128,0,33719:0:0:0:0:
448,192,33386,128,0,33552:0:0:0:0:
320,192,33552,128,0,33886:0:0:0:0:
448,192,33719,128,0,33886:0:0:0:0:
64,192,33886,128,0,34052:0:0:0:0:
192,192,33886,128,0,34219:0:0:0:0:
320,192,34052,128,0,34219:0:0:0:0:
64,192,34219,128,0,34552:0:0:0:0:
320,192,34386,128,0,34719:0:0:0:0:
448,192,34386,128,0,34552:0:0:0:0:
192,192,34552,128,0,34886:0:0:0:0:
64,192,34719,128,0,34886:0:0:0:0:
320,192,34886,128,0,35052:0:0:0:0:
448,192,34886,128,0,35219:0:0:0:0:
192,192,35052,128,0,35219:0:0:0:0:
320,192,35219,128,0,35552:0:0:0:0:
64,192,35219,128,0,35386:0:0:0:0:
192,192,35386,128,0,35886:0:0:0:0:
448,192,35386,128,0,35552:0:0:0:0:
64,192,35552,128,0,35719:0:0:0:0:
448,192,35719,128,0,36052:0:0:0:0:
320,192,35886,128,0,36052:0:0:0:0:
64,192,35886,128,0,36219:0:0:0:0:
192,192,36052,128,0,36386:0:0:0:0:
320,192,36219,128,0,36552:0:0:0:0:
448,192,36219,128,0,36719:0:0:0:0:
64,192,36386,128,0,36886:0:0:0:0:
192,192,36552,128,0,36719:0:0:0:0:
320,192,36719,128,0,37052:0:0:0:0:
448,192,36886,128,0,37219:0:0:0:0:
192,192,36886,128,0,37052:0:0:0:0:
64,192,37052,128,0,37386:0:0:0:0:
320,192,37219,128,0,37719:0:0:0:0:
448,192,37386,128,0,37719:0:0:0:0:
192,192,37386,128,0,37552:0:0:0:0:
64,192,37552,128,0,37886:0:0:0:0:
192,192,37719,128,0,38052:0:0:0:0:
320,192,37886,128,0,38052:0:0:0:0:
448,192,37886,128,0,38219:0:0:0:0:
64,192,38052,128,0,38386:0:0:0:0:
192,192,38219,128,0,38552:0:0:0:0:
320,192,38219,128,0,38386:0:0:0:0:
448,192,38386,128,0,38719:0:0:0:0:
64,192,38552,128,0,38719:0:0:0:0:
320,192,38719,128,0,39052:0:0:0:0:
64,192,38886,128,0,39052:0:0:0:0:
192,192,38886,128,0,39219:0:0:0:0:
448,192,39052,128,0,39219:0:0:0:0:
320,192,39219,128,0,39386:0:0:0:0:
64,192,39219,128,0,39386:0:0:0:0:
448,192,39386,128,0,39552:0:0:0:0:
192,192,39386,128,0,39719:0:0:0:0:
320,192,39552,128,0,39886:0:0:0:0:
64,192,39719,128,0,40052:0:0:0:0:
448,192,39886,128,0,40219:0:0:0:0:
192,192,39886,128,0,40052:0:0:0:0:
64,192,40386,128,0,40719:0:0:0:0:
320,192,40386,128,0,40552:0:0:0:0:
192,192,40386,128,0,40552:0:0:0:0:
448,192,40552,128,0,40719:0:0:0:0:
320,192,40719,128,0,40886:0:0:0:0:
192,192,40719,128,0,40886:0:0:0:0:
448,192,40886,128,0,41219:0:0:0:0:
64,192,40886,128,0,41052:0:0:0:0:
320,192,41219,128,0,41386:0:0:0:0:
64,192,41219,128,0,41386:0:0:0:0:
192,192,41386,128,0,41719:0:0:0:0:
448,192,41386,128,0,41552:0:0:0:0:
448,192,41719,128,0,41886:0:0:0:0:
64,192,41719,128,0,41886:0:0:0:0:
320,192,41886,128,0,42219:0:0:0:0:
192,192,41886,128,0,42052:0:0:0:0:
192,192,42219,128,0,42552:0:0:0:0:
64,192,42386,128,0,42552:0:0:0:0:
448,192,42386,128,0,42719:0:0:0:0:
320,192,42552,128,0,42886:0:0:0:0:
192,192,42719,128,0,42886:0:0:0:0:
64,192,42886,128,0,43219:0:0:0:0:
448,192,42886,128,0,43052:0:0:0:0:
320,192,43219,128,0,43386:0:0:0:0:
448,192,43219,128,0,43552:0:0:0:0:
64,192,43386,128,0,43552:0:0:0:0:
192,192,43386,128,0,43719:0:0:0:0:
448,192,43719,128,0,44052:0:0:0:0:
320,192,43886,128,0,44052:0:0:0:0:
192,192,43886,128,0,44219:0:0:0:0:
320,192,44219,128,0,44552:0:0:0:0:
192,192,44386,128,0,44719:0:0:0:0:
448,192,44386,128,0,44552:0:0:0:0:
64,192,44552,128,0,44719:0:0:0:0:
320,192,44719,128,0,44886:0:0:0:0:
448,192,44719,128,0,44886:0:0:0:0:
192,192,44886,128,0,45219:0:0:0:0:
64,192,44886,128,0,45052:0:0:0:0:
64,192,45219,128,0,45386:0:0:0:0:
320,192,45219,128,0,45552:0:0:0:0:
192,192,45386,128,0,45552:0:0:0:0:
448,192,45386,128,0,45719:0:0:0:0:
320,192,45719,128,0,45886:0:0:0:0:
192,192,45719,128,0,46052:0:0:0:0:
448,192,45886,128,0,46219:0:0:0:0:
64,192,45886,128,0,46052:0:0:0:0:
64,192,46219,128,0,46386:0:0:0:0:
192,192,46219,128,0,46552:0:0:0:0:
320,192,46386,128,0,46719:0:0:0:0:
448,192,46386,128,0,46719:0:0:0:0:
64,192,46552,128,0,47052:0:0:0:0:
192,192,46719,128,0,46886:0:0:0:0:
320,192,46886,128,0,47219:0:0:0:0:
448,192,46886,128,0,47052:0:0:0:0:
192,192,47052,128,0,47219:0:0:0:0:
64,192,47219,128,0,47552:0:0:0:0:
448,192,47386,128,0,47719:0:0:0:0:
320,192,47386,128,0,47552:0:0:0:0:
192,192,47552,128,0,47886:0:0:0:0:
320,192,47719,128,0,47886:0:0:0:0:
64,192,47886,128,0,48219:0:0:0:0:
448,192,47886,128,0,48052:0:0:0:0:
192,192,48219,128,0,48386:0:0:0:0:
320,192,48386,128,0,48719:0:0:0:0:
64,192,48552,128,0,48719:0:0:0:0:
192,192,48719,128,0,48886:0:0:0:0:
448,192,48886,128,0,49219:0:0:0:0:
64,192,49052,128,0,49219:0:0:0:0:
192,192,49219,128,0,49552:0:0:0:0:
448,192,49386,128,0,50386:0:0:0:0:
64,192,49719,128,0,50052:0:0:0:0:
192,192,49886,128,0,50052:0:0:0:0:
192,192,50219,128,0,50552:0:0:0:0:
64,192,50386,128,0,50886:0:0:0:0:
320,192,50386,128,0,50552:0:0:0:0:
448,192,50552,128,0,50719:0:0:0:0:
192,192,50719,128,0,51052:0:0:0:0:
448,192,50886,128,0,51219:0:0:0:0:
320,192,51052,128,0,51219:0:0:0:0:
64,192,51219,128,0,51386:0:0:0:0:
192,192,51386,128,0,51719:0:0:0:0:
448,192,51386,128,0,51552:0:0:0:0:
64,192,51552,128,0,51719:0:0:0:0:
320,192,51719,128,0,52052:0:0:0:0:
448,192,51886,128,0,52052:0:0:0:0:
64,192,51886,128,0,52052:0:0:0:0:
192,192,52052,128,0,52219:0:0:0:0:
448,192,52219,128,0,52386:0:0:0:0:
320,192,52386,128,0,52552:0:0:0:0:
64,192,52386,128,0,52886:0:0:0:0:
192,192,52552,128,0,52719:0:0:0:0:
320,192,52719,128,0,52886:0:0:0:0:
448,192,52886,128,0,53052:0:0:0:0:
192,192,53219,128,0,53386:0:0:0:0:
320,192,53386,128,0,53552:0:0:0:0:
448,192,53386,128,0,53886:0:0:0:0:
64,192,53552,128,0,53719:0:0:0:0:
192,192,53719,128,0,53886:0:0:0:0:
64,192,53886,128,0,54052:0:0:0:0:
320,192,54219,128,0,54386:0:0:0:0:
192,192,54386,128,0,54719:0:0:0:0:
448,192,54386,128,0,54552:0:0:0:0:
64,192,54552,128,0,54719:0:0:0:0:
320,192,54719,128,0,54886:0:0:0:0:
448,192,54886,128,0,55052:0:0:0:0:
64,192,54886,128,0,55219:0:0:0:0:
320,192,55052,128,0,55219:0:0:0:0:
192,192,55219,128,0,55386:0:0:0:0:
448,192,55386,128,0,55719:0:0:0:0:
320,192,55386,128,0,55719:0:0:0:0:
64,192,55886,128,0,56386:0:0:0:0:
320,192,55886,128,0,56386:0:0:0:0:
192,192,56386,128,0,56719:0:0:0:0:
448,192,56719,128,0,56886:0:0:0:0:
64,192,56886,128,0,57219:0:0:0:0:
192,192,57219,128,0,57386:0:0:0:0:
448,192,57386,128,0,57719:0:0:0:0:
320,192,57386,128,0,57552:0:0:0:0:
64,192,57719,128,0,58052:0:0:0:0:
192,192,57886,128,0,58219:0:0:0:0:
448,192,57886,128,0,58052:0:0:0:0:
320,192,58219,128,0,58552:0:0:0:0:
192,192,58386,128,0,58719:0:0:0:0:
64,192,58386,128,0,58886:0:0:0:0:
320,192,58719,128,0,58886:0:0:0:0:
448,192,58886,128,0,59219:0:0:0:0:
64,192,59219,128,0,59386:0:0:0:0:
192,192,59386,128,0,59719:0:0:0:0:
448,192,59719,128,0,60052:0:0:0:0:
64,192,59886,128,0,60219:0:0:0:0:
320,192,60219,128,0,60386:0:0:0:0:
192,192,60386,128,0,60719:0:0:0:0:
64,192,60719,128,0,60886:0:0:0:0:
320,192,60886,128,0,61219:0:0:0:0:
192,192,61219,128,0,61386:0:0:0:0:
448,192,61386,128,0,61719:0:0:0:0:
320,192,61386,128,0,61552:0:0:0:0:
320,192,61719,128,0,62052:0:0:0:0:
64,192,61886,128,0,62219:0:0:0:0:
192,192,61886,128,0,62052:0:0:0:0:
448,192,62219,128,0,62552:0:0:0:0:
320,192,62386,128,0,62719:0:0:0:0:
192,192,62386,128,0,62886:0:0:0:0:
64,192,62719,128,0,63052:0:0:0:0:
320,192,62886,128,0,63219:0:0:0:0:
192,192,63219,128,0,63386:0:0:0:0:
448,192,63386,128,0,63719:0:0:0:0:
320,192,63719,128,0,63886:0:0:0:0:
64,192,63886,128,0,64219:0:0:0:0:
320,192,64219,128,0,64385:0:0:0:0:
448,192,64385,128,0,64719:0:0:0:0:
64,192,64719,128,0,64885:0:0:0:0:
320,192,64885,128,0,65219:0:0:0:0:
448,192,65219,128,0,65386:0:0:0:0:
192,192,65386,128,0,65719:0:0:0:0:
64,192,65386,128,0,65552:0:0:0:0:
320,192,65719,128,0,66052:0:0:0:0:
448,192,65886,128,0,66052:0:0:0:0:
64,192,65886,128,0,66219:0:0:0:0:
320,192,66219,128,0,66719:0:0:0:0:
64,192,66386,128,0,66552:0:0:0:0:
448,192,66386,128,0,66886:0:0:0:0:
192,192,66719,128,0,67052:0:0:0:0:
64,192,66886,128,0,67219:0:0:0:0:
320,192,66886,128,0,67052:0:0:0:0:
320,192,67219,128,0,67386:0:0:0:0:
448,192,67386,128,0,67719:0:0:0:0:
192,192,67386,128,0,67552:0:0:0:0:
192,192,67719,128,0,67886:0:0:0:0:
320,192,67886,128,0,68219:0:0:0:0:
448,192,68219,128,0,68386:0:0:0:0:
192,192,68386,128,0,68719:0:0:0:0:
320,192,68719,128,0,68886:0:0:0:0:
64,192,68886,128,0,69219:0:0:0:0:
320,192,69219,128,0,69386:0:0:0:0:
448,192,69386,128,0,69719:0:0:0:0:
64,192,69386,128,0,69552:0:0:0:0:
192,192,69719,128,0,70052:0:0:0:0:
320,192,69886,128,0,70052:0:0:0:0:
448,192,69886,128,0,70219:0:0:0:0:
192,192,70219,128,0,70552:0:0:0:0:
64,192,70386,128,0,70719:0:0:0:0:
320,192,70386,128,0,70552:0:0:0:0:
320,192,70719,128,0,70886:0:0:0:0:
448,192,70886,128,0,71052:0:0:0:0:
192,192,70886,128,0,71219:0:0:0:0:
448,192,71219,128,0,71386:0:0:0:0:
320,192,71386,128,0,71719:0:0:0:0:
192,192,71719,128,0,71886:0:0:0:0:
64,192,71886,128,0,72219:0:0:0:0:
320,192,71886,128,0,72052:0:0:0:0:
192,192,72052,128,0,72219:0:0:0:0:
448,192,72219,128,0,72386:0:0:0:0:
320,192,72386,128,0,72719:0:0:0:0:
64,192,72386,128,0,72552:0:0:0:0:
192,192,72719,128,0,72886:0:0:0:0:
320,192,72886,128,0,73052:0:0:0:0:
448,192,72886,128,0,73052:0:0:0:0:
192,192,73219,128,0,73386:0:0:0:0:
448,192,73386,128,0,73719:0:0:0:0:
64,192,73719,128,0,73886:0:0:0:0:
448,192,73886,128,0,74052:0:0:0:0:
320,192,73886,128,0,74219:0:0:0:0:
64,192,74219,128,0,74719:0:0:0:0:
192,192,74386,128,0,74719:0:0:0:0:
448,192,74386,128,0,74552:0:0:0:0:
192,192,74886,128,0,75052:0:0:0:0:
448,192,74886,128,0,75219:0:0:0:0:
64,192,75052,128,0,75219:0:0:0:0:
320,192,75219,128,0,75386:0:0:0:0:
192,192,75386,128,0,75719:0:0:0:0:
64,192,75386,128,0,75719:0:0:0:0:
320,192,75719,128,0,75886:0:0:0:0:
64,192,75886,128,0,76052:0:0:0:0:
448,192,75886,128,0,76219:0:0:0:0:
192,192,76052,128,0,76219:0:0:0:0:
320,192,76219,128,0,76386:0:0:0:0:
64,192,76386,128,0,76719:0:0:0:0:
448,192,76386,128,0,76552:0:0:0:0:
320,192,76719,128,0,76886:0:0:0:0:
192,192,76886,128,0,77052:0:0:0:0:
448,192,76886,128,0,77219:0:0:0:0:
192,192,77219,128,0,77386:0:0:0:0:
64,192,77386,128,0,77719:0:0:0:0:
320,192,77386,128,0,77552:0:0:0:0:
192,192,77719,128,0,77886:0:0:0:0:
448,192,77886,128,0,78052:0:0:0:0:
320,192,77886,128,0,78219:0:0:0:0:
192,192,78219,128,0,78552:0:0:0:0:
64,192,78386,128,0,78552:0:0:0:0:
320,192,78386,128,0,78719:0:0:0:0:
192,192,78719,128,0,79052:0:0:0:0:
320,192,78886,128,0,79052:0:0:0:0:
448,192,78886,128,0,79219:0:0:0:0:
320,192,79219,128,0,79552:0:0:0:0:
64,192,79386,128,0,79552:0:0:0:0:
192,192,79386,128,0,79552:0:0:0:0:
192,192,79719,128,0,79886:0:0:0:0:
64,192,79886,128,0,80052:0:0:0:0:
320,192,79886,128,0,80219:0:0:0:0:
64,192,80219,128,0,80552:0:0:0:0:
448,192,80386,128,0,80719:0:0:0:0:
320,192,80386,128,0,80552:0:0:0:0:
192,192,80552,128,0,80719:0:0:0:0:
320,192,80719,128,0,80886:0:0:0:0:
448,192,80886,128,0,81052:0:0:0:0:
64,192,80886,128,0,81219:0:0:0:0:
192,192,81052,128,0,81219:0:0:0:0:
320,192,81219,128,0,81386:0:0:0:0:
192,192,81386,128,0,81552:0:0:0:0:
448,192,81386,128,0,81719:0:0:0:0:
320,192,81719,128,0,81886:0:0:0:0:
192,192,81886,128,0,82052:0:0:0:0:
64,192,81886,128,0,82052:0:0:0:0:
320,192,82219,128,0,82386:0:0:0:0:
192,192,82386,128,0,82552:0:0:0:0:
448,192,82386,128,0,82719:0:0:0:0:
192,192,82719,128,0,82886:0:0:0:0:
64,192,82886,128,0,83052:0:0:0:0:
448,192,82886,128,0,83052:0:0:0:0:
192,192,83219,128,0,83386:0:0:0:0:
64,192,83386,128,0,83552:0:0:0:0:
320,192,83386,128,0,83719:0:0:0:0:
64,192,83719,128,0,83886:0:0:0:0:
192,192,83886,128,0,84219:0:0:0:0:
448,192,83886,128,0,84052:0:0:0:0:
320,192,84219,128,0,84552:0:0:0:0:
192,192,84386,128,0,84719:0:0:0:0:
64,192,84386,128,0,84886:0:0:0:0:
320,192,84719,128,0,85052:0:0:0:0:
192,192,84886,128,0,85052:0:0:0:0:
448,192,84886,128,0,85052:0:0:0:0:
192,192,85219,128,0,85552:0:0:0:0:
64,192,85386,128,0,85552:0:0:0:0:
448,192,85386,128,0,85552:0:0:0:0:
320,192,85719,128,0,85886:0:0:0:0:
64,192,85886,128,0,86052:0:0:0:0:
192,192,85886,128,0,86219:0:0:0:0:
448,192,86219,128,0,86886:0:0:0:0:
64,192,86386,128,0,87219:0:0:0:0:
320,192,86386,128,0,86552:0:0:0:0:
320,192,86719,128,0,87219:0:0:0:0:
192,192,86886,128,0,87052:0:0:0:0:
192,192,87219,128,0,87552:0:0:0:0:
64,192,87386,128,0,87552:0:0:0:0:
448,192,87386,128,0,87719:0:0:0:0:
64,192,87719,128,0,88052:0:0:0:0:
192,192,87886,128,0,88052:0:0:0:0:
192,192,88219,128,0,88386:0:0:0:0:
320,192,88386,128,0,88552:0:0:0:0:
448,192,88386,128,0,88719:0:0:0:0:
320,192,88719,128,0,89052:0:0:0:0:
448,192,88886,128,0,89052:0:0:0:0:
64,192,88886,128,0,89386:0:0:0:0:
320,192,89219,128,0,89386:0:0:0:0:
192,192,89386,128,0,89719:0:0:0:0:
448,192,89386,128,0,89552:0:0:0:0:
448,192,89719,128,0,90219:0:0:0:0:
192,192,89886,128,0,90052:0:0:0:0:
192,192,90219,128,0,90386:0:0:0:0:
320,192,90386,128,0,90719:0:0:0:0:
448,192,90386,128,0,90552:0:0:0:0:
192,192,90719,128,0,91219:0:0:0:0:
320,192,90886,128,0,91052:0:0:0:0:
320,192,91219,128,0,91552:0:0:0:0:
192,192,91386,128,0,91552:0:0:0:0:
64,192,91386,128,0,91552:0:0:0:0:
192,192,91719,128,0,92052:0:0:0:0:
320,192,91886,128,0,92386:0:0:0:0:
192,192,92219,128,0,92386:0:0:0:0:
64,192,92386,128,0,92552:0:0:0:0:
448,192,92386,128,0,92719:0:0:0:0:
64,192,92719,128,0,93052:0:0:0:0:
192,192,92719,128,0,92886:0:0:0:0:
448,192,92886,128,0,93219:0:0:0:0:
320,192,92886,128,0,93386:0:0:0:0:
64,192,93219,128,0,93552:0:0:0:0:
192,192,93386,128,0,93552:0:0:0:0:
448,192,93386,128,0,93719:0:0:0:0:
64,192,93719,128,0,93886:0:0:0:0:
448,192,93886,128,0,94052:0:0:0:0:
64,192,94052,128,0,94219:0:0:0:0:
448,192,94219,128,0,94552:0:0:0:0:
64,192,94386,128,0,94552:0:0:0:0:
320,192,94386,128,0,94719:0:0:0:0:
64,192,94719,128,0,95052:0:0:0:0:
320,192,94886,128,0,95219:0:0:0:0:
64,192,95219,128,0,95552:0:0:0:0:
192,192,95386,128,0,95552:0:0:0:0:
448,192,95386,128,0,95719:0:0:0:0:
192,192,95719,128,0,96052:0:0:0:0:
64,192,95886,128,0,96052:0:0:0:0:
448,192,95886,128,0,96219:0:0:0:0:
64,192,96219,128,0,96552:0:0:0:0:
320,192,96219,128,0,96386:0:0:0:0:
192,192,96386,128,0,96552:0:0:0:0:
448,192,96386,128,0,96719:0:0:0:0:
320,192,96552,128,0,96719:0:0:0:0:
192,192,96719,128,0,97052:0:0:0:0:
448,192,96886,128,0,97052:0:0:0:0:
64,192,96886,128,0,97219:0:0:0:0:
320,192,97052,128,0,97219:0:0:0:0:
448,192,97219,128,0,97552:0:0:0:0:
192,192,97219,128,0,97386:0:0:0:0:
64,192,97386,128,0,97719:0:0:0:0:
320,192,97386,128,0,97552:0:0:0:0:
192,192,97552,128,0,97719:0:0:0:0:
448,192,97719,128,0,98052:0:0:0:0:
192,192,97886,128,0,98052:0:0:0:0:
64,192,97886,128,0,98219:0:0:0:0:
320,192,98052,128,0,98219:0:0:0:0:
448,192,98219,128,0,98386:0:0:0:0:
192,192,98386,128,0,98552:0:0:0:0:
64,192,98386,128,0,98719:0:0:0:0:
448,192,98552,128,0,98886:0:0:0:0:
320,192,98719,128,0,98886:0:0:0:0:
64,192,98886,128,0,99052:0:0:0:0:
192,192,98886,128,0,99219:0:0:0:0:
320,192,99052,128,0,99386:0:0:0:0:
64,192,99219,128,0,99552:0:0:0:0:
192,192,99386,128,0,99552:0:0:0:0:
448,192,99386,128,0,99719:0:0:0:0:
320,192,99552,128,0,99886:0:0:0:0:
192,192,99719,128,0,99886:0:0:0:0:
64,192,99886,128,0,100052:0:0:0:0:
448,192,99886,128,0,100219:0:0:0:0:
320,192,100052,128,0,100219:0:0:0:0:
192,192,100219,128,0,100386:0:0:0:0:
64,192,100219,128,0,100552:0:0:0:0:
448,192,100386,128,0,100719:0:0:0:0:
320,192,100386,128,0,100552:0:0:0:0:
192,192,100552,128,0,100719:0:0:0:0:
320,192,100719,128,0,101052:0:0:0:0:
64,192,100886,128,0,101219:0:0:0:0:
448,192,100886,128,0,101386:0:0:0:0:
192,192,101052,128,0,101219:0:0:0:0:
320,192,101219,128,0,101552:0:0:0:0:
192,192,101386,128,0,101552:0:0:0:0:
64,192,101386,128,0,101719:0:0:0:0:
448,192,101552,128,0,101719:0:0:0:0:
192,192,101719,128,0,102052:0:0:0:0:
64,192,101886,128,0,102052:0:0:0:0:
448,192,101886,128,0,102219:0:0:0:0:
320,192,102052,128,0,102219:0:0:0:0:
192,192,102219,128,0,102386:0:0:0:0:
64,192,102219,128,0,102552:0:0:0:0:
320,192,102386,128,0,102719:0:0:0:0:
448,192,102386,128,0,102552:0:0:0:0:
192,192,102552,128,0,102886:0:0:0:0:
64,192,102719,128,0,102886:0:0:0:0:
448,192,102719,128,0,103219:0:0:0:0:
320,192,102886,128,0,103219:0:0:0:0:
64,192,103052,128,0,103386:0:0:0:0:
192,192,103219,128,0,103552:0:0:0:0:
448,192,103386,128,0,103552:0:0:0:0:
320,192,103386,128,0,103719:0:0:0:0:
64,192,103552,128,0,103886:0:0:0:0:
448,192,103719,128,0,103886:0:0:0:0:
192,192,103719,128,0,104052:0:0:0:0:
320,192,103886,128,0,104219:0:0:0:0:
64,192,104052,128,0,104386:0:0:0:0:
448,192,104052,128,0,104219:0:0:0:0:
192,192,104219,128,0,104386:0:0:0:0:
320,192,104386,128,0,104552:0:0:0:0:
448,192,104386,128,0,104886:0:0:0:0:
64,192,104552,128,0,104886:0:0:0:0:
320,192,104719,128,0,105052:0:0:0:0:
192,192,104886,128,0,105219:0:0:0:0:
64,192,105052,128,0,105219:0:0:0:0:
448,192,105052,128,0,105386:0:0:0:0:
320,192,105219,128,0,105552:0:0:0:0:
192,192,105386,128,0,105719:0:0:0:0:
64,192,105386,128,0,105886:0:0:0:0:
448,192,105552,128,0,105719:0:0:0:0:
320,192,105719,128,0,106052:0:0:0:0:
192,192,105886,128,0,106052:0:0:0:0:
448,192,105886,128,0,106219:0:0:0:0:
64,192,106219,128,0,106386:0:0:0:0:
192,192,106219,128,0,106719:0:0:0:0:
448,192,106386,128,0,106552:0:0:0:0:
320,192,106386,128,0,106719:0:0:0:0:
64,192,106552,128,0,106886:0:0:0:0:
448,192,106719,128,0,107386:0:0:0:0:
320,192,106886,128,0,107219:0:0:0:0:
192,192,106886,128,0,107052:0:0:0:0:
64,192,107052,128,0,107219:0:0:0:0:
192,192,107219,128,0,107386:0:0:0:0:
64,192,107386,128,0,107719:0:0:0:0:
320,192,107386,128,0,107552:0:0:0:0:
448,192,107552,128,0,107886:0:0:0:0:
192,192,107719,128,0,108052:0:0:0:0:
64,192,107886,128,0,108052:0:0:0:0:
320,192,107886,128,0,108052:0:0:0:0:
64,192,108219,128,0,108386:0:0:0:0:
320,192,108219,128,0,108552:0:0:0:0:
192,192,108386,128,0,108719:0:0:0:0:
448,192,108386,128,0,108552:0:0:0:0:
64,192,108719,128,0,109052:0:0:0:0:
320,192,108886,128,0,109052:0:0:0:0:
448,192,108886,128,0,109219:0:0:0:0:
192,192,109052,128,0,109386:0:0:0:0:
320,192,109219,128,0,109386:0:0:0:0:
64,192,109386,128,0,109719:0:0:0:0:
448,192,109386,128,0,109552:0:0:0:0:
192,192,109552,128,0,109886:0:0:0:0:
448,192,109719,128,0,110052:0:0:0:0:
320,192,109886,128,0,110052:0:0:0:0:
64,192,109886,128,0,110219:0:0:0:0:
448,192,110219,128,0,110386:0:0:0:0:
192,192,110219,128,0,110552:0:0:0:0:
320,192,110386,128,0,110552:0:0:0:0:
64,192,110386,128,0,110719:0:0:0:0:
448,192,110552,128,0,110719:0:0:0:0:
192,192,110719,128,0,111052:0:0:0:0:
320,192,110886,128,0,111219:0:0:0:0:
448,192,110886,128,0,111052:0:0:0:0:
64,192,111052,128,0,111386:0:0:0:0:
192,192,111219,128,0,111386:0:0:0:0:
320,192,111386,128,0,111552:0:0:0:0:
448,192,111386,128,0,111719:0:0:0:0:
64,192,111552,128,0,111886:0:0:0:0:
320,192,111719,128,0,112052:0:0:0:0:
448,192,111886,128,0,112052:0:0:0:0:
192,192,111886,128,0,112219:0:0:0:0:
64,192,112052,128,0,112386:0:0:0:0:
448,192,112219,128,0,112386:0:0:0:0:
192,192,112386,128,0,112719:0:0:0:0:
320,192,112386,128,0,113386:0:0:0:0:
64,192,112719,128,0,112886:0:0:0:0:
448,192,112886,128,0,113052:0:0:0:0:
64,192,113052,128,0,113219:0:0:0:0:
192,192,113219,128,0,113386:0:0:0:0:
448,192,113386,128,0,113552:0:0:0:0:
64,192,113386,128,0,113886:0:0:0:0:
320,192,113552,128,0,113719:0:0:0:0:
192,192,113719,128,0,113886:0:0:0:0:
448,192,113886,128,0,114386:0:0:0:0:
320,192,113886,128,0,114052:0:0:0:0:
64,192,114052,128,0,114219:0:0:0:0:
320,192,114219,128,0,114386:0:0:0:0:
64,192,114386,128,0,114552:0:0:0:0:
192,192,114386,128,0,114719:0:0:0:0:
448,192,114552,128,0,114719:0:0:0:0:
320,192,114719,128,0,115052:0:0:0:0:
192,192,114886,128,0,115052:0:0:0:0:
64,192,115052,128,0,115386:0:0:0:0:
320,192,115219,128,0,115386:0:0:0:0:
192,192,115386,128,0,115552:0:0:0:0:
448,192,115386,128,0,115886:0:0:0:0:
320,192,115552,128,0,115719:0:0:0:0:
192,192,115719,128,0,116219:0:0:0:0:
64,192,115886,128,0,116052:0:0:0:0:
320,192,115886,128,0,116219:0:0:0:0:
448,192,116052,128,0,116219:0:0:0:0:
64,192,116219,128,0,116552:0:0:0:0:
192,192,116386,128,0,116719:0:0:0:0:
320,192,116386,128,0,116886:0:0:0:0:
448,192,116386,128,0,117219:0:0:0:0:
64,192,116719,128,0,117052:0:0:0:0:
192,192,116886,128,0,117052:0:0:0:0:
320,192,117052,128,0,117219:0:0:0:0:
192,192,117219,128,0,117719:0:0:0:0:
64,192,117386,128,0,117886:0:0:0:0:
320,192,117386,128,0,117552:0:0:0:0:
320,192,117719,128,0,118219:0:0:0:0:
448,192,117886,128,0,118052:0:0:0:0:
192,192,117886,128,0,118386:0:0:0:0:
64,192,118052,128,0,118552:0:0:0:0:
448,192,118219,128,0,118719:0:0:0:0:
320,192,118386,128,0,118552:0:0:0:0:
192,192,118552,128,0,118886:0:0:0:0:
320,192,118719,128,0,119052:0:0:0:0:
448,192,118886,128,0,119052:0:0:0:0:
64,192,118886,128,0,119219:0:0:0:0:
192,192,119052,128,0,119219:0:0:0:0:
320,192,119219,128,0,119552:0:0:0:0:
448,192,119386,128,0,119552:0:0:0:0:
64,192,119386,128,0,119886:0:0:0:0:
192,192,119552,128,0,119886:0:0:0:0:
320,192,119719,128,0,119886:0:0:0:0:
448,192,119886,128,0,120052:0:0:0:0:
192,192,120052,128,0,120219:0:0:0:0:
320,192,120219,128,0,120552:0:0:0:0:
64,192,120386,128,0,120552:0:0:0:0:
448,192,120386,128,0,120552:0:0:0:0:
192,192,120552,128,0,120719:0:0:0:0:
320,192,120719,128,0,120886:0:0:0:0:
64,192,120886,128,0,121052:0:0:0:0:
192,192,120886,128,0,121052:0:0:0:0:
448,192,121052,128,0,121219:0:0:0:0:
64,192,121219,128,0,121386:0:0:0:0:
192,192,121386,128,0,121552:0:0:0:0:
320,192,121386,128,0,121552:0:0:0:0:
448,192,121552,128,0,121719:0:0:0:0:
64,192,121719,128,0,121886:0:0:0:0:
192,192,121886,128,0,122052:0:0:0:0:
448,192,121886,128,0,122052:0:0:0:0:
448,192,122219,128,0,122552:0:0:0:0:
320,192,122386,128,0,122552:0:0:0:0:
64,192,122386,128,0,122552:0:0:0:0:
192,192,122552,128,0,122719:0:0:0:0:
320,192,122719,128,0,122886:0:0:0:0:
64,192,122886,128,0,123052:0:0:0:0:
448,192,122886,128,0,123052:0:0:0:0:
192,192,123052,128,0,123219:0:0:0:0:
64,192,123219,128,0,123386:0:0:0:0:
448,192,123386,128,0,123552:0:0:0:0:
320,192,123386,128,0,123552:0:0:0:0:
192,192,123552,128,0,123719:0:0:0:0:
320,192,123719,128,0,123886:0:0:0:0:
448,192,123886,128,0,124052:0:0:0:0:
64,192,123886,128,0,124219:0:0:0:0:
320,192,124219,128,0,124552:0:0:0:0:
192,192,124386,128,0,124552:0:0:0:0:
64,192,124386,128,0,124552:0:0:0:0:
448,192,124552,128,0,124719:0:0:0:0:
64,192,124719,128,0,124886:0:0:0:0:
192,192,124886,128,0,125052:0:0:0:0:
448,192,124886,128,0,125052:0:0:0:0:
320,192,125052,128,0,125219:0:0:0:0:
192,192,125219,128,0,125386:0:0:0:0:
64,192,125386,128,0,125552:0:0:0:0:
448,192,125386,128,0,125552:0:0:0:0:
320,192,125552,128,0,125719:0:0:0:0:
192,192,125719,128,0,125886:0:0:0:0:
320,192,125886,128,0,126052:0:0:0:0:
448,192,125886,128,0,126052:0:0:0:0:
64,192,126052,128,0,126219:0:0:0:0:
192,192,126219,128,0,126552:0:0:0:0:
320,192,126386,128,0,126552:0:0:0:0:
448,192,126386,128,0,126719:0:0:0:0:
64,192,126552,128,0,126719:0:0:0:0:
320,192,126719,128,0,127052:0:0:0:0:
448,192,126886,128,0,127052:0:0:0:0:
64,192,126886,128,0,127052:0:0:0:0:
192,192,127052,128,0,127219:0:0:0:0:
320,192,127219,128,0,127552:0:0:0:0:
64,192,127386,128,0,127719:0:0:0:0:
448,192,127386,128,0,127552:0:0:0:0:
192,192,127552,128,0,127886:0:0:0:0:
320,192,127719,128,0,127886:0:0:0:0:
448,192,127886,128,0,128219:0:0:0:0:
64,192,127886,128,0,128385:0:0:0:0:
320,192,128052,128,0,128219:0:0:0:0:
192,192,128219,128,0,128552:0:0:0:0:
320,192,128385,128,0,128719:0:0:0:0:
448,192,128385,128,0,128552:0:0:0:0:
192,192,128719,128,0,129052:0:0:0:0:
448,192,128719,128,0,128885:0:0:0:0:
64,192,128885,128,0,129052:0:0:0:0:
320,192,128885,128,0,129219:0:0:0:0:
448,192,129052,128,0,129219:0:0:0:0:
64,192,129219,128,0,129552:0:0:0:0:
192,192,129219,128,0,129385:0:0:0:0:
320,192,129385,128,0,129552:0:0:0:0:
448,192,129385,128,0,129719:0:0:0:0:
192,192,129552,128,0,129885:0:0:0:0:
320,192,129719,128,0,130052:0:0:0:0:
448,192,129885,128,0,130052:0:0:0:0:
64,192,129885,128,0,130052:0:0:0:0:
192,192,130052,128,0,130219:0:0:0:0:
64,192,130219,128,0,130385:0:0:0:0:
320,192,130219,128,0,130385:0:0:0:0:
192,192,130385,128,0,130552:0:0:0:0:
448,192,130385,128,0,130719:0:0:0:0:
320,192,130552,128,0,130719:0:0:0:0:
192,192,130719,128,0,131052:0:0:0:0:
448,192,130886,128,0,131219:0:0:0:0:
64,192,130886,128,0,131052:0:0:0:0:
64,192,131219,128,0,131386:0:0:0:0:
320,192,131219,128,0,131386:0:0:0:0:
192,192,131386,128,0,131552:0:0:0:0:
448,192,131386,128,0,131719:0:0:0:0:
64,192,131552,128,0,131886:0:0:0:0:
320,192,131719,128,0,132052:0:0:0:0:
192,192,131886,128,0,132052:0:0:0:0:
448,192,131886,128,0,132219:0:0:0:0:
64,192,132052,128,0,132219:0:0:0:0:
320,192,132219,128,0,132552:0:0:0:0:
192,192,132386,128,0,132719:0:0:0:0:
64,192,132386,128,0,132886:0:0:0:0:
448,192,132552,128,0,132719:0:0:0:0:
320,192,132719,128,0,133052:0:0:0:0:
192,192,132886,128,0,133052:0:0:0:0:
448,192,132886,128,0,133052:0:0:0:0:
64,192,133052,128,0,133219:0:0:0:0:
192,192,133219,128,0,133386:0:0:0:0:
448,192,133219,128,0,133719:0:0:0:0:
320,192,133386,128,0,133552:0:0:0:0:
64,192,133386,128,0,133719:0:0:0:0:
192,192,133552,128,0,133719:0:0:0:0:
320,192,133719,128,0,133886:0:0:0:0:
448,192,133886,128,0,134219:0:0:0:0:
64,192,133886,128,0,134052:0:0:0:0:
192,192,134052,128,0,134219:0:0:0:0:
320,192,134219,128,0,134386:0:0:0:0:
64,192,134219,128,0,134386:0:0:0:0:
192,192,134386,128,0,134552:0:0:0:0:
448,192,134386,128,0,134719:0:0:0:0:
320,192,134552,128,0,135052:0:0:0:0:
64,192,134719,128,0,134886:0:0:0:0:
448,192,134886,128,0,135052:0:0:0:0:
192,192,134886,128,0,135219:0:0:0:0:
448,192,135219,128,0,135386:0:0:0:0:
320,192,135219,128,0,135386:0:0:0:0:
64,192,135386,128,0,135719:0:0:0:0:
192,192,135386,128,0,135552:0:0:0:0:
320,192,135552,128,0,135886:0:0:0:0:
192,192,135719,128,0,136052:0:0:0:0:
448,192,135886,128,0,136219:0:0:0:0:
64,192,135886,128,0,136052:0:0:0:0:
192,192,136219,128,0,136386:0:0:0:0:
64,192,136386,128,0,136552:0:0:0:0:
320,192,136386,128,0,136886:0:0:0:0:
448,192,136552,128,0,136719:0:0:0:0:
64,192,136719,128,0,137052:0:0:0:0:
192,192,136886,128,0,137052:0:0:0:0:
448,192,136886,128,0,137219:0:0:0:0:
320,192,137052,128,0,137219:0:0:0:0:
192,192,137219,128,0,137552:0:0:0:0:
64,192,137386,128,0,137719:0:0:0:0:
448,192,137386,128,0,137552:0:0:0:0:
320,192,137552,128,0,137719:0:0:0:0:
448,192,137719,128,0,138052:0:0:0:0:
64,192,137886,128,0,138052:0:0:0:0:
192,192,137886,128,0,138219:0:0:0:0:
320,192,138052,128,0,138219:0:0:0:0:
64,192,138219,128,0,138552:0:0:0:0:
448,192,138219,128,0,138386:0:0:0:0:
192,192,138386,128,0,138552:0:0:0:0:
320,192,138386,128,0,138719:0:0:0:0:
448,192,138552,128,0,138719:0:0:0:0:
192,192,138719,128,0,139219:0:0:0:0:
320,192,138886,128,0,139219:0:0:0:0:
64,192,138886,128,0,139052:0:0:0:0:
448,192,139219,128,0,139386:0:0:0:0:
64,192,139386,128,0,139552:0:0:0:0:
192,192,139386,128,0,139719:0:0:0:0:
320,192,139552,128,0,139886:0:0:0:0:
64,192,139719,128,0,139886:0:0:0:0:
192,192,139886,128,0,140052:0:0:0:0:
448,192,139886,128,0,140386:0:0:0:0:
320,192,140052,128,0,140219:0:0:0:0:
64,192,140219,128,0,140386:0:0:0:0:
192,192,140386,128,0,140719:0:0:0:0:
320,192,140386,128,0,140552:0:0:0:0:
64,192,140552,128,0,140886:0:0:0:0:
320,192,140719,128,0,141052:0:0:0:0:
192,192,140886,128,0,141219:0:0:0:0:
448,192,140886,128,0,141052:0:0:0:0:
64,192,141052,128,0,141219:0:0:0:0:
448,192,141219,128,0,141386:0:0:0:0:
64,192,141386,128,0,141719:0:0:0:0:
320,192,141386,128,0,141552:0:0:0:0:
192,192,141552,128,0,141719:0:0:0:0:
448,192,141719,128,0,141886:0:0:0:0:
64,192,141886,128,0,142052:0:0:0:0:
192,192,141886,128,0,142052:0:0:0:0:
320,192,142052,128,0,142219:0:0:0:0:
64,192,142219,128,0,142552:0:0:0:0:
192,192,142386,128,0,142552:0:0:0:0:
320,192,142386,128,0,142552:0:0:0:0:
448,192,142552,128,0,142719:0:0:0:0:
192,192,142719,128,0,142886:0:0:0:0:
320,192,142886,128,0,143052:0:0:0:0:
448,192,142886,128,0,143052:0:0:0:0:
64,192,143052,128,0,143219:0:0:0:0:
192,192,143219,128,0,143386:0:0:0:0:
320,192,143386,128,0,143552:0:0:0:0:
64,192,143386,128,0,143552:0:0:0:0:
448,192,143552,128,0,143719:0:0:0:0:
64,192,143719,128,0,143886:0:0:0:0:
192,192,143886,128,0,144052:0:0:0:0:
448,192,143886,128,0,144052:0:0:0:0:
320,192,144052,128,0,144219:0:0:0:0:
192,192,144219,128,0,144386:0:0:0:0:
448,192,144386,128,0,144552:0:0:0:0:
64,192,144386,128,0,144719:0:0:0:0:
320,192,144552,128,0,144719:0:0:0:0:
448,192,144719,128,0,144886:0:0:0:0:
64,192,144886,128,0,145052:0:0:0:0:
192,192,144886,128,0,145052:0:0:0:0:
320,192,145052,128,0,145219:0:0:0:0:
448,192,145219,128,0,145386:0:0:0:0:
320,192,145386,128,0,145552:0:0:0:0:
64,192,145386,128,0,145552:0:0:0:0:
192,192,145552,128,0,145719:0:0:0:0:
64,192,145719,128,0,145886:0:0:0:0:
448,192,145886,128,0,146052:0:0:0:0:
192,192,145886,128,0,146219:0:0:0:0:
320,192,146052,128,0,146386:0:0:0:0:
64,192,146219,128,0,146552:0:0:0:0:
448,192,146386,128,0,146552:0:0:0:0:
192,192,146386,128,0,146552:0:0:0:0:
320,192,146552,128,0,146719:0:0:0:0:
192,192,146719,128,0,147052:0:0:0:0:
448,192,146886,128,0,147052:0:0:0:0:
64,192,146886,128,0,147052:0:0:0:0:
320,192,147052,128,0,147219:0:0:0:0:
192,192,147219,128,0,147552:0:0:0:0:
64,192,147386,128,0,147552:0:0:0:0:
448,192,147386,128,0,147552:0:0:0:0:
320,192,147552,128,0,147719:0:0:0:0:
448,192,147719,128,0,148052:0:0:0:0:
64,192,147886,128,0,148052:0:0:0:0:
320,192,147886,128,0,148052:0:0:0:0:
192,192,148052,128,0,148219:0:0:0:0:
64,192,148219,128,0,148552:0:0:0:0:
192,192,148386,128,0,148552:0:0:0:0:
320,192,148386,128,0,148552:0:0:0:0:
448,192,148552,128,0,148719:0:0:0:0:
320,192,148719,128,0,149052:0:0:0:0:
64,192,148886,128,0,149052:0:0:0:0:
448,192,148886,128,0,149052:0:0:0:0:
192,192,149052,128,0,149219:0:0:0:0:
448,192,149219,128,0,149552:0:0:0:0:
64,192,149386,128,0,149552:0:0:0:0:
320,192,149386,128,0,149552:0:0:0:0:
192,192,149552,128,0,149719:0:0:0:0:
64,192,149719,128,0,150052:0:0:0:0:
192,192,149886,128,0,150052:0:0:0:0:
320,192,149886,128,0,150052:0:0:0:0:
448,192,150052,128,0,150219:0:0:0:0:
64,192,150219,128,0,150386:0:0:0:0:
448,192,150386,128,0,150719:0:0:0:0:
320,192,150386,128,0,150552:0:0:0:0:
192,192,150386,128,0,150552:0:0:0:0:
64,192,150552,128,0,150719:0:0:0:0:
192,192,150719,128,0,151052:0:0:0:0:
448,192,150886,128,0,151052:0:0:0:0:
320,192,150886,128,0,151219:0:0:0:0:
64,192,151052,128,0,151219:0:0:0:0:
192,192,151219,128,0,151552:0:0:0:0:
448,192,151386,128,0,151552:0:0:0:0:
64,192,151386,128,0,151552:0:0:0:0:
320,192,151552,128,0,151719:0:0:0:0:
448,192,151719,128,0,152052:0:0:0:0:
192,192,151886,128,0,152052:0:0:0:0:
64,192,151886,128,0,152052:0:0:0:0:
320,192,152052,128,0,152386:0:0:0:0:
448,192,152219,128,0,152552:0:0:0:0:
64,192,152386,128,0,152719:0:0:0:0:
192,192,152386,128,0,152552:0:0:0:0:
320,192,152552,128,0,152719:0:0:0:0:
192,192,152719,128,0,153052:0:0:0:0:
448,192,152886,128,0,153219:0:0:0:0:
64,192,152886,128,0,153052:0:0:0:0:
320,192,153052,128,0,153219:0:0:0:0:
64,192,153219,128,0,153552:0:0:0:0:
448,192,153386,128,0,153552:0:0:0:0:
192,192,153386,128,0,153719:0:0:0:0:
320,192,153552,128,0,153719:0:0:0:0:
448,192,153719,128,0,154052:0:0:0:0:
64,192,153886,128,0,154052:0:0:0:0:
192,192,153886,128,0,154219:0:0:0:0:
320,192,154052,128,0,154386:0:0:0:0:
64,192,154219,128,0,154386:0:0:0:0:
192,192,154386,128,0,154552:0:0:0:0:
448,192,154386,128,0,154552:0:0:0:0:
320,192,154552,128,0,154719:0:0:0:0:
192,192,154719,128,0,155052:0:0:0:0:
64,192,154886,128,0,155219:0:0:0:0:
448,192,154886,128,0,155052:0:0:0:0:
320,192,155052,128,0,155219:0:0:0:0:
192,192,155219,128,0,155552:0:0:0:0:
448,192,155386,128,0,155552:0:0:0:0:
320,192,155386,128,0,155719:0:0:0:0:
64,192,155552,128,0,155719:0:0:0:0:
192,192,155719,128,0,156052:0:0:0:0:
64,192,155886,128,0,156052:0:0:0:0:
448,192,155886,128,0,156219:0:0:0:0:
320,192,156052,128,0,156219:0:0:0:0:
64,192,156219,128,0,156552:0:0:0:0:
448,192,156386,128,0,156719:0:0:0:0:
320,192,156386,128,0,156552:0:0:0:0:
192,192,156552,128,0,156886:0:0:0:0:
320,192,156719,128,0,156886:0:0:0:0:
64,192,156886,128,0,157052:0:0:0:0:
448,192,156886,128,0,157219:0:0:0:0:
320,192,157052,128,0,157386:0:0:0:0:
64,192,157219,128,0,157386:0:0:0:0:
192,192,157386,128,0,157552:0:0:0:0:
448,192,157386,128,0,157719:0:0:0:0:
64,192,157552,128,0,157719:0:0:0:0:
320,192,157552,128,0,157719:0:0:0:0:
192,192,157719,128,0,158219:0:0:0:0:
448,192,157886,128,0,158052:0:0:0:0:
320,192,157886,128,0,158219:0:0:0:0:
64,192,158052,128,0,158386:0:0:0:0:
448,192,158219,128,0,158552:0:0:0:0:
192,192,158386,128,0,158552:0:0:0:0:
320,192,158386,128,0,158886:0:0:0:0:
64,192,158552,128,0,158719:0:0:0:0:
448,192,158719,128,0,159052:0:0:0:0:
64,192,158886,128,0,159219:0:0:0:0:
192,192,158886,128,0,159052:0:0:0:0:
320,192,159052,128,0,159386:0:0:0:0:
448,192,159219,128,0,159386:0:0:0:0:
64,192,159386,128,0,159552:0:0:0:0:
192,192,159386,128,0,159719:0:0:0:0:
320,192,159552,128,0,159886:0:0:0:0:
448,192,159719,128,0,160219:0:0:0:0:
64,192,159886,128,0,160219:0:0:0:0:
192,192,159886,128,0,160052:0:0:0:0:
320,192,160052,128,0,160386:0:0:0:0:
192,192,160219,128,0,160552:0:0:0:0:
448,192,160386,128,0,160719:0:0:0:0:
64,192,160386,128,0,160552:0:0:0:0:
320,192,160552,128,0,160886:0:0:0:0:
64,192,160719,128,0,161052:0:0:0:0:
192,192,160886,128,0,161052:0:0:0:0:
448,192,160886,128,0,161219:0:0:0:0:
320,192,161052,128,0,161386:0:0:0:0:
192,192,161219,128,0,161552:0:0:0:0:
64,192,161386,128,0,161719:0:0:0:0:
448,192,161386,128,0,161552:0:0:0:0:
320,192,161552,128,0,161886:0:0:0:0:
192,192,161719,128,0,162052:0:0:0:0:
448,192,161886,128,0,162052:0:0:0:0:
64,192,161886,128,0,162219:0:0:0:0:
320,192,162052,128,0,162386:0:0:0:0:
448,192,162219,128,0,162719:0:0:0:0:
64,192,162386,128,0,162552:0:0:0:0:
192,192,162386,128,0,162886:0:0:0:0:
320,192,162552,128,0,162719:0:0:0:0:
64,192,162719,128,0,163219:0:0:0:0:
320,192,162886,128,0,163052:0:0:0:0:
448,192,162886,128,0,163386:0:0:0:0:
192,192,163052,128,0,163219:0:0:0:0:
320,192,163219,128,0,163552:0:0:0:0:
64,192,163386,128,0,163886:0:0:0:0:
192,192,163386,128,0,163719:0:0:0:0:
448,192,163552,128,0,163719:0:0:0:0:
320,192,163719,128,0,164052:0:0:0:0:
448,192,163886,128,0,164386:0:0:0:0:
192,192,163886,128,0,164219:0:0:0:0:
64,192,164052,128,0,164219:0:0:0:0:
320,192,164219,128,0,164552:0:0:0:0:
64,192,164386,128,0,164552:0:0:0:0:
192,192,164386,128,0,164719:0:0:0:0:
448,192,164552,128,0,164719:0:0:0:0:
64,192,164719,128,0,164886:0:0:0:0:
320,192,164719,128,0,165219:0:0:0:0:
192,192,164886,128,0,165052:0:0:0:0:
448,192,164886,128,0,165219:0:0:0:0:
64,192,165052,128,0,165386:0:0:0:0:
192,192,165219,128,0,165552:0:0:0:0:
320,192,165386,128,0,165719:0:0:0:0:
448,192,165386,128,0,165552:0:0:0:0:
64,192,165552,128,0,165719:0:0:0:0:
448,192,165719,128,0,165886:0:0:0:0:
192,192,165719,128,0,166219:0:0:0:0:
64,192,165886,128,0,166052:0:0:0:0:
320,192,165886,128,0,166386:0:0:0:0:
448,192,166052,128,0,166219:0:0:0:0:
64,192,166219,128,0,166552:0:0:0:0:
192,192,166386,128,0,166552:0:0:0:0:
448,192,166386,128,0,166719:0:0:0:0:
320,192,166552,128,0,166719:0:0:0:0:
192,192,166719,128,0,167052:0:0:0:0:
64,192,166886,128,0,167052:0:0:0:0:
448,192,166886,128,0,167219:0:0:0:0:
320,192,167052,128,0,167386:0:0:0:0:
192,192,167219,128,0,167386:0:0:0:0:
64,192,167386,128,0,167719:0:0:0:0:
448,192,167386,128,0,167552:0:0:0:0:
320,192,167552,128,0,167886:0:0:0:0:
192,192,167719,128,0,168052:0:0:0:0:
448,192,167886,128,0,168219:0:0:0:0:
64,192,167886,128,0,168052:0:0:0:0:
320,192,168052,128,0,168219:0:0:0:0:
192,192,168219,128,0,168552:0:0:0:0:
448,192,168386,128,0,168552:0:0:0:0:
320,192,168386,128,0,168719:0:0:0:0:
64,192,168552,128,0,168886:0:0:0:0:
192,192,168719,128,0,169052:0:0:0:0:
448,192,168886,128,0,169219:0:0:0:0:
320,192,168886,128,0,169052:0:0:0:0:
64,192,169052,128,0,169386:0:0:0:0:
320,192,169219,128,0,169552:0:0:0:0:
448,192,169386,128,0,169552:0:0:0:0:
192,192,169386,128,0,169719:0:0:0:0:
64,192,169552,128,0,169886:0:0:0:0:
448,192,169719,128,0,170052:0:0:0:0:
192,192,169886,128,0,170052:0:0:0:0:
320,192,169886,128,0,170219:0:0:0:0:
64,192,170052,128,0,170552:0:0:0:0:
448,192,170219,128,0,170386:0:0:0:0:
192,192,170386,128,0,170719:0:0:0:0:
320,192,170386,128,0,171052:0:0:0:0:
448,192,170552,128,0,171386:0:0:0:0:
64,192,170719,128,0,170886:0:0:0:0:
192,192,170886,128,0,171219:0:0:0:0:
64,192,171052,128,0,171219:0:0:0:0:
320,192,171219,128,0,171552:0:0:0:0:
192,192,171386,128,0,171552:0:0:0:0:
64,192,171386,128,0,171719:0:0:0:0:
448,192,171552,128,0,171886:0:0:0:0:
192,192,171719,128,0,171886:0:0:0:0:
64,192,171886,128,0,172052:0:0:0:0:
320,192,171886,128,0,172219:0:0:0:0:
448,192,172052,128,0,172219:0:0:0:0:
192,192,172219,128,0,172552:0:0:0:0:
320,192,172386,128,0,173386:0:0:0:0:
64,192,172552,128,0,172719:0:0:0:0:
448,192,172719,128,0,172886:0:0:0:0:
64,192,172886,128,0,173219:0:0:0:0:
192,192,173052,128,0,173219:0:0:0:0:
448,192,173219,128,0,173386:0:0:0:0:
192,192,173386,128,0,173552:0:0:0:0:
64,192,173386,128,0,174386:0:0:0:0:
320,192,173552,128,0,173719:0:0:0:0:
448,192,173719,128,0,173886:0:0:0:0:
320,192,173886,128,0,174219:0:0:0:0:
192,192,173886,128,0,174052:0:0:0:0:
448,192,174052,128,0,174386:0:0:0:0:
192,192,174219,128,0,174386:0:0:0:0:
320,192,174386,128,0,174886:0:0:0:0:
192,192,174719,128,0,174886:0:0:0:0:
448,192,174886,128,0,175052:0:0:0:0:
320,192,175219,128,0,175386:0:0:0:0:
64,192,175386,128,0,175552:0:0:0:0:
192,192,175719,128,0,175886:0:0:0:0:
448,192,175886,128,0,176052:0:0:0:0:
64,192,176219,128,0,176386:0:0:0:0:
192,192,176386,128,0,176552:0:0:0:0:
320,192,176552,128,0,176719:0:0:0:0:
64,192,176719,128,0,176886:0:0:0:0:
448,192,176886,128,0,177052:0:0:0:0:
448,192,177219,128,0,177386:0:0:0:0:
320,192,177386,128,0,177552:0:0:0:0:
192,192,177552,128,0,177719:0:0:0:0:
448,192,177719,128,0,177886:0:0:0:0:
64,192,177886,128,0,178052:0:0:0:0:
320,192,178052,128,0,178219:0:0:0:0:
192,192,178219,128,0,178386:0:0:0:0:
448,192,178386,128,0,178552:0:0:0:0:
320,192,178386,128,0,178552:0:0:0:0:
64,192,178552,128,0,178719:0:0:0:0:
320,192,178719,128,0,179052:0:0:0:0:
192,192,178886,128,0,179052:0:0:0:0:
448,192,179052,128,0,179219:0:0:0:0:
64,192,179219,128,0,179552:0:0:0:0:
192,192,179386,128,0,179552:0:0:0:0:
448,192,179552,128,0,179719:0:0:0:0:
320,192,179719,128,0,180052:0:0:0:0:
64,192,179886,128,0,180052:0:0:0:0:
192,192,180219,128,0,180386:0:0:0:0:
320,192,180386,128,0,180552:0:0:0:0:
64,192,180386,128,0,180552:0:0:0:0:
448,192,180552,128,0,180719:0:0:0:0:
192,192,180719,128,0,180886:0:0:0:0:
448,192,180886,128,0,181219:0:0:0:0:
192,192,181219,128,0,181386:0:0:0:0:
64,192,181386,128,0,181719:0:0:0:0:
320,192,181386,128,0,181552:0:0:0:0:
448,192,181552,128,0,181719:0:0:0:0:
192,192,181719,128,0,181886:0:0:0:0:
320,192,181886,128,0,182052:0:0:0:0:
448,192,181886,128,0,182219:0:0:0:0:
64,192,182052,128,0,182219:0:0:0:0:
320,192,182219,128,0,182386:0:0:0:0:
192,192,182386,128,0,182552:0:0:0:0:
64,192,182386,128,0,182719:0:0:0:0:
320,192,182719,128,0,182886:0:0:0:0:
448,192,182886,128,0,183052:0:0:0:0:
64,192,183052,128,0,183219:0:0:0:0:
320,192,183219,128,0,183552:0:0:0:0:
192,192,183386,128,0,183552:0:0:0:0:
448,192,183552,128,0,183719:0:0:0:0:
64,192,183719,128,0,184052:0:0:0:0:
192,192,183886,128,0,184219:0:0:0:0:
320,192,184219,128,0,184719:0:0:0:0:
192,192,184386,128,0,184552:0:0:0:0:
448,192,184552,128,0,184886:0:0:0:0:
192,192,184719,128,0,185052:0:0:0:0:
320,192,184886,128,0,185219:0:0:0:0:
64,192,185052,128,0,185386:0:0:0:0:
192,192,185219,128,0,185552:0:0:0:0:
320,192,185386,128,0,185552:0:0:0:0:
192,192,185719,128,0,186052:0:0:0:0:
448,192,185886,128,0,186052:0:0:0:0:
320,192,186052,128,0,186219:0:0:0:0:
192,192,186219,128,0,186386:0:0:0:0:
64,192,186386,128,0,186552:0:0:0:0:
448,192,186386,128,0,186719:0:0:0:0:
320,192,186552,128,0,186719:0:0:0:0:
192,192,186719,128,0,186886:0:0:0:0:
320,192,186886,128,0,187052:0:0:0:0:
64,192,186886,128,0,187219:0:0:0:0:
320,192,187219,128,0,187552:0:0:0:0:
64,192,187386,128,0,187552:0:0:0:0:
192,192,187386,128,0,187552:0:0:0:0:
448,192,187552,128,0,187719:0:0:0:0:
192,192,187719,128,0,188052:0:0:0:0:
448,192,187886,128,0,188052:0:0:0:0:
320,192,188219,128,0,188552:0:0:0:0:
192,192,188386,128,0,188719:0:0:0:0:
64,192,188386,128,0,188886:0:0:0:0:
448,192,188552,128,0,188719:0:0:0:0:
320,192,188719,128,0,189052:0:0:0:0:
192,192,188886,128,0,189052:0:0:0:0:
448,192,188886,128,0,189219:0:0:0:0:
64,192,189052,128,0,189386:0:0:0:0:
192,192,189219,128,0,189552:0:0:0:0:
320,192,189386,128,0,189886:0:0:0:0:
448,192,189386,128,0,189719:0:0:0:0:
64,192,189552,128,0,189719:0:0:0:0:
192,192,189719,128,0,190052:0:0:0:0:
64,192,189886,128,0,190219:0:0:0:0:
448,192,189886,128,0,190219:0:0:0:0:
320,192,190052,128,0,190219:0:0:0:0:
192,192,190219,128,0,190552:0:0:0:0:
64,192,190386,128,0,190552:0:0:0:0:
448,192,190386,128,0,190552:0:0:0:0:
320,192,190386,128,0,190886:0:0:0:0:
192,192,190719,128,0,191052:0:0:0:0:
448,192,190886,128,0,191052:0:0:0:0:
64,192,190886,128,0,191386:0:0:0:0:
320,192,191219,128,0,191552:0:0:0:0:
192,192,191386,128,0,191719:0:0:0:0:
448,192,191386,128,0,191719:0:0:0:0:
320,192,191719,128,0,192052:0:0:0:0:
448,192,191886,128,0,192052:0:0:0:0:
64,192,191886,128,0,192052:0:0:0:0:
64,192,192219,128,0,192386:0:0:0:0:
320,192,192219,128,0,192552:0:0:0:0:
192,192,192386,128,0,192719:0:0:0:0:
448,192,192386,128,0,192552:0:0:0:0:
64,192,192552,128,0,192886:0:0:0:0:
448,192,192719,128,0,193219:0:0:0:0:
192,192,192886,128,0,193052:0:0:0:0:
320,192,192886,128,0,193052:0:0:0:0:
320,192,193219,128,0,193386:0:0:0:0:
64,192,193219,128,0,193386:0:0:0:0:
192,192,193386,128,0,193552:0:0:0:0:
448,192,193386,128,0,193719:0:0:0:0:
64,192,193552,128,0,193886:0:0:0:0:
192,192,193719,128,0,194052:0:0:0:0:
320,192,193886,128,0,194052:0:0:0:0:
448,192,193886,128,0,194052:0:0:0:0:
64,192,194052,128,0,194219:0:0:0:0:
448,192,194219,128,0,194386:0:0:0:0:
320,192,194386,128,0,194552:0:0:0:0:
192,192,194386,128,0,194719:0:0:0:0:
64,192,194552,128,0,194719:0:0:0:0:
448,192,194719,128,0,194886:0:0:0:0:
320,192,194719,128,0,195052:0:0:0:0:
64,192,194886,128,0,195052:0:0:0:0:
192,192,194886,128,0,195219:0:0:0:0:
448,192,195219,128,0,195386:0:0:0:0:
64,192,195219,128,0,195552:0:0:0:0:
320,192,195386,128,0,195719:0:0:0:0:
192,192,195386,128,0,195552:0:0:0:0:
448,192,195552,128,0,195719:0:0:0:0:
64,192,195719,128,0,195886:0:0:0:0:
192,192,195719,128,0,196052:0:0:0:0:
448,192,195886,128,0,196219:0:0:0:0:
320,192,195886,128,0,196052:0:0:0:0:
64,192,196052,128,0,196219:0:0:0:0:
192,192,196219,128,0,196386:0:0:0:0:
320,192,196219,128,0,196552:0:0:0:0:
448,192,196386,128,0,196719:0:0:0:0:
64,192,196386,128,0,196552:0:0:0:0:
192,192,196552,128,0,197052:0:0:0:0:
320,192,196719,128,0,196886:0:0:0:0:
64,192,196886,128,0,197219:0:0:0:0:
448,192,196886,128,0,197052:0:0:0:0:
320,192,197052,128,0,197219:0:0:0:0:
448,192,197219,128,0,197719:0:0:0:0:
192,192,197219,128,0,197386:0:0:0:0:
320,192,197386,128,0,197719:0:0:0:0:
64,192,197386,128,0,197552:0:0:0:0:
192,192,197552,128,0,198219:0:0:0:0:
64,192,197719,128,0,198052:0:0:0:0:
320,192,197886,128,0,198386:0:0:0:0:
448,192,197886,128,0,198552:0:0:0:0:
192,192,198386,128,0,198552:0:0:0:0:
64,192,198386,128,0,198552:0:0:0:0:
192,192,198719,128,0,198886:0:0:0:0:
320,192,198886,128,0,199052:0:0:0:0:
448,192,199219,128,0,199552:0:0:0:0:
64,192,199386,128,0,199552:0:0:0:0:
192,192,199719,128,0,200052:0:0:0:0:
320,192,199886,128,0,200219:0:0:0:0:
192,192,200219,128,0,200386:0:0:0:0:
64,192,200219,128,0,200386:0:0:0:0:
320,192,200386,128,0,200552:0:0:0:0:
448,192,200386,128,0,200719:0:0:0:0:
192,192,200552,128,0,200719:0:0:0:0:
320,192,200719,128,0,200886:0:0:0:0:
448,192,200886,128,0,201052:0:0:0:0:
64,192,200886,128,0,201219:0:0:0:0:
448,192,201219,128,0,201386:0:0:0:0:
192,192,201219,128,0,201386:0:0:0:0:
320,192,201386,128,0,201552:0:0:0:0:
64,192,201386,128,0,201719:0:0:0:0:
320,192,201719,128,0,202219:0:0:0:0:
64,192,201886,128,0,202052:0:0:0:0:
192,192,202052,128,0,202386:0:0:0:0:
448,192,202219,128,0,202552:0:0:0:0:
320,192,202386,128,0,202552:0:0:0:0:
64,192,202386,128,0,202552:0:0:0:0:
64,192,202719,128,0,202886:0:0:0:0:
448,192,202886,128,0,203052:0:0:0:0:
192,192,203219,128,0,203552:0:0:0:0:
320,192,203386,128,0,203552:0:0:0:0:
448,192,203719,128,0,204052:0:0:0:0:
192,192,203886,128,0,204219:0:0:0:0:
320,192,204219,128,0,204386:0:0:0:0:
448,192,204219,128,0,204386:0:0:0:0:
192,192,204386,128,0,204552:0:0:0:0:
64,192,204386,128,0,204552:0:0:0:0:
192,192,204886,128,0,205052:0:0:0:0:
64,192,205219,128,0,205386:0:0:0:0:
320,192,205386,128,0,205552:0:0:0:0:
448,192,205386,128,0,206052:0:0:0:0:
320,192,205886,128,0,206219:0:0:0:0:
192,192,205886,128,0,206552:0:0:0:0:
320,192,206386,128,0,206719:0:0:0:0:
192,192,206719,128,0,207052:0:0:0:0:
448,192,206886,128,0,207219:0:0:0:0:
64,192,207219,128,0,207552:0:0:0:0:
320,192,207386,128,0,207719:0:0:0:0:
192,192,207719,128,0,208052:0:0:0:0:
64,192,207886,128,0,208219:0:0:0:0:
320,192,208219,128,0,208552:0:0:0:0:
192,192,208386,128,0,208719:0:0:0:0:
448,192,208386,128,0,208552:0:0:0:0:
320,192,208719,128,0,208886:0:0:0:0:
448,192,208886,128,0,209219:0:0:0:0:
64,192,208886,128,0,209219:0:0:0:0:
192,192,209219,128,0,209386:0:0:0:0:
320,192,209386,128,0,209719:0:0:0:0:
64,192,209386,128,0,209719:0:0:0:0:
448,192,209719,128,0,210052:0:0:0:0:
192,192,209886,128,0,210219:0:0:0:0:
64,192,209886,128,0,210386:0:0:0:0:
320,192,210386,128,0,210886:0:0:0:0:
448,192,210386,128,0,210719:0:0:0:0:
192,192,210719,128,0,211052:0:0:0:0:
64,192,210886,128,0,211219:0:0:0:0:
448,192,210886,128,0,211386:0:0:0:0:
192,192,211219,128,0,211719:0:0:0:0:
64,192,211386,128,0,211552:0:0:0:0:
320,192,211386,128,0,211886:0:0:0:0:
448,192,211719,128,0,211886:0:0:0:0:
64,192,211886,128,0,212219:0:0:0:0:
192,192,211886,128,0,212386:0:0:0:0:
320,192,212219,128,0,212719:0:0:0:0:
448,192,212386,128,0,212552:0:0:0:0:
64,192,212386,128,0,212886:0:0:0:0:
192,192,212719,128,0,213052:0:0:0:0:
448,192,212886,128,0,213386:0:0:0:0:
320,192,212886,128,0,213219:0:0:0:0:
192,192,213219,128,0,213552:0:0:0:0:
64,192,213386,128,0,213719:0:0:0:0:
320,192,213386,128,0,213552:0:0:0:0:
320,192,213719,128,0,214052:0:0:0:0:
64,192,213886,128,0,214219:0:0:0:0:
448,192,213886,128,0,214052:0:0:0:0:
192,192,214219,128,0,214386:0:0:0:0:
320,192,214386,128,0,214719:0:0:0:0:
64,192,214719,128,0,214886:0:0:0:0:
448,192,214886,128,0,215219:0:0:0:0:
192,192,215219,128,0,215386:0:0:0:0:
320,192,215386,128,0,215719:0:0:0:0:
448,192,215719,128,0,215886:0:0:0:0:
64,192,215886,128,0,216219:0:0:0:0:
192,192,216219,128,0,216386:0:0:0:0:
320,192,216386,128,0,216886:0:0:0:0:
448,192,216386,128,0,216719:0:0:0:0:
64,192,216719,128,0,216886:0:0:0:0:
192,192,216886,128,0,217386:0:0:0:0:
448,192,216886,128,0,217052:0:0:0:0:
448,192,217219,128,0,217552:0:0:0:0:
320,192,217386,128,0,217719:0:0:0:0:
64,192,217386,128,0,217886:0:0:0:0:
448,192,217719,128,0,218052:0:0:0:0:
320,192,217886,128,0,218219:0:0:0:0:
192,192,217886,128,0,218386:0:0:0:0:
64,192,218386,128,0,218886:0:0:0:0:
448,192,218386,128,0,218719:0:0:0:0:
320,192,218719,128,0,219052:0:0:0:0:
192,192,218886,128,0,219219:0:0:0:0:
448,192,218886,128,0,219386:0:0:0:0:
64,192,219219,128,0,219552:0:0:0:0:
192,192,219386,128,0,219719:0:0:0:0:
320,192,219386,128,0,219886:0:0:0:0:
64,192,219719,128,0,220219:0:0:0:0:
192,192,219886,128,0,220052:0:0:0:0:
448,192,219886,128,0,220386:0:0:0:0:
192,192,220219,128,0,220719:0:0:0:0:
320,192,220386,128,0,220886:0:0:0:0:
64,192,220386,128,0,220552:0:0:0:0:
448,192,220719,128,0,221052:0:0:0:0:
192,192,220886,128,0,221219:0:0:0:0:
64,192,220886,128,0,221386:0:0:0:0:
448,192,221219,128,0,221552:0:0:0:0:
320,192,221386,128,0,221719:0:0:0:0:
192,192,221386,128,0,221886:0:0:0:0:
64,192,221719,128,0,222052:0:0:0:0:
320,192,221886,128,0,222052:0:0:0:0:
448,192,221886,128,0,222219:0:0:0:0:
192,192,222052,128,0,222386:0:0:0:0:
320,192,222219,128,0,222386:0:0:0:0:
448,192,222386,128,0,222552:0:0:0:0:
192,192,222719,128,0,222886:0:0:0:0:
320,192,222886,128,0,223052:0:0:0:0:
64,192,223219,128,0,223386:0:0:0:0:
192,192,223386,128,0,223552:0:0:0:0:
448,192,223719,128,0,223886:0:0:0:0:
320,192,223886,128,0,224219:0:0:0:0:
64,192,224219,128,0,224386:0:0:0:0:
192,192,224386,128,0,224719:0:0:0:0:
448,192,224719,128,0,224886:0:0:0:0:
192,192,224886,128,0,225052:0:0:0:0:
64,192,225219,128,0,225386:0:0:0:0:
320,192,225386,128,0,225719:0:0:0:0:
192,192,225719,128,0,226052:0:0:0:0:
448,192,225886,128,0,226052:0:0:0:0:
320,192,226052,128,0,226219:0:0:0:0:
64,192,226219,128,0,226386:0:0:0:0:
448,192,226386,128,0,226719:0:0:0:0:
192,192,226719,128,0,227052:0:0:0:0:
320,192,226886,128,0,227052:0:0:0:0:
448,192,227219,128,0,227386:0:0:0:0:
64,192,227386,128,0,227719:0:0:0:0:
320,192,227719,128,0,228052:0:0:0:0:
192,192,227886,128,0,228052:0:0:0:0:
448,192,228219,128,0,228552:0:0:0:0:
192,192,228386,128,0,228719:0:0:0:0:
64,192,228719,128,0,228886:0:0:0:0:
448,192,228886,128,0,229052:0:0:0:0:
192,192,229219,128,0,229552:0:0:0:0:
320,192,229386,128,0,229552:0:0:0:0:
448,192,229719,128,0,229886:0:0:0:0:
192,192,229886,128,0,230052:0:0:0:0:
448,192,230219,128,0,230386:0:0:0:0:
64,192,230386,128,0,230719:0:0:0:0:
192,192,230719,128,0,230886:0:0:0:0:
448,192,230886,128,0,231052:0:0:0:0:
320,192,231219,128,0,231552:0:0:0:0:
192,192,231386,128,0,231552:0:0:0:0:
448,192,231719,128,0,231886:0:0:0:0:
192,192,231886,128,0,232219:0:0:0:0:
320,192,232219,128,0,232386:0:0:0:0:
448,192,232386,128,0,232719:0:0:0:0:
64,192,232386,128,0,232552:0:0:0:0:
192,192,232719,128,0,232886:0:0:0:0:
320,192,232886,128,0,233052:0:0:0:0:
192,192,233219,128,0,233386:0:0:0:0:
448,192,233386,128,0,233719:0:0:0:0:
64,192,233719,128,0,234052:0:0:0:0:
320,192,233886,128,0,234052:0:0:0:0:
192,192,234052,128,0,234219:0:0:0:0:
64,192,234219,128,0,234386:0:0:0:0:
448,192,234386,128,0,234719:0:0:0:0:
192,192,234719,128,0,234886:0:0:0:0:
320,192,234886,128,0,235052:0:0:0:0:
448,192,235219,128,0,235386:0:0:0:0:
64,192,235386,128,0,235719:0:0:0:0:
320,192,235719,128,0,235886:0:0:0:0:
448,192,235886,128,0,236219:0:0:0:0:
192,192,236219,128,0,236386:0:0:0:0:
64,192,236386,128,0,236719:0:0:0:0:
320,192,236719,128,0,236886:0:0:0:0:
192,192,236886,128,0,237052:0:0:0:0:
320,192,237219,128,0,237386:0:0:0:0:
448,192,237386,128,0,237552:0:0:0:0:
64,192,237386,128,0,237552:0:0:0:0:
64,192,237886,128,0,238386:0:0:0:0:
448,192,237886,128,0,239386:0:0:0:0:
