osu file format v14

[General]
AudioFilename: mp3.mp3
AudioLeadIn: 0
PreviewTime: 40912
Countdown: 0
SampleSet: Soft
StackLeniency: 0.2
Mode: 0
LetterboxInBreaks: 0
WidescreenStoryboard: 1

[Editor]
Bookmarks: 73251
DistanceSpacing: 1
BeatDivisor: 4
GridSize: 4
TimelineZoom: 0.9

[Metadata]
Title:Summoning 101
TitleUnicode:Summoning 101
Artist:Mili
ArtistUnicode:Mili
Creator:Pappy
Version:Normal
Source:
Tags:Millenium Mother Yamato Kasai Momocashew HAMO Yukihito Mitomo Shoto Yoshida projectmili Single
BeatmapID:1758840
BeatmapSetID:834479

[Difficulty]
HPDrainRate:4
CircleSize:3
OverallDifficulty:3.9
ApproachRate:4.9
SliderMultiplier:1.12
SliderTickRate:1

[Events]
//Background and Video events
0,0,"world_of_warcraft_worgen-wallpaper-1920x1080.jpg",0,0
//Break Periods
2,93451,102362
//Storyboard Layer 0 (Background)
//Storyboard Layer 1 (Fail)
//Storyboard Layer 2 (Pass)
//Storyboard Layer 3 (Foreground)
//Storyboard Sound Samples

[TimingPoints]
348,322.58064516129,4,2,1,70,1,0
348,-100,4,2,1,70,0,0
9702,-100,4,2,1,70,0,0
15831,-100,4,2,1,70,0,0
20993,-100,4,2,1,30,0,0
23573,-100,4,2,1,40,0,0
26154,-100,4,2,1,60,0,0
36477,-111.111111111111,4,2,1,60,0,0
40670,-100,4,2,1,60,0,0
41638,-100,4,2,1,80,0,1
62283,-100,4,2,1,70,0,0
67444,-100,4,2,1,70,0,0
72606,-100,4,2,1,50,0,0
75186,-100,4,2,1,50,0,0
75831,-100,4,2,1,50,0,0
76477,-100,4,2,1,50,0,0
77767,-100,4,2,1,70,0,0
82928,-100,4,2,1,70,0,0
103573,-100,4,2,1,70,0,0
111315,-100,4,2,1,70,0,0
112606,-100,4,2,1,70,0,0
117767,-100,4,2,1,80,0,1
156477,-100,4,2,1,80,0,1
159057,-100,4,2,1,40,0,0
164218,-100,4,2,1,40,0,0
169380,-100,4,2,1,10,0,0

[Colours]
Combo1 : 83,60,82
Combo2 : 183,155,135
Combo3 : 163,125,125
Combo4 : 115,87,87
SliderBorder : 163,125,125
SliderTrackOverride : 183,155,135

[HitObjects]
321,98,348,6,0,B|428:65|428:65|479:86,2,168
36,81,2928,2,0,P|22:162|58:236,2,168
428,295,5509,2,0,B|348:316|352:272|263:295,2,168
117,68,8089,6,0,B|95:177|95:177|119:228,1,168
148,276,8735,2,0,P|210:261|251:229,1,112
277,124,9380,1,0,0:0:0:0:
364,54,9702,2,0,P|470:76|477:179,1,224
367,191,10670,6,0,P|362:294|463:318,1,224
479,207,11638,1,0,0:0:0:0:
437,102,11960,2,0,P|388:78|327:82,1,112
255,162,12606,1,0,0:0:0:0:
148,195,12928,1,0,0:0:0:0:
148,195,13089,1,0,0:0:0:0:
148,195,13251,6,0,L|164:311,1,112
253,373,13896,2,0,L|268:262,1,112
362,201,14541,2,0,P|464:187|495:240,2,168
346,312,15831,6,0,L|293:94,1,224
188,53,16799,1,0,0:0:0:0:
79,22,17122,2,0,B|53:142|156:113|124:235,1,224
17,198,18089,1,0,0:0:0:0:
42,307,18412,6,0,P|143:342|227:275,2,224
17,198,20025,1,0,0:0:0:0:
76,103,20347,2,0,P|103:107|131:122,1,56
112,174,20670,2,0,P|121:200|122:232,1,56
80,265,20993,5,0,0:0:0:0:
442,191,22283,1,0,0:0:0:0:
80,119,23573,6,0,L|90:230,1,112
181,164,24218,2,0,L|191:275,1,112
292,319,24864,2,0,B|282:210|282:210|351:202|386:243,1,224
508,55,26154,6,0,P|426:38|344:55,1,168
301,91,26799,2,0,L|186:76,1,112
79,59,27444,2,0,P|90:139|159:184,2,168
189,76,28735,6,0,L|300:61,1,112
317,114,29218,2,0,L|428:128,2,112
289,163,30025,2,0,L|177:177,1,112
123,192,30509,2,0,P|106:272|153:339,1,168
256,294,31315,6,0,B|319:320|319:320|362:311,1,112
439,230,31960,2,0,B|376:204|376:204|332:212,1,112
224,186,32606,6,0,B|192:100|261:100|224:24,2,168
327,146,33896,1,0,0:0:0:0:
396,233,34219,1,0,0:0:0:0:
336,328,34542,1,0,0:0:0:0:
228,298,34864,1,0,0:0:0:0:
223,185,35186,6,0,B|145:162|71:204|71:204|32:256,1,224
121,325,36154,1,0,0:0:0:0:
230,298,36477,5,0,0:0:0:0:
265,310,37767,2,0,L|250:108,1,201.599993847656
324,26,38735,1,0,0:0:0:0:
403,102,39057,6,0,P|331:210|250:109,1,302.399990771485
324,26,40347,1,0,0:0:0:0:
403,102,40670,2,0,P|458:94|505:65,2,112
324,26,41638,6,0,P|268:33|221:62,1,112
185,105,42122,2,0,L|209:271,1,168
303,332,42928,1,0,0:0:0:0:
398,273,43251,1,0,0:0:0:0:
398,273,43412,2,0,P|426:195|397:118,1,168
292,79,44218,6,0,L|180:89,2,112
397,118,45186,1,0,0:0:0:0:
431,224,45509,2,0,B|293:362|257:197|123:304,1,336
31,368,46799,5,0,0:0:0:0:
22,255,47122,1,0,0:0:0:0:
13,142,47444,1,0,0:0:0:0:
115,190,47767,1,0,0:0:0:0:
217,237,48089,2,0,P|227:183|210:130,2,112
124,303,49057,1,0,0:0:0:0:
114,189,49380,6,0,P|110:82|197:19,1,224
210,130,50347,1,0,0:0:0:0:
317,163,50670,2,0,P|372:164|422:140,2,112
102,99,51960,6,0,L|92:210,1,112
47,245,52444,2,0,P|61:322|139:336,1,168
228,268,53251,5,0,0:0:0:0:
314,338,53573,1,0,0:0:0:0:
314,338,53735,2,0,B|373:303|444:331|444:331|469:310,1,168
423,206,54541,6,0,P|424:151|451:102,2,112
469,310,55509,1,0,0:0:0:0:
355,296,55831,2,0,B|233:322|261:238|143:252,1,224,0|0,2:0|2:0,2:0:0:0:
40,295,56799,1,0,0:0:0:0:
55,184,57122,6,0,B|65:116|65:116|214:74,1,224
321,41,58089,1,0,0:0:0:0:
411,107,58412,2,0,P|419:161|390:207,1,112
363,316,59057,2,0,P|311:296|285:247,1,112
219,157,59702,6,0,P|241:257|145:292,1,224
110,186,60670,1,0,0:0:0:0:
144,79,60993,2,0,L|310:98,1,168
355,201,61799,2,0,L|410:194,1,56
494,120,62283,5,0,0:0:0:0:
410,327,62928,2,0,P|355:338|300:326,1,112
354,228,63573,2,0,B|245:189|244:267|135:228,1,224
188,129,64541,1,0,0:0:0:0:
240,29,64864,6,0,L|365:45,1,112
401,143,65509,2,0,L|526:127,1,112
483,237,66154,2,0,P|495:290|472:340,1,112
380,276,66799,2,0,L|324:283,2,56
397,165,67444,6,0,L|166:136,1,224
67,103,68412,1,0,0:0:0:0:
67,103,68735,2,0,P|72:214|120:314,1,224
224,356,69702,1,0,0:0:0:0:
331,323,70025,6,0,B|364:255|364:255|352:220,1,112
256,161,70670,2,0,B|244:126|244:126|277:58,1,112
374,115,71315,2,0,B|459:144|515:93|515:93|501:165,1,224
416,239,72283,1,0,0:0:0:0:
307,206,72606,6,0,P|252:201|202:228,1,112
171,333,73251,2,0,P|226:337|276:311,1,112
203,226,73896,2,0,P|147:221|97:248,1,112
66,353,74541,2,0,P|121:357|171:331,1,112
203,226,75186,6,0,B|223:55|223:55|278:23,2,224
399,333,77122,1,0,0:0:0:0:
480,124,77767,6,0,P|398:106|316:124,1,168
204,120,78573,1,0,0:0:0:0:
204,120,78735,2,0,L|212:175,1,56
262,201,79057,2,0,L|236:366,2,168
310,99,80347,6,0,P|383:59|466:58,1,168
472,170,81154,2,0,P|423:196|367:196,1,112
312,187,81638,2,0,L|344:360,2,168
255,90,82928,6,0,P|148:70|75:152,1,224
184,175,83896,1,0,0:0:0:0:
184,175,84057,1,0,0:0:0:0:
184,175,84218,2,0,L|158:303,1,112
256,345,84864,2,0,L|278:235,1,112
388,212,85509,6,0,P|482:251|456:351,2,224
277,191,87122,1,0,0:0:0:0:
305,82,87444,2,0,P|299:29|292:15,2,56
193,70,88089,5,0,0:0:0:0:
118,283,89380,2,0,L|339:250,1,224
395,347,90347,1,0,0:0:0:0:
395,346,90670,6,0,P|441:201|298:147,1,336
230,236,91960,1,0,0:0:0:0:
339,250,92283,1,0,0:0:0:0:
339,250,92606,2,0,L|453:226,1,112
489,122,93251,5,0,0:0:0:0:
256,88,103573,5,0,0:0:0:0:
