osu file format v14

[General]
AudioFilename: mp3.mp3
AudioLeadIn: 0
PreviewTime: 40912
Countdown: 0
SampleSet: Soft
StackLeniency: 0.2
Mode: 0
LetterboxInBreaks: 0
WidescreenStoryboard: 1

[Editor]
Bookmarks: 73251
DistanceSpacing: 1
BeatDivisor: 4
GridSize: 4
TimelineZoom: 0.9

[Metadata]
Title:Summoning 101
TitleUnicode:Summoning 101
Artist:Mili
ArtistUnicode:Mili
Creator:Pappy
Version:Insane
Source:
Tags:Millenium Mother Yamato Kasai Momocashew HAMO Yukihito Mitomo Shoto Yoshida projectmili Single
BeatmapID:1759476
BeatmapSetID:834479

[Difficulty]
HPDrainRate:5
CircleSize:3.8
OverallDifficulty:7.6
ApproachRate:8.6
SliderMultiplier:1.7
SliderTickRate:1

[Events]
//Background and Video events
0,0,"world_of_warcraft_worgen-wallpaper-1920x1080.jpg",0,0
//Break Periods
2,93451,102853
//Storyboard Layer 0 (Background)
//Storyboard Layer 1 (Fail)
//Storyboard Layer 2 (Pass)
//Storyboard Layer 3 (Foreground)
//Storyboard Sound Samples

[TimingPoints]
348,322.58064516129,4,2,1,70,1,0
348,-200,4,2,1,70,0,0
9702,-100,4,2,1,70,0,0
15831,-125,4,2,1,70,0,0
20993,-222.222222222222,4,2,1,30,0,0
23573,-181.818181818181,4,2,1,40,0,0
24218,-153.846153846153,4,2,1,40,0,0
24864,-133.333333333333,4,2,1,40,0,0
26154,-111.111111111111,4,2,1,60,0,0
40670,-83.3333333333333,4,2,1,60,0,0
41638,-83.3333333333333,4,2,1,80,0,1
62283,-111.111111111111,4,2,1,70,0,0
67444,-125,4,2,1,70,0,0
72606,-200,4,2,1,50,0,0
75186,-166.666666666667,4,2,1,50,0,0
75831,-142.857142857143,4,2,1,50,0,0
76477,-111.111111111111,4,2,1,50,0,0
77767,-111.111111111111,4,2,1,70,0,0
82928,-133.333333333333,4,2,1,70,0,0
103573,-181.818181818181,4,2,1,70,0,0
111315,-111.111111111111,4,2,1,70,0,0
112606,-83.3333333333333,4,2,1,70,0,0
117767,-83.3333333333333,4,2,1,80,0,1
156477,-83.3333333333333,4,2,1,80,0,1
159057,-133.333333333333,4,2,1,40,0,0
164218,-285.714285714284,4,2,1,40,0,0
169380,-285.714285714284,4,2,1,10,0,0

[Colours]
Combo1 : 83,60,82
Combo2 : 183,155,135
Combo3 : 163,125,125
Combo4 : 115,87,87
SliderBorder : 163,125,125
SliderTrackOverride : 183,155,135

[HitObjects]
29,93,348,6,0,P|29:135|49:171,1,85,4|0,0:0|0:0,0:0:0:0:
210,129,831,2,0,P|209:86|189:50,1,85,4|0,0:0|0:0,0:0:0:0:
119,108,1315,2,0,L|162:272,1,170,4|0,0:0|0:0,0:0:0:0:
187,349,2122,1,2,0:0:0:0:
187,349,2283,1,2,0:0:0:0:
325,349,2606,1,0,0:0:0:0:
325,349,2767,1,2,0:0:0:0:
462,317,2928,6,0,L|476:233,1,85,4|0,0:0|0:0,0:0:0:0:
393,194,3412,2,0,L|379:278,1,85,4|0,0:0|0:0,0:0:0:0:
475,233,3896,2,0,L|454:107,1,127.5,4|0,0:0|0:0,0:0:0:0:
364,77,4541,2,0,P|360:56|358:34,1,42.5,0|0,0:0|0:0,0:0:0:0:
379,162,4864,2,0,P|377:183|373:204,1,42.5,0|0,0:0|0:0,0:0:0:0:
308,258,5186,1,8,0:0:0:0:
291,272,5509,6,0,L|297:314,1,42.5,4|0,0:0|0:0,0:0:0:0:
200,225,5831,1,2,0:0:0:0:
205,328,5993,2,0,L|211:370,1,42.5,4|0,0:0|0:0,0:0:0:0:
286,169,6315,1,2,0:0:0:0:
291,272,6477,1,4,0:0:0:0:
303,286,7444,2,0,P|345:285|384:268,1,85,2|0,0:0|0:0,0:0:0:0:
384,268,7928,1,2,0:0:0:0:
442,334,8089,6,0,B|468:307|468:307|478:217,1,127.5,6|2,0:0|0:0,0:0:0:0:
483,132,8735,1,10,0:0:0:0:
334,122,8896,1,10,0:0:0:0:
406,170,9057,1,10,0:0:0:0:
329,208,9218,1,10,0:0:0:0:
411,84,9380,5,10,0:0:0:0:
338,35,9702,2,0,L|296:43,11,42.5,0|0|0|0|0|0|0|0|10|8|8|8,0:0|0:0|0:0|0:0|0:0|0:0|0:0|0:0|0:0|0:0|0:0|0:0,0:0:0:0:
256,93,10670,6,0,P|214:99|171:95,1,85,6|0,0:0|0:0,0:0:0:0:
92,64,10993,1,8,0:0:0:0:
92,64,11154,1,0,0:0:0:0:
103,148,11315,2,0,L|111:233,1,85,2|0,0:0|0:0,0:0:0:0:
195,185,11638,2,0,L|188:270,1,85,10|0,0:0|0:0,0:0:0:0:
193,354,11960,5,2,0:0:0:0:
115,319,12122,1,0,0:0:0:0:
193,354,12283,2,0,B|281:371|274:309|356:327,1,170,8|0,0:0|0:0,0:0:0:0:
434,361,12767,1,0,0:0:0:0:
446,224,12928,1,10,0:0:0:0:
489,295,13089,1,2,0:0:0:0:
364,242,13251,6,0,P|323:231|281:226,1,85,2|0,0:0|0:0,0:0:0:0:
162,165,13573,2,0,P|203:154|246:149,1,85,10|0,0:0|0:0,0:0:0:0:
412,146,13896,2,0,P|371:135|329:130,1,85,2|0,0:0|0:0,0:0:0:0:
123,80,14218,2,0,P|163:68|206:63,1,85,10|0,0:0|0:0,0:0:0:0:
493,113,14541,6,0,P|412:135|328:129,1,170,2|8,0:0|0:0,0:0:0:0:
255,84,15025,1,8,0:0:0:0:
252,169,15186,1,0,0:0:0:0:
331,44,15347,1,0,0:0:0:0:
183,39,15509,1,8,0:0:0:0:
162,52,15831,6,0,L|173:120,1,68,6|0,0:0|0:0,0:0:0:0:
100,156,16154,2,0,L|111:224,1,68,0|0,0:0|0:0,0:0:0:0:
53,282,16477,2,0,P|114:306|172:276,1,136,8|0,0:0|0:0,0:0:0:0:
254,274,16960,1,0,0:0:0:0:
254,274,17041,1,0,0:0:0:0:
254,273,17122,6,0,P|285:261|319:258,1,68,2|0,0:0|0:0,0:0:0:0:
393,291,17444,2,0,P|424:303|458:306,1,68,0|0,0:0|0:0,0:0:0:0:
512,368,17767,2,0,L|493:215,1,136,8|2,0:0|0:0,0:0:0:0:
425,190,18251,1,0,0:0:0:0:
425,190,18331,1,0,0:0:0:0:
425,190,18412,6,0,L|434:113,1,68,2|0,0:0|0:0,0:0:0:0:
443,32,18735,2,0,L|380:58,1,68,2|0,0:0|0:0,0:0:0:0:
297,95,19057,2,0,L|352:136,1,68,10|0,0:0|0:0,0:0:0:0:
425,190,19380,2,0,P|428:223|423:257,1,68,2|8,0:0|0:0,0:0:0:0:
399,290,19622,1,8,0:0:0:0:
399,290,19702,6,0,L|256:276,1,136,2|0,0:0|0:0,0:0:0:0:
244,297,20347,2,0,P|240:330|248:363,1,68,10|8,0:0|3:0,0:0:0:0:
323,236,20670,2,0,P|326:202|318:169,1,68,8|8,3:0|3:0,0:0:0:0:
247,101,20993,6,0,B|185:115|133:85|133:85|107:108,1,152.999995330811,6|2,0:0|0:0,0:0:0:0:
19,133,21960,1,2,0:0:0:0:
18,132,22283,2,0,P|21:151|25:170,1,38.2499988327027,2|0,0:0|0:0,0:0:0:0:
99,184,22606,2,0,P|96:202|92:221,1,38.2499988327027,0|0,0:0|0:0,0:0:0:0:
43,279,22928,1,2,0:0:0:0:
43,279,23573,6,0,L|136:283,1,93.5000028533936,2|0,0:0|0:0,0:0:0:0:
86,366,24218,6,0,L|196:360,1,110.499994941712,2|0,0:0|0:0,0:0:0:0:
4,214,24864,6,0,L|258:226,1,255.000009727478,2|2,0:0|0:0,0:0:0:0:
258,226,26154,6,0,P|256:150|208:93,1,152.999995330811,6|8,0:0|0:0,0:0:0:0:
117,82,26638,1,8,0:0:0:0:
117,82,26718,1,8,0:0:0:0:
117,82,26799,2,0,L|41:93,1,76.4999976654053,10|0,0:0|0:0,0:0:0:0:
51,210,27122,1,0,0:0:0:0:
144,190,27283,1,10,0:0:0:0:
194,37,27444,6,0,L|42:13,1,152.999995330811,6|8,0:0|0:0,0:0:0:0:
169,115,27928,1,0,0:0:0:0:
169,115,28089,2,0,P|206:117|245:98,1,76.4999976654053,8|4,0:0|0:0,0:0:0:0:
333,98,28412,2,0,P|370:96|409:115,1,76.4999976654053,0|0,0:0|0:0,0:0:0:0:
390,271,28735,5,6,0:0:0:0:
352,187,28896,1,8,0:3:0:0:
444,196,29057,1,8,0:3:0:0:
427,355,29218,2,0,P|353:356|302:302,2,152.999995330811,2|12|8,0:0|0:0|0:0,0:0:0:0:
390,271,30025,2,0,L|372:103,1,152.999995330811,2|0,0:0|0:0,0:0:0:0:
373,118,30509,1,0,0:0:0:0:
266,51,30831,2,0,L|214:42,5,38.2499988327027,8|8|8|8|8|8,0:0|0:0|0:0|0:0|0:0|0:0,0:0:0:0:
194,37,31315,5,6,0:0:0:0:
128,102,31477,2,0,L|30:87,1,76.4999976654053,0|8,0:0|0:0,0:0:0:0:
165,187,31799,2,0,L|316:163,1,152.999995330811,2|0,0:0|0:0,0:0:0:0:
389,277,32283,2,0,P|351:273|318:254,1,76.4999976654053,8|0,0:0|0:0,0:0:0:0:
307,71,32606,6,0,P|344:74|377:93,1,76.4999976654053,2|2,0:0|0:0,0:0:0:0:
316,163,32928,1,8,0:0:0:0:
222,35,33089,2,0,L|370:0,1,152.999995330811,2|0,0:0|0:0,0:0:0:0:
451,75,33573,2,0,L|377:93,1,76.4999976654053,8|0,0:0|0:0,0:0:0:0:
286,71,33896,5,10,0:0:0:0:
377,93,34057,1,0,0:0:0:0:
222,139,34218,1,10,0:0:0:0:
313,161,34380,1,0,0:0:0:0:
158,207,34541,1,10,0:0:0:0:
249,229,34703,1,0,0:0:0:0:
94,275,34864,1,10,0:0:0:0:
185,297,35026,1,0,0:0:0:0:
67,185,35186,5,2,0:0:0:0:
85,157,35509,2,0,P|84:131|78:106,2,50.9999984436036,0|8|8,0:0|0:0|0:0,0:0:0:0:
118,236,35831,2,0,P|139:222|158:205,2,50.9999984436036,0|0|0,0:0|0:0|0:0,0:0:0:0:
65,303,36154,2,0,P|87:315|111:322,2,50.9999984436036,8|8|8,0:3|0:3|0:3,0:0:0:0:
34,225,36477,5,6,0:0:0:0:
407,155,37767,1,2,0:0:0:0:
101,98,38735,1,0,0:0:0:0:
173,163,39057,2,0,B|251:177|246:131|322:150,1,152.999995330811,6|0,0:0|0:0,0:0:0:0:
292,237,39541,1,0,0:0:0:0:
292,237,39702,2,0,P|300:287|316:333,1,76.4999976654053,2|0,0:0|0:0,0:0:0:0:
449,199,40025,2,0,P|443:236|433:273,1,76.4999976654053,2|0,0:0|0:0,0:0:0:0:
346,133,40347,5,6,0:0:0:0:
350,115,40670,1,4,0:0:0:0:
354,97,40993,5,10,0:0:0:0:
352,76,41073,1,0,0:0:0:0:
342,57,41154,1,0,0:0:0:0:
326,43,41235,1,0,0:0:0:0:
306,36,41315,2,0,P|280:34|255:39,3,50.9999984436036,8|8|8|8,0:0|0:0|0:0|0:0,0:0:0:0:
177,23,41638,6,0,P|121:103|161:191,1,203.999993774414,6|8,0:0|0:0,0:0:0:0:
227,282,42122,2,0,P|282:201|242:113,1,203.999993774414,2|0,0:0|0:0,0:0:0:0:
63,216,42606,2,0,L|161:190,1,101.999996887207,10|0,0:0|0:0,0:0:0:0:
328,271,42928,6,0,B|261:287|261:287|194:275|194:275|129:291,1,203.999993774414,2|8,0:0|0:0,0:0:0:0:
1,296,43412,2,0,B|101:270|101:270|161:190,1,203.999993774414,2|0,0:0|0:0,0:0:0:0:
110,115,43896,2,0,L|49:197,1,101.999996887207,10|0,0:0|0:0,0:0:0:0:
153,344,44218,6,0,L|214:262,1,101.999996887207,2|0,0:0|0:0,0:0:0:0:
161,190,44541,1,10,0:0:0:0:
161,190,44702,1,0,0:0:0:0:
1,280,44864,2,0,P|52:281|101:267,1,101.999996887207,2|0,0:0|0:0,0:0:0:0:
313,276,45186,2,0,P|264:261|213:262,1,101.999996887207,10|0,0:0|0:0,0:0:0:0:
153,344,45509,6,0,L|253:167,1,203.999993774414,2|10,0:0|0:0,0:0:0:0:
308,68,45993,1,0,0:0:0:0:
476,161,46154,1,2,0:0:0:0:
365,164,46315,1,8,0:0:0:0:
419,65,46477,1,12,0:0:0:0:
442,73,46799,6,0,L|456:173,1,101.999996887207,2|0,0:0|0:0,0:0:0:0:
288,255,47122,2,0,L|273:154,1,101.999996887207,10|0,0:0|0:0,0:0:0:0:
456,173,47444,2,0,L|441:273,1,101.999996887207,2|0,0:0|0:0,0:0:0:0:
273,154,47767,2,0,L|287:53,1,101.999996887207,10|0,0:0|0:0,0:0:0:0:
456,173,48089,6,0,P|443:221|407:256,1,101.999996887207,2|0,0:0|0:0,0:0:0:0:
340,162,48412,2,0,P|303:127|292:79,1,101.999996887207,10|0,0:0|0:0,0:0:0:0:
406,68,48735,2,0,P|454:54|503:68,1,101.999996887207,2|0,0:0|0:0,0:0:0:0:
407,255,49057,2,0,P|359:269|311:257,1,101.999996887207,10|0,0:0|0:0,0:0:0:0:
297,135,49380,6,0,P|283:226|192:215,1,203.999993774414,6|8,0:0|0:0,0:0:0:0:
192,215,49864,1,0,0:0:0:0:
365,88,50025,2,0,L|335:289,1,203.999993774414,2|8,0:0|0:0,0:0:0:0:
348,310,50670,6,0,P|398:315|446:300,1,101.999996887207,2|0,0:0|0:0,0:0:0:0:
254,353,50993,2,0,P|203:358|155:343,1,101.999996887207,8|0,0:0|0:0,0:0:0:0:
264,251,51315,1,8,0:3:0:0:
201,176,51477,1,8,0:3:0:0:
256,95,51638,1,8,0:0:0:0:
256,95,51960,6,0,P|305:84|354:96,2,101.999996887207,6|0|10,0:0|0:0|0:0,0:0:0:0:
304,218,52444,2,0,P|288:266|253:302,2,101.999996887207,2|0|2,0:0|0:0|0:0,0:0:0:0:
173,198,52928,2,0,P|138:160|124:112,1,101.999996887207,10|0,0:0|0:0,0:0:0:0:
292,0,53251,6,0,L|256:95,1,101.999996887207,6|0,0:0|0:0,0:0:0:0:
256,94,53573,1,10,0:0:0:0:
375,76,53735,2,0,L|338:171,1,101.999996887207,2|0,0:0|0:0,0:0:0:0:
339,171,54057,1,2,0:0:0:0:
458,152,54218,2,0,L|421:247,1,101.999996887207,10|0,0:0|0:0,0:0:0:0:
314,281,54541,5,6,0:0:0:0:
396,357,54702,1,0,0:0:0:0:
339,171,54864,1,10,0:0:0:0:
421,247,55025,1,0,0:0:0:0:
314,281,55186,5,2,0:0:0:0:
396,357,55347,1,0,0:0:0:0:
339,171,55509,1,10,0:0:0:0:
421,247,55670,1,0,0:0:0:0:
231,204,55831,6,0,P|250:108|337:62,1,203.999993774414,2|8,0:0|0:0,0:0:0:0:
396,279,56477,1,2,0:0:0:0:
287,306,56638,1,8,0:0:0:0:
294,316,56718,1,8,0:0:0:0:
302,325,56799,2,0,L|200:315,1,101.999996887207,8|8,0:0|0:0,0:0:0:0:
205,327,57041,1,8,0:0:0:0:
212,339,57122,6,0,B|154:281|161:214|161:214|193:159,1,203.999993774414,6|10,0:0|0:0,0:0:0:0:
249,60,57606,1,2,0:0:0:0:
304,157,57767,2,0,L|253:245,1,101.999996887207,2|0,0:0|0:0,0:0:0:0:
87,149,58089,2,0,L|138:61,1,101.999996887207,8|0,0:0|0:0,0:0:0:0:
193,158,58412,5,2,0:0:0:0:
59,185,58573,1,0,0:0:0:0:
166,24,58735,1,10,0:0:0:0:
32,51,58896,1,0,0:0:0:0:
193,158,59057,5,2,0:0:0:0:
59,185,59218,1,0,0:0:0:0:
166,24,59380,1,10,0:0:0:0:
32,51,59541,1,0,0:0:0:0:
193,158,59702,6,0,B|231:307|231:307|205:350,2,203.999993774414,2|8|2,0:0|0:0|0:0,0:0:0:0:
83,184,60509,1,0,0:0:0:0:
83,184,60670,2,0,L|109:282,1,101.999996887207,8|0,0:0|0:0,0:0:0:0:
193,158,60993,6,0,L|219:59,1,101.999996887207,6|8,0:0|0:0,0:0:0:0:
219,59,61235,1,8,0:0:0:0:
219,59,61315,1,8,0:0:0:0:
96,74,61477,2,0,P|101:165|192:157,1,203.999993774414,14|0,0:0|0:0,0:0:0:0:
54,232,61960,2,0,P|98:258|148:264,1,101.999996887207,8|0,0:0|0:0,0:0:0:0:
283,162,62283,5,6,0:0:0:0:
283,162,62928,1,8,0:0:0:0:
302,63,63251,1,0,0:0:0:0:
383,184,63573,2,0,L|376:260,2,76.4999976654053,2|8|2,0:0|0:0|0:0,0:0:0:0:
397,88,64218,6,0,P|469:76|463:141,1,152.999995330811,8|0,0:0|0:0,0:0:0:0:
468,137,64702,1,2,0:0:0:0:
313,117,64864,6,0,P|308:74|319:43,1,76.4999976654053,2|0,0:0|0:0,0:0:0:0:
337,186,65186,2,0,P|332:148|312:116,1,76.4999976654053,0|0,0:0|0:0,0:0:0:0:
295,246,65509,2,0,P|308:210|336:185,1,76.4999976654053,8|0,0:0|0:0,0:0:0:0:
351,293,65831,2,0,P|328:262|294:245,1,76.4999976654053,0|0,0:0|0:0,0:0:0:0:
307,368,66154,6,0,P|366:320|440:304,1,152.999995330811,2|0,0:0|0:0,0:0:0:0:
511,160,66799,2,0,P|475:173|437:175,1,76.4999976654053,8|8,0:0|0:3,0:0:0:0:
358,205,67122,2,0,P|328:180|307:148,1,76.4999976654053,8|0,0:3|0:0,0:0:0:0:
242,94,67444,5,0,3:0:0:0:
371,61,68089,2,0,L|449:68,1,68,2|0,0:0|0:0,0:0:0:0:
438,67,68412,1,0,0:0:0:0:
438,67,68573,1,0,0:0:0:0:
242,94,68735,6,0,P|236:161|262:222,1,136,0|0,3:0|0:0,0:0:0:0:
293,361,69380,2,0,L|215:354,1,68,2|0,0:0|0:0,0:0:0:0:
331,284,69702,2,0,L|398:277,1,68,0|0,0:0|0:0,0:0:0:0:
293,361,70025,6,0,P|273:292|266:222,1,136,0|0,3:0|0:0,0:0:0:0:
180,325,70670,2,0,P|166:254|165:184,1,136,2|0,0:0|0:0,0:0:0:0:
201,109,71154,1,0,0:0:0:0:
127,59,71315,6,0,L|163:189,1,136,0|0,3:0|0:0,0:0:0:0:
385,59,71960,2,0,L|348:189,1,136,2|0,0:0|0:0,0:0:0:0:
256,276,72444,1,0,0:0:0:0:
253,142,72606,6,0,P|259:100|274:61,1,85,2|2,0:0|0:0,0:0:0:0:
373,128,73251,2,0,P|367:170|352:209,1,85,2|2,0:0|0:0,0:0:0:0:
171,202,73896,2,0,L|164:117,1,85,2|0,0:0|0:0,0:0:0:0:
379,43,74541,2,0,L|372:127,1,85,8|0,0:0|0:0,0:0:0:0:
200,41,75186,5,6,0:0:0:0:
324,195,75509,1,0,0:0:0:0:
289,32,75831,5,4,0:0:0:0:
234,192,76154,1,0,0:0:0:0:
379,43,76477,5,4,3:0:0:0:
164,117,77122,1,6,0:0:0:0:
164,117,77767,6,0,B|150:159|150:159|174:264,1,152.999995330811,6|0,0:0|0:0,0:0:0:0:
115,324,78251,2,0,P|176:283|244:311,1,152.999995330811,8|8,0:0|0:0,0:0:0:0:
44,366,78735,2,0,P|33:321|51:278,1,76.4999976654053,2|0,0:0|0:0,0:0:0:0:
132,171,79057,6,0,L|114:323,1,152.999995330811,6|0,0:0|0:0,0:0:0:0:
46,209,79541,1,0,0:0:0:0:
46,209,79702,2,0,L|37:132,1,76.4999976654053,8|0,0:0|0:0,0:0:0:0:
202,294,80025,2,0,L|210:370,1,76.4999976654053,2|8,0:0|0:0,0:0:0:0:
312,171,80347,5,2,0:0:0:0:
312,171,80509,2,0,P|382:155|420:154,1,76.4999976654053,0|0,0:0|0:0,0:0:0:0:
438,220,80831,2,0,B|399:109|399:109|403:73,2,152.999995330811,2|10|8,0:0|0:0|0:0,0:0:0:0:
437,220,81638,6,0,P|378:264|304:255,1,152.999995330811,6|0,0:0|0:0,0:0:0:0:
268,111,82122,2,0,P|328:66|402:76,1,152.999995330811,4|0,0:0|0:0,0:0:0:0:
353,166,82606,1,2,0:0:0:0:
353,166,82928,6,0,L|169:112,1,191.250007295609,2|0,0:0|0:0,0:0:0:0:
94,161,83573,2,0,P|91:223|121:279,1,127.500004863739,10|2,0:0|0:0,0:0:0:0:
133,290,84057,2,0,P|101:291|70:283,1,63.7500024318696,0|2,0:0|0:0,0:0:0:0:
206,333,84380,5,8,0:0:0:0:
219,321,84541,2,0,P|249:313|281:314,1,63.7500024318696,2|0,0:0|0:0,0:0:0:0:
364,349,84864,2,0,L|386:223,1,127.500004863739,10|2,0:0|0:0,0:0:0:0:
402,135,85347,1,0,0:0:0:0:
317,40,85509,5,2,0:0:0:0:
293,33,85831,2,0,P|295:64|304:95,1,63.7500024318696,2|0,0:0|0:0,0:0:0:0:
324,182,86154,2,0,P|321:213|312:244,1,63.7500024318696,10|0,0:0|0:0,0:0:0:0:
250,309,86477,1,2,0:0:0:0:
250,309,86638,1,0,0:0:0:0:
166,243,86799,6,0,B|157:331|157:331|177:364,2,127.500004863739,2|2|10,0:0|0:0|0:0,0:0:0:0:
177,154,87606,1,8,0:3:0:0:
177,154,87767,2,0,L|183:90,1,63.7500024318696,10|8,0:3|0:3,0:0:0:0:
248,208,88089,5,6,0:0:0:0:
458,107,89380,1,6,0:0:0:0:
248,208,90347,1,2,0:0:0:0:
207,286,90670,6,0,P|164:241|164:178,1,127.500004863739,6|0,0:0|0:0,0:0:0:0:
248,208,91154,1,0,0:0:0:0:
261,215,91315,2,0,P|293:210|324:201,1,63.7500024318696,2|0,0:0|0:0,0:0:0:0:
406,169,91638,2,0,P|437:173|468:182,1,63.7500024318696,2|0,0:0|0:0,0:0:0:0:
412,296,91960,6,0,L|418:359,2,63.7500024318696,2|2|2,0:0|0:0|0:0,0:0:0:0:
317,265,92444,2,0,L|323:201,1,63.7500024318696,2|2,0:0|0:0,0:0:0:0:
507,327,92928,1,2,0:0:0:0:
264,348,93251,5,6,0:0:0:0:
103,74,103573,6,0,L|123:260,1,187.000005706787,2|8,0:0|0:0,0:0:0:0:
122,259,104541,1,0,0:0:0:0:
233,175,104864,2,0,L|213:361,1,187.000005706787,2|8,0:0|0:0,0:0:0:0:
213,360,105831,1,0,0:0:0:0:
122,259,106154,6,0,L|112:166,1,93.5000028533936,2|0,0:0|0:0,0:0:0:0:
102,73,106799,2,0,L|112:166,1,93.5000028533936,8|0,0:0|0:0,0:0:0:0:
213,361,107444,2,0,L|233:175,1,187.000005706787,2|8,0:0|0:0,0:0:0:0:
341,101,108412,2,0,L|387:101,1,46.7500014266968,2|0,0:0|0:0,0:0:0:0:
453,22,108735,6,0,P|493:102|453:183,1,187.000005706787,2|8,0:0|0:0,0:0:0:0:
330,228,109702,1,0,0:0:0:0:
330,227,110025,2,0,P|284:218|238:228,1,93.5000028533936,2|0,0:0|0:0,0:0:0:0:
71,334,110670,2,0,P|117:343|163:334,1,93.5000028533936,8|0,0:0|0:0,0:0:0:0:
118,188,111315,6,0,P|60:107|154:76,1,229.499992996216,6|0,0:0|0:0,0:0:0:0:
150,269,111960,6,0,P|98:171|153:76,1,229.499992996216,6|0,0:0|0:0,0:0:0:0:
310,153,112606,6,0,P|264:174|214:174,1,101.999996887207,14|8,0:0|0:0,0:0:0:0:
366,60,112928,1,8,0:0:0:0:
366,60,113089,2,0,L|330:286,1,203.999993774414,8|0,0:0|0:0,0:0:0:0:
250,337,113573,1,10,0:0:0:0:
437,287,113735,1,0,0:0:0:0:
212,256,113896,6,0,L|222:357,1,101.999996887207,8|8,0:0|0:0,0:0:0:0:
116,215,114218,1,8,0:0:0:0:
116,214,114380,2,0,P|192:153|285:183,1,203.999993774414,8|0,0:0|0:0,0:0:0:0:
144,306,114864,2,0,P|93:309|49:284,1,101.999996887207,8|0,0:0|0:0,0:0:0:0:
253,254,115186,6,0,P|296:229|347:232,1,101.999996887207,10|8,0:0|0:0,0:0:0:0:
326,344,115509,1,8,0:0:0:0:
296,117,115670,2,0,B|428:164|428:164|442:227,1,203.999993774414,8|0,0:0|0:0,0:0:0:0:
421,339,116154,1,8,0:0:0:0:
347,232,116315,1,0,0:0:0:0:
512,132,116477,5,10,0:0:0:0:
504,121,116799,2,0,P|455:105|404:107,1,101.999996887207,10|0,0:0|0:0,0:0:0:0:
347,232,117122,2,0,L|297:221,3,50.9999984436036,8|8|8|8,0:0|0:0|0:0|0:0,0:0:0:0:
231,171,117444,2,0,L|181:181,3,50.9999984436036,8|8|8|8,0:0|0:0|0:0|0:0,0:0:0:0:
129,254,117767,6,0,P|93:164|161:95,1,203.999993774414,6|8,0:0|0:0,0:0:0:0:
180,181,118251,2,0,B|136:345|136:345|168:332,1,203.999993774414,2|2,0:0|0:0,0:0:0:0:
249,283,118735,2,0,L|275:184,1,101.999996887207,10|0,0:0|0:0,0:0:0:0:
193,61,119057,6,0,P|184:155|274:184,1,203.999993774414,6|8,0:0|0:0,0:0:0:0:
437,115,119541,2,0,B|387:57|299:91|299:91|248:111,1,203.999993774414,2|2,0:0|0:0,0:0:0:0:
167,201,120025,2,0,P|207:230|257:236,1,101.999996887207,10|0,0:0|0:0,0:0:0:0:
362,189,120347,5,2,0:0:0:0:
351,302,120509,1,0,0:0:0:0:
362,189,120670,2,0,L|339:85,1,101.999996887207,8|0,0:0|0:0,0:0:0:0:
469,143,120993,5,2,0:0:0:0:
458,256,121155,1,0,0:0:0:0:
469,143,121316,2,0,L|446:39,1,101.999996887207,8|0,0:0|0:0,0:0:0:0:
180,32,121638,6,0,P|243:106|339:88,1,203.999993774414,2|8,0:0|0:0,0:0:0:0:
446,43,122122,1,0,0:0:0:0:
278,7,122283,1,2,0:0:0:0:
446,43,122444,1,0,0:0:0:0:
410,211,122606,2,0,L|309:192,1,101.999996887207,8|0,0:0|0:0,0:0:0:0:
168,181,122928,6,0,P|166:231|190:275,1,101.999996887207,6|0,0:0|0:0,0:0:0:0:
247,63,123251,2,0,P|204:36|153:35,1,101.999996887207,10|0,0:0|0:0,0:0:0:0:
309,190,123573,2,0,P|353:166|379:122,1,101.999996887207,2|0,0:0|0:0,0:0:0:0:
168,181,123896,2,0,P|123:204|97:248,1,101.999996887207,10|0,0:0|0:0,0:0:0:0:
310,380,124218,6,0,P|311:329|287:285,1,101.999996887207,2|0,0:0|0:0,0:0:0:0:
97,248,124541,2,0,P|95:298|119:342,1,101.999996887207,10|0,0:0|0:0,0:0:0:0:
245,127,124864,2,0,P|246:76|222:32,1,101.999996887207,2|0,0:0|0:0,0:0:0:0:
117,114,125186,1,2,0:0:0:0:
116,114,125509,6,0,B|77:160|77:160|108:153|149:167|174:194|177:238,1,203.999993774414,6|10,0:0|0:0,0:0:0:0:
91,248,125993,1,2,0:0:0:0:
49,62,126154,2,0,L|199:87,1,152.999995330811,2|0,0:0|0:0,0:0:0:0:
237,95,126477,2,0,P|243:45|221:0,1,101.999996887207,10|2,0:0|0:0,0:0:0:0:
116,164,126799,6,0,P|109:213|131:259,1,101.999996887207,6|0,0:0|0:0,0:0:0:0:
255,329,127122,1,10,0:0:0:0:
216,194,127283,1,0,0:0:0:0:
58,343,127444,2,0,L|158:360,1,101.999996887207,2|2,0:0|0:0,0:0:0:0:
396,262,127767,2,0,L|295:244,1,101.999996887207,10|0,0:0|0:0,0:0:0:0:
228,71,128089,6,0,P|276:56|326:62,2,101.999996887207,6|0|10,0:0|0:0|0:0,0:0:0:0:
95,113,128573,2,0,P|106:63|137:23,2,101.999996887207,2|0|2,0:0|0:0|0:0,0:0:0:0:
64,249,129057,2,0,P|26:214|7:167,1,101.999996887207,10|0,0:0|0:0,0:0:0:0:
201,205,129380,6,0,L|194:306,1,101.999996887207,2|0,0:0|0:0,0:0:0:0:
211,325,129702,1,10,0:0:0:0:
356,239,129864,2,0,L|349:137,1,101.999996887207,2|0,0:0|0:0,0:0:0:0:
312,332,130186,1,2,0:0:0:0:
459,231,130347,1,10,0:0:0:0:
394,384,130509,1,0,0:0:0:0:
219,351,130670,6,0,P|198:304|204:254,1,101.999996887207,6|0,0:0|0:0,0:0:0:0:
313,89,130993,2,0,P|334:136|328:186,1,101.999996887207,8|0,0:0|0:0,0:0:0:0:
151,114,131315,2,0,P|144:64|165:17,1,101.999996887207,2|0,0:0|0:0,0:0:0:0:
413,74,131638,2,0,L|313:89,1,101.999996887207,8|0,0:0|0:0,0:0:0:0:
85,195,131960,6,0,L|185:209,1,101.999996887207,6|0,0:0|0:0,0:0:0:0:
287,257,132283,2,0,P|191:236|116:302,1,203.999993774414,8|0,0:0|0:0,0:0:0:0:
219,345,132767,2,0,L|275:335,2,50.9999984436036,8|8|8,0:0|0:0|0:0,0:0:0:0:
116,301,133089,2,0,L|60:291,1,50.9999984436036,8|8,0:0|0:0,0:0:0:0:
45,317,133251,6,0,B|36:250|36:250|62:186|62:186|53:118,1,203.999993774414,6|8,0:0|0:0,0:0:0:0:
146,54,133735,1,0,0:0:0:0:
248,143,133896,2,0,L|347:122,1,101.999996887207,2|0,0:0|0:0,0:0:0:0:
432,49,134218,1,8,0:0:0:0:
454,159,134380,1,0,0:0:0:0:
289,256,134541,6,0,P|239:266|191:251,1,101.999996887207,2|0,0:0|0:0,0:0:0:0:
248,143,134864,2,0,P|263:95|301:60,1,101.999996887207,10|0,0:0|0:0,0:0:0:0:
366,163,135186,2,0,P|399:200|410:250,1,101.999996887207,2|0,0:0|0:0,0:0:0:0:
289,256,135509,1,10,0:0:0:0:
248,143,135670,1,0,0:0:0:0:
394,71,135831,6,0,P|443:156|409:249,1,203.999993774414,2|8,0:0|0:0,0:0:0:0:
399,262,136477,1,2,0:0:0:0:
482,336,136638,1,0,0:0:0:0:
376,370,136799,2,0,B|312:359|312:359|283:334,1,101.999996887207,8|0,0:0|0:0,0:0:0:0:
174,223,137122,6,0,B|231:175|231:175|359:153,1,203.999993774414,2|8,0:0|0:0,0:0:0:0:
269,252,137606,1,0,0:0:0:0:
197,319,137767,1,8,0:0:0:0:
184,327,137847,1,8,0:0:0:0:
173,338,137928,1,8,0:0:0:0:
164,350,138009,1,8,0:0:0:0:
159,364,138089,2,0,L|136:318,3,50.9999984436036,8|8|8|8,0:0|0:0|0:0|0:0,0:0:0:0:
67,352,138412,6,0,P|127:273|110:176,1,203.999993774414,6|8,0:0|0:0,0:0:0:0:
14,138,138896,2,0,B|76:156|76:156|136:112|206:115,1,203.999993774414,2|2,0:0|0:0,0:0:0:0:
372,173,139380,2,0,P|323:188|273:192,1,101.999996887207,10|0,0:0|0:0,0:0:0:0:
418,78,139702,6,0,L|403:281,1,203.999993774414,2|8,0:0|0:0,0:0:0:0:
403,281,140186,2,0,P|313:296|298:205,1,203.999993774414,2|2,0:0|0:0,0:0:0:0:
495,250,140670,2,0,P|499:300|477:345,1,101.999996887207,10|0,0:0|0:0,0:0:0:0:
298,204,140993,6,0,B|281:156|281:156|287:102,1,101.999996887207,2|0,0:0|0:0,0:0:0:0:
370,15,141315,2,0,B|420:24|420:24|460:54,1,101.999996887207,10|0,0:0|0:0,0:0:0:0:
498,171,141638,2,0,B|464:209|464:209|417:229,1,101.999996887207,2|0,0:0|0:0,0:0:0:0:
298,204,141960,2,0,P|281:156|287:102,1,101.999996887207,10|0,0:0|0:0,0:0:0:0:
418,45,142283,5,2,0:0:0:0:
385,141,142444,1,0,0:0:0:0:
418,45,142606,2,0,L|519:34,1,101.999996887207,10|0,0:0|0:0,0:0:0:0:
399,155,142928,2,0,L|297:144,1,101.999996887207,0|10,0:0|0:0,0:0:0:0:
129,75,143251,2,0,L|231:65,1,101.999996887207,10|0,0:0|0:0,0:0:0:0:
51,138,143573,6,0,P|30:92|35:41,1,101.999996887207,6|0,0:0|0:0,0:0:0:0:
66,219,143896,2,0,P|27:186|11:138,1,101.999996887207,10|0,0:0|0:0,0:0:0:0:
113,286,144218,2,0,P|64:272|29:236,1,101.999996887207,2|0,0:0|0:0,0:0:0:0:
183,326,144541,2,0,P|133:334|86:316,1,101.999996887207,10|0,0:0|0:0,0:0:0:0:
262,258,144864,6,0,B|288:302|288:302|284:352,1,101.999996887207,2|0,0:0|0:0,0:0:0:0:
331,211,145186,2,0,B|344:260|344:260|328:307,1,101.999996887207,10|0,0:0|0:0,0:0:0:0:
409,183,145509,2,0,B|409:234|409:234|381:275,1,101.999996887207,2|0,0:0|0:0,0:0:0:0:
491,176,145831,2,0,B|478:225|478:225|440:258,1,101.999996887207,10|0,0:0|0:0,0:0:0:0:
337,95,146154,6,0,P|392:175|490:175,1,203.999993774414,6|10,0:0|0:0,0:0:0:0:
439,86,146638,1,2,0:0:0:0:
259,29,146799,2,0,L|157:40,1,101.999996887207,2|0,0:0|0:0,0:0:0:0:
15,122,147122,2,0,L|117:134,1,101.999996887207,10|0,0:0|0:0,0:0:0:0:
236,186,147444,6,0,P|135:181|49:233,1,203.999993774414,6|8,0:0|0:0,0:0:0:0:
63,334,147928,1,0,0:0:0:0:
260,284,148089,2,0,L|235:185,1,101.999996887207,2|0,0:0|0:0,0:0:0:0:
413,282,148412,2,0,L|388:380,1,101.999996887207,10|0,0:0|0:0,0:0:0:0:
352,190,148735,6,0,P|398:171|448:177,2,101.999996887207,6|0|10,0:0|0:0|0:0,0:0:0:0:
413,282,149218,2,0,P|405:331|375:371,2,101.999996887207,2|0|2,0:0|0:0|0:0,0:0:0:0:
302,288,149702,2,0,P|262:256|243:210,1,101.999996887207,10|0,0:0|0:0,0:0:0:0:
339,91,150025,6,0,B|359:156|359:156|351:189,1,101.999996887207,6|0,0:0|0:0,0:0:0:0:
351,189,150347,1,10,0:0:0:0:
302,288,150509,2,0,B|235:272|235:272|210:249,1,101.999996887207,2|0,0:0|0:0,0:0:0:0:
210,249,150831,1,2,0:0:0:0:
149,157,150993,2,0,B|195:107|195:107|227:97,1,101.999996887207,10|0,0:0|0:0,0:0:0:0:
396,65,151315,5,6,0:0:0:0:
303,29,151477,1,0,0:0:0:0:
320,133,151638,1,10,0:0:0:0:
227,97,151800,1,0,0:0:0:0:
396,65,151960,5,2,0:0:0:0:
303,29,152122,1,0,0:0:0:0:
320,133,152283,1,10,0:0:0:0:
227,97,152445,1,0,0:0:0:0:
396,65,152606,6,0,P|418:160|351:231,1,203.999993774414,2|8,0:0|0:0,0:0:0:0:
351,231,153251,1,2,0:0:0:0:
271,294,153412,1,8,0:0:0:0:
257,291,153493,1,8,0:0:0:0:
245,288,153573,2,0,L|254:186,1,101.999996887207,10|8,0:0|0:0,0:0:0:0:
242,183,153815,1,8,0:0:0:0:
225,179,153896,6,0,P|238:87|332:88,1,203.999993774414,6|8,0:0|0:0,0:0:0:0:
423,135,154380,1,2,0:0:0:0:
423,135,154541,2,0,P|432:85|418:36,1,101.999996887207,2|0,0:0|0:0,0:0:0:0:
336,193,154864,2,0,P|326:242|340:291,1,101.999996887207,10|0,0:0|0:0,0:0:0:0:
465,358,155186,6,0,L|263:325,2,203.999993774414,2|10|2,0:0|0:0|0:0,0:0:0:0:
483,167,155993,1,0,0:0:0:0:
374,263,156154,2,0,L|474:247,1,101.999996887207,10|0,0:0|0:0,0:0:0:0:
331,191,156477,6,0,P|257:283|373:263,1,305.999990661621,6|2,0:0|0:0,0:0:0:0:
330,178,157122,2,0,P|273:282|384:241,1,305.999990661621,6|2,0:0|0:0,0:0:0:0:
327,166,157767,2,0,P|288:277|391:218,2,305.999990661621,14|10|10,0:0|0:0|0:0,0:0:0:0:
406,60,159057,6,0,P|343:47|280:40,1,127.500004863739,6|0,0:0|0:0,0:0:0:0:
202,101,159541,1,0,0:0:0:0:
199,110,159702,2,0,P|261:97|324:90,1,127.500004863739,2|0,0:0|0:0,0:0:0:0:
396,149,160186,1,0,0:0:0:0:
402,164,160347,6,0,P|400:195|395:227,1,63.7500024318696,2|0,0:0|0:0,0:0:0:0:
327,289,160670,2,0,P|328:320|333:352,1,63.7500024318696,2|0,0:0|0:0,0:0:0:0:
421,379,160993,1,2,0:0:0:0:
454,357,161315,1,0,0:0:0:0:
448,266,161638,6,0,P|387:290|326:289,1,127.500004863739,2|0,0:0|0:0,0:0:0:0:
177,219,162283,2,0,P|207:207|238:207,1,63.7500024318696,2|2,0:0|0:0,0:0:0:0:
192,298,162606,2,0,P|160:298|130:286,1,63.7500024318696,2|2,0:0|0:0,0:0:0:0:
62,189,162928,6,0,L|-11:173,2,63.7500024318696,2|0|2,0:0|0:0|0:0,0:0:0:0:
157,162,163412,2,0,L|116:99,2,63.7500024318696,0|2|2,0:0|0:0|0:0,0:0:0:0:
243,210,163896,2,0,L|259:137,1,63.7500024318696,2|2,0:0|0:0,0:0:0:0:
269,303,164218,6,0,P|336:207|262:121,1,237.999992736817,2|0,0:0|0:0,0:0:0:0:
256,192,165670,12,0,169380,3:0:0:0:
