osu file format v14

[General]
AudioFilename: mp3.mp3
AudioLeadIn: 0
PreviewTime: 40912
Countdown: 0
SampleSet: Soft
StackLeniency: 0.2
Mode: 0
LetterboxInBreaks: 0
WidescreenStoryboard: 1

[Editor]
Bookmarks: 73251
DistanceSpacing: 1
BeatDivisor: 4
GridSize: 4
TimelineZoom: 0.9

[Metadata]
Title:Summoning 101
TitleUnicode:Summoning 101
Artist:Mili
ArtistUnicode:Mili
Creator:Pappy
Version:Easy
Source:
Tags:Millenium Mother Yamato Kasai Momocashew HAMO Yukihito Mitomo Shoto Yoshida projectmili Single
BeatmapID:1758524
BeatmapSetID:834479

[Difficulty]
HPDrainRate:3
CircleSize:2
OverallDifficulty:2
ApproachRate:3
SliderMultiplier:1.01
SliderTickRate:1

[Events]
//Background and Video events
0,0,"world_of_warcraft_worgen-wallpaper-1920x1080.jpg",0,0
//Break Periods
2,93451,102133
//Storyboard Layer 0 (Background)
//Storyboard Layer 1 (Fail)
//Storyboard Layer 2 (Pass)
//Storyboard Layer 3 (Foreground)
//Storyboard Sound Samples

[TimingPoints]
348,322.58064516129,4,2,1,70,1,0
348,-100,4,2,1,70,0,0
9702,-100,4,2,1,70,0,0
15831,-100,4,2,1,70,0,0
20993,-100,4,2,1,30,0,0
23573,-100,4,2,1,40,0,0
26154,-100,4,2,1,60,0,0
40670,-100,4,2,1,60,0,0
41638,-100,4,2,1,80,0,1
62283,-100,4,2,1,70,0,0
67444,-100,4,2,1,70,0,0
72606,-100,4,2,1,50,0,0
75186,-100,4,2,1,50,0,0
75831,-100,4,2,1,50,0,0
76477,-100,4,2,1,50,0,0
77767,-100,4,2,1,70,0,0
82928,-100,4,2,1,70,0,0
103573,-100,4,2,1,70,0,0
111315,-100,4,2,1,70,0,0
112606,-100,4,2,1,70,0,0
117767,-100,4,2,1,80,0,1
156477,-100,4,2,1,80,0,1
159057,-100,4,2,1,40,0,0
164218,-100,4,2,1,40,0,0
169380,-100,4,2,1,10,0,0

[Colours]
Combo1 : 83,60,82
Combo2 : 183,155,135
Combo3 : 163,125,125
Combo4 : 115,87,87
SliderBorder : 163,125,125
SliderTrackOverride : 183,155,135

[HitObjects]
67,95,348,6,0,B|50:175|50:175|169:221|255:138,1,303,4|4,0:0|0:0,0:0:0:0:
444,201,2928,6,0,B|460:281|460:281|341:327|256:245,1,303,4|4,0:0|0:0,0:0:0:0:
184,72,5509,6,0,P|255:47|325:72,2,151.5,4|4|4,0:0|0:0|0:0,0:0:0:0:
256,192,8089,12,6,10670,0:0:0:0:
136,103,11315,6,0,L|129:203,1,101,2|10,0:0|0:0,0:0:0:0:
152,303,11960,2,0,P|58:279|28:187,1,202,2|0,0:0|0:0,0:0:0:0:
37,86,12928,1,10,0:0:0:0:
136,103,13251,6,0,P|185:92|233:76,2,101,2|10|2,0:0|0:0|0:0,0:0:0:0:
131,203,14218,2,0,P|81:192|33:176,1,101,10|2,0:0|0:0,0:0:0:0:
449,84,15831,6,0,P|364:191|260:104,1,303,6|0,0:0|0:0,0:0:0:0:
162,78,17122,2,0,B|156:152|156:152|186:193|186:193|179:272,1,202,2|8,0:0|0:0,0:0:0:0:
166,369,18089,1,2,0:0:0:0:
87,308,18412,6,0,P|34:285|-11:284,2,101,2|2|10,0:0|0:0|0:0,0:0:0:0:
166,369,19380,2,0,P|216:366|261:344,1,101,2|2,0:0|0:0,0:0:0:0:
392,191,20347,1,10,0:0:0:0:
261,39,20993,5,6,0:0:0:0:
261,39,22283,1,2,0:0:0:0:
261,39,23573,6,0,B|192:87|192:87|75:70,2,202,2|2|2,0:0|0:0|0:0,0:0:0:0:
464,44,25509,1,2,0:0:0:0:
352,212,26154,6,0,L|371:367,2,151.5,6|8|0,0:0|0:0|0:0,0:0:0:0:
264,161,27444,2,0,P|189:171|115:189,2,151.5,6|0|0,0:0|0:0|0:0,0:0:0:0:
352,212,28735,5,6,0:0:0:0:
478,128,29218,2,0,L|492:22,1,101,2|12,0:0|0:0,0:0:0:0:
341,50,30025,2,0,P|265:55|191:72,2,151.5,2|0|8,0:0|0:0|0:0,0:0:0:0:
380,141,31315,6,0,P|389:191|275:283,1,202,6|0,0:0|0:0,0:0:0:0:
287,182,32283,1,8,0:0:0:0:
287,81,32606,2,0,P|201:126|194:223,1,202,2|0,0:0|0:0,0:0:0:0:
287,182,33573,1,8,0:0:0:0:
380,141,33896,6,0,L|494:150,1,101,10|10,0:0|0:0,0:0:0:0:
509,245,34541,2,0,L|408:237,2,101,10|10|2,0:0|0:0|0:0,0:0:0:0:
464,335,35509,1,0,0:0:0:0:
363,327,35831,2,0,L|262:319,1,101,0|8,0:0|0:3,0:0:0:0:
224,224,36477,6,0,B|163:295|81:265|75:250|25:288|25:288|-18:215|-18:215|4:163|4:163|41:138,1,404,6|2,0:0|0:0,0:0:0:0:
441,77,39057,5,6,0:0:0:0:
73,207,40993,6,0,P|42:167|38:118,1,101,10|8,0:0|0:0,0:0:0:0:
144,128,41638,6,0,B|232:128|256:45|256:45|280:128|368:128,1,303,6|10,0:0|0:0,0:0:0:0:
448,192,42928,2,0,P|470:283|304:306,1,303,2|10,0:0|0:0,0:0:0:0:
205,310,44218,6,0,P|155:320|107:311,1,101,2|10,0:0|0:0,0:0:0:0:
56,224,44864,2,0,P|105:214|154:223,1,101,2|10,0:0|0:0,0:0:0:0:
205,310,45509,2,0,L|169:102,1,202,2|2,0:0|0:0,0:0:0:0:
144,12,46477,1,12,0:0:0:0:
241,37,46799,6,0,P|290:23|340:16,2,101,2|10|2,0:0|0:0|0:0,0:0:0:0:
170,110,47767,1,10,0:0:0:0:
100,180,48089,2,0,P|51:165|1:158,2,101,2|10|2,0:0|0:0|0:0,0:0:0:0:
196,206,49057,1,10,0:0:0:0:
126,276,49380,6,0,P|218:301|287:234,1,202,6|2,0:0|0:0,0:0:0:0:
312,136,50347,1,8,0:0:0:0:
408,100,50670,2,0,L|390:199,2,101,2|8|8,0:0|0:0|0:3,0:0:0:0:
215,40,51960,6,0,P|117:133|216:225,1,303,6|10,0:0|0:0,0:0:0:0:
250,130,53251,2,0,P|347:223|248:315,1,303,6|10,0:0|0:0,0:0:0:0:
149,295,54541,6,0,B|106:322|106:322|55:320,1,101,6|10,0:0|0:0,0:0:0:0:
79,222,55186,2,0,B|122:195|122:195|172:196,1,101,2|10,0:0|0:0,0:0:0:0:
245,265,55831,2,0,L|142:84,1,202,2|2,0:0|0:0,0:0:0:0:
343,53,57122,6,0,P|440:40|508:110,1,202,6|2,0:0|0:0,0:0:0:0:
405,283,58412,2,0,P|356:289|322:254,2,101,2|10|2,0:0|0:0|0:0,0:0:0:0:
258,144,59702,6,0,L|150:179,1,101,2|8,0:0|0:0,0:0:0:0:
184,76,60347,2,0,L|280:44,1,101,2|8,0:0|0:0,0:0:0:0:
350,116,60993,2,0,P|358:297|176:304,1,404,6|6,0:0|0:0,0:0:0:0:
125,107,62928,5,8,0:0:0:0:
318,48,63573,2,0,L|415:74,1,101,2|2,0:0|0:0,0:0:0:0:
482,150,64218,1,8,0:0:0:0:
353,306,64864,6,0,P|255:329|158:304,1,202,2|8,0:0|0:0,0:0:0:0:
30,150,66154,2,0,L|127:123,1,101,2|0,0:0|0:0,0:0:0:0:
194,48,66799,2,0,L|291:74,1,101,8|8,0:0|0:3,0:0:0:0:
314,173,67444,6,0,P|404:164|392:74,1,202,0|2,3:0|0:0,0:0:0:0:
203,145,68735,2,0,P|112:136|124:46,1,202,0|2,3:0|0:0,0:0:0:0:
313,115,70025,6,0,P|320:164|299:209,1,101,0|0,3:0|0:0,0:0:0:0:
207,252,70670,2,0,P|186:297|193:346,1,101,2|0,0:0|0:0,0:0:0:0:
288,379,71315,1,0,3:0:0:0:
483,326,71960,1,2,0:0:0:0:
431,130,72606,6,0,B|340:56|304:132|225:63|225:63|141:101,1,303,2|2,0:0|0:0,0:0:0:0:
53,75,73896,2,0,P|40:174|53:274,1,202,2|8,0:0|0:0,0:0:0:0:
239,351,75186,6,0,B|376:340|376:340|388:276,2,202,6|4|4,0:0|0:0|3:0,0:0:0:0:
219,79,77767,6,0,P|143:86|69:103,2,151.5,6|8|2,0:0|0:0|0:0,0:0:0:0:
280,159,79057,2,0,P|355:166|423:198,2,151.5,6|0|2,0:0|0:0|0:0,0:0:0:0:
230,247,80347,5,2,0:0:0:0:
86,197,80831,2,0,L|97:96,1,101,2|10,0:0|0:0,0:0:0:0:
247,73,81638,2,0,P|322:63|395:78,2,151.5,6|4|2,0:0|0:0|0:0,0:0:0:0:
151,40,82928,6,0,B|53:44|-18:157|33:268|166:318|244:226|244:226|210:362|337:400|407:405|463:312,1,808,2|2,0:0|0:0,0:0:0:0:
421,114,86154,5,10,0:0:0:0:
219,110,86799,2,0,L|232:5,2,101,2|2|10,0:0|0:0|0:0,0:0:0:0:
255,308,88089,6,0,B|185:287|185:287|112:316|112:316|22:301|11:206|22:165|80:126,1,404,6|6,0:0|0:0,0:0:0:0:
256,192,90670,12,6,93251,0:0:0:0:
120,76,103573,6,0,L|321:75,1,202,2|8,0:0|0:0,0:0:0:0:
309,175,104541,1,0,0:0:0:0:
224,230,104864,2,0,B|125:258|125:194|27:230,1,202,2|8,0:0|0:0,0:0:0:0:
80,315,105831,1,0,0:0:0:0:
178,339,106154,6,0,P|281:314|351:238,2,202,2|8|2,0:0|0:0|0:0,0:0:0:0:
183,137,108089,1,8,0:0:0:0:
360,45,108735,6,0,L|346:247,1,202,2|8,0:0|0:0,0:0:0:0:
255,202,109702,1,0,0:0:0:0:
166,247,110025,2,0,L|151:45,2,202,2|8|6,0:0|0:0|0:0,0:0:0:0:
347,335,111960,6,0,P|393:343|446:335,1,101,6|0,0:0|0:0,0:0:0:0:
412,237,112606,2,0,B|435:134|360:152|358:53|358:53|259:27|259:27|160:48|160:48|84:113|84:113|181:154|127:255|101:253|60:268|4:242|-5:205|4:173,1,808,14|10,0:0|0:0,0:0:0:0:
136,93,116477,6,0,B|179:186|115:196|166:287,1,202,10|8,0:0|0:0,0:0:0:0:
256,334,117444,1,8,0:0:0:0:
344,288,117767,6,0,B|389:372|467:349|467:349|530:297|485:212,1,303,6|10,0:0|0:0,0:0:0:0:
385,195,119057,2,0,B|339:110|261:133|261:133|198:185|243:270,1,303,6|10,0:0|0:0,0:0:0:0:
192,357,120347,6,0,P|142:365|92:356,1,101,2|8,0:0|0:0,0:0:0:0:
44,267,120993,2,0,P|93:258|143:267,1,101,2|8,0:0|0:0,0:0:0:0:
192,357,121638,2,0,L|161:157,1,202,2|2,0:0|0:0,0:0:0:0:
145,57,122606,1,8,0:0:0:0:
240,92,122928,6,0,B|291:78|291:78|320:40,2,101,6|10|2,0:0|0:0|0:0,0:0:0:0:
161,157,123896,1,10,0:0:0:0:
82,222,124218,2,0,B|30:208|30:208|1:170,2,101,2|10|2,0:0|0:0|0:0,0:0:0:0:
177,257,125186,1,2,0:0:0:0:
259,314,125509,6,0,B|187:378|187:378|98:322,1,202,6|2,0:0|0:0,0:0:0:0:
177,257,126477,1,10,0:0:0:0:
255,191,126799,2,0,B|327:127|327:127|416:183,1,202,6|2,0:0|0:0,0:0:0:0:
258,57,128089,6,0,P|182:65|107:76,2,151.5,6|2|10,0:0|0:0|0:0,0:0:0:0:
234,155,129380,2,0,P|163:182|94:213,2,151.5,2|2|10,0:0|0:0|0:0,0:0:0:0:
236,254,130670,6,0,L|242:355,1,101,6|8,0:0|0:0,0:0:0:0:
337,320,131315,2,0,L|343:219,1,101,2|8,0:0|0:0,0:0:0:0:
435,177,131960,2,0,L|448:378,1,202,6|0,0:0|0:0,0:0:0:0:
268,284,133251,6,0,B|203:301|203:301|138:283|138:283|73:302,1,202,6|2,0:0|0:0,0:0:0:0:
16,108,134541,2,0,P|2:59|5:9,1,101,2|10,0:0|0:0,0:0:0:0:
98,50,135186,2,0,P|111:98|108:148,1,101,2|10,0:0|0:0,0:0:0:0:
50,231,135831,6,0,P|147:240|206:163,2,202,2|2|2,0:0|0:0|0:0,0:0:0:0:
165,64,137767,2,0,P|215:60|262:76,1,101,8|8,0:0|0:0,0:0:0:0:
313,163,138412,6,0,P|343:184|350:45,1,303,6|10,0:0|0:0,0:0:0:0:
262,76,139702,2,0,B|231:285|231:285|291:353,1,303,2|10,0:0|0:0,0:0:0:0:
378,300,140993,6,0,P|429:299|473:275,1,101,2|10,0:0|0:0,0:0:0:0:
501,178,141638,2,0,P|450:179|406:203,1,101,2|10,0:0|0:0,0:0:0:0:
306,227,142283,2,0,P|213:200|188:108,1,202,2|0,0:0|0:0,0:0:0:0:
286,129,143251,1,10,0:0:0:0:
383,149,143573,6,0,L|492:133,2,101,6|10|2,0:0|0:0|0:0,0:0:0:0:
318,224,144541,1,10,0:0:0:0:
253,299,144864,2,0,L|144:283,2,101,2|10|2,0:0|0:0|0:0,0:0:0:0:
350,319,145831,1,10,0:0:0:0:
415,241,146154,6,0,P|404:140|373:44,1,202,6|2,0:0|0:0,0:0:0:0:
175,82,147444,2,0,P|185:182|216:278,1,202,6|2,0:0|0:0,0:0:0:0:
416,305,148735,6,0,B|428:239|428:239|397:189|397:189|482:138|460:37,1,303,6|10,0:0|0:0,0:0:0:0:
361,58,150025,2,0,B|377:145|211:86|225:124|225:124|171:95|103:113,1,303,6|10,0:0|0:0,0:0:0:0:
6,137,151315,6,0,P|1:188|11:237,1,101,6|10,0:0|0:0,0:0:0:0:
111,219,151960,2,0,P|115:269|105:318,1,101,2|10,0:0|0:0,0:0:0:0:
15,365,152606,2,0,L|216:379,1,202,2|2,0:0|0:0,0:0:0:0:
300,323,153573,1,10,0:0:0:0:
383,266,153896,6,0,B|398:120|398:120|357:81,1,202,6|2,0:0|0:0,0:0:0:0:
154,81,155186,2,0,B|114:120|114:120|129:266,1,202,2|2,0:0|0:0,0:0:0:0:
197,340,156154,1,10,0:0:0:0:
277,278,156477,6,0,B|377:253|377:300|476:278,2,202,6|6|14,0:0|0:0|0:0,0:0:0:0:
54,193,159057,6,0,P|60:96|146:54,1,202,6|2,0:0|0:0,0:0:0:0:
270,214,160347,2,0,P|263:310|177:352,1,202,2|2,0:0|0:0,0:0:0:0:
146,152,161638,5,2,0:0:0:0:
345,116,162283,1,2,0:0:0:0:
276,307,162928,1,2,0:0:0:0:
256,192,164218,12,2,169380,0:0:0:0:
