osu file format v14

[General]
AudioFilename: mp3.mp3
AudioLeadIn: 0
PreviewTime: 40912
Countdown: 0
SampleSet: Soft
StackLeniency: 0.2
Mode: 0
LetterboxInBreaks: 0
WidescreenStoryboard: 1

[Editor]
Bookmarks: 73251
DistanceSpacing: 1
BeatDivisor: 4
GridSize: 4
TimelineZoom: 0.9

[Metadata]
Title:Summoning 101
TitleUnicode:Summoning 101
Artist:Mili
ArtistUnicode:Mili
Creator:Pappy
Version:AWOOO
Source:
Tags:Millenium Mother Yamato Kasai Momocashew HAMO Yukihito Mitomo Shoto Yoshida projectmili Single
BeatmapID:1748078
BeatmapSetID:834479

[Difficulty]
HPDrainRate:5
CircleSize:4
OverallDifficulty:8.2
ApproachRate:9.2
SliderMultiplier:1.7
SliderTickRate:1

[Events]
//Background and Video events
0,0,"world_of_warcraft_worgen-wallpaper-1920x1080.jpg",0,0
//Break Periods
2,93451,102928
//Storyboard Layer 0 (Background)
//Storyboard Layer 1 (Fail)
//Storyboard Layer 2 (Pass)
//Storyboard Layer 3 (Foreground)
//Storyboard Sound Samples

[TimingPoints]
348,322.58064516129,4,2,1,70,1,0
348,-200,4,2,1,70,0,0
9702,-100,4,2,1,70,0,0
15831,-125,4,2,1,70,0,0
20993,-222.222222222222,4,2,1,30,0,0
23573,-181.818181818181,4,2,1,40,0,0
24218,-153.846153846153,4,2,1,40,0,0
24864,-133.333333333333,4,2,1,40,0,0
26154,-111.111111111111,4,2,1,60,0,0
40670,-83.3333333333333,4,2,1,60,0,0
41638,-83.3333333333333,4,2,1,80,0,1
62283,-111.111111111111,4,2,1,70,0,0
67444,-125,4,2,1,70,0,0
72606,-200,4,2,1,50,0,0
75186,-166.666666666667,4,2,1,50,0,0
75831,-142.857142857143,4,2,1,50,0,0
76477,-111.111111111111,4,2,1,50,0,0
77767,-111.111111111111,4,2,1,70,0,0
82928,-133.333333333333,4,2,1,70,0,0
103573,-181.818181818181,4,2,1,70,0,0
111315,-111.111111111111,4,2,1,70,0,0
112606,-83.3333333333333,4,2,1,70,0,0
117767,-83.3333333333333,4,2,1,80,0,1
156477,-83.3333333333333,4,2,1,80,0,1
159057,-133.333333333333,4,2,1,40,0,0
164218,-285.714285714284,4,2,1,40,0,0
169380,-285.714285714284,4,2,1,10,0,0

[Colours]
Combo1 : 83,60,82
Combo2 : 183,155,135
Combo3 : 163,125,125
Combo4 : 115,87,87
SliderBorder : 163,125,125
SliderTrackOverride : 183,155,135

[HitObjects]
83,189,348,6,0,L|167:177,1,85,4|0,0:0|0:0,0:0:0:0:
25,82,831,2,0,L|109:93,1,85,4|0,0:0|0:0,0:0:0:0:
223,261,1315,2,0,L|54:284,1,170,4|0,0:0|0:0,0:0:0:0:
83,189,2122,1,2,0:0:0:0:
109,93,2283,2,0,L|193:81,1,85,2|0,0:0|0:0,0:0:0:0:
167,177,2767,1,2,0:0:0:0:
36,147,2928,6,0,P|19:108|23:66,1,85,4|0,0:0|0:0,0:0:0:0:
237,123,3412,2,0,P|253:161|249:203,1,85,4|0,0:0|0:0,0:0:0:0:
211,281,3896,2,0,P|260:244|321:255,1,127.5,4|0,0:0|0:0,0:0:0:0:
280,325,4541,1,0,0:0:0:0:
207,362,4702,1,0,0:0:0:0:
141,236,4864,1,0,0:0:0:0:
280,325,5025,1,0,0:0:0:0:
137,318,5186,1,8,0:0:0:0:
124,336,5509,6,0,L|117:293,1,42.5,4|0,0:0|0:0,0:0:0:0:
34,329,5831,1,2,0:0:0:0:
200,257,5993,2,0,L|193:214,1,42.5,4|0,0:0|0:0,0:0:0:0:
45,238,6315,1,2,0:0:0:0:
276,178,6477,1,4,0:0:0:0:
252,257,7122,6,0,P|293:261|331:241,2,85,2|2|0,0:0|0:0|0:0,0:0:0:0:
194,194,7928,1,2,0:0:0:0:
303,98,8089,6,0,P|341:78|383:83,1,85,6|0,0:0|0:0,0:0:0:0:
358,162,8573,1,2,0:0:0:0:
331,241,8735,1,10,0:0:0:0:
276,178,8896,1,10,0:0:0:0:
438,146,9057,1,10,0:0:0:0:
303,317,9218,1,10,0:0:0:0:
223,114,9380,5,10,0:0:0:0:
223,114,9702,2,8,L|227:71,3,42.5
124,93,10025,2,8,L|128:50,3,42.5
25,72,10347,2,8,L|29:29,3,42.5,10|8|8|8,0:0|0:0|0:0|0:0,0:0:0:0:
57,169,10670,6,0,L|66:253,1,85,6|0,0:0|0:0,0:0:0:0:
224,316,10993,2,0,L|233:231,1,85,8|0,0:0|0:0,0:0:0:0:
116,353,11315,1,2,0:0:0:0:
116,353,11477,1,0,0:0:0:0:
347,246,11638,2,0,L|338:331,1,85,10|0,0:0|0:0,0:0:0:0:
304,141,11960,5,2,0:0:0:0:
304,141,12122,1,0,0:0:0:0:
435,46,12283,2,0,P|470:30|517:33,1,85,8|0,0:0|0:0,0:0:0:0:
452,207,12606,1,0,0:0:0:0:
342,55,12767,1,0,0:0:0:0:
490,122,12928,1,10,0:0:0:0:
359,216,13089,1,2,0:0:0:0:
249,66,13251,6,0,B|192:55|192:55|165:59,1,85,2|0,0:0|0:0,0:0:0:0:
63,163,13573,2,0,B|120:152|120:152|146:156,1,85,10|0,0:0|0:0,0:0:0:0:
249,260,13896,2,0,B|192:249|192:249|165:253,1,85,2|0,0:0|0:0,0:0:0:0:
63,357,14218,2,0,B|120:346|120:346|146:350,1,85,10|0,0:0|0:0,0:0:0:0:
354,280,14541,5,2,0:0:0:0:
354,280,14702,1,0,0:0:0:0:
249,260,14864,1,8,0:0:0:0:
340,381,15025,1,8,0:0:0:0:
264,160,15186,1,0,0:0:0:0:
249,260,15347,1,0,0:0:0:0:
235,361,15509,1,8,0:0:0:0:
235,361,15831,6,0,P|204:376|171:377,1,68,6|0,0:0|0:0,0:0:0:0:
223,190,16154,2,0,P|251:208|269:237,1,68
180,279,16477,1,8,0:0:0:0:
180,279,16638,1,0,0:0:0:0:
82,286,16799,2,0,P|84:252|99:222,1,68
229,122,17041,1,0,0:0:0:0:
229,122,17122,6,0,L|222:189,1,68,2|0,0:0|0:0,0:0:0:0:
125,130,17444,2,0,L|69:90,1,68
329,68,17767,1,8,0:0:0:0:
329,68,17928,1,0,0:0:0:0:
170,35,18089,2,0,L|231:6,1,68,2|0,0:0|0:0,0:0:0:0:
440,42,18412,6,0,P|444:75|437:108,1,68,2|0,0:0|0:0,0:0:0:0:
352,178,18735,2,0,P|347:211|354:244,1,68,2|0,0:0|0:0,0:0:0:0:
424,348,19057,2,0,L|491:342,1,68,10|0,0:0|0:0,0:0:0:0:
300,356,19380,1,2,0:0:0:0:
451,248,19541,1,8,0:0:0:0:
451,248,19622,1,8,0:0:0:0:
451,248,19702,6,0,L|445:180,1,68,2|0,0:0|0:0,0:0:0:0:
319,135,20025,2,0,L|324:202,1,68
422,58,20347,1,10,0:0:0:0:
428,146,20508,1,8,3:0:0:0:
435,234,20669,1,8,3:0:0:0:
441,322,20831,1,8,3:0:0:0:
300,258,20993,6,0,P|298:239|300:219,1,38.2499988327027,6|0,0:0|0:0,0:0:0:0:
380,199,21315,2,0,P|381:218|380:238,1,38.2499988327027,2|0,0:0|0:0,0:0:0:0:
221,240,21638,2,0,P|219:220|220:201,1,38.2499988327027,2|0,0:0|0:0,0:0:0:0:
300,181,21960,2,0,P|301:200|299:219,1,38.2499988327027,2|0,0:0|0:0,0:0:0:0:
143,171,22283,2,0,L|54:179,1,76.4999976654053,2|0,0:0|0:0,0:0:0:0:
63,259,22767,1,0,0:0:0:0:
63,259,22928,2,0,L|139:252,1,76.4999976654053,2|2,0:0|0:0,0:0:0:0:
169,248,23573,6,0,P|163:294|161:341,1,93.5000028533936,2|0,0:0|0:0,0:0:0:0:
349,299,24218,6,0,P|350:243|344:188,1,110.499994941712,2|0,0:0|0:0,0:0:0:0:
209,77,24864,6,0,B|187:170|212:256|212:256|250:222|248:193,1,255.000009727478,2|2,0:0|0:0,0:0:0:0:
248,194,26154,6,0,L|361:179,1,114.749996498108,6|0,0:0|0:0,0:0:0:0:
439,215,26477,1,8,0:0:0:0:
435,237,26557,1,8,0:0:0:0:
431,259,26638,1,8,0:0:0:0:
427,281,26718,1,8,0:0:0:0:
422,302,26799,2,0,P|386:290|349:281,1,76.4999976654053,10|0,0:0|0:0,0:0:0:0:
195,301,27122,1,0,0:0:0:0:
310,384,27283,1,10,0:0:0:0:
105,318,27444,6,0,L|130:222,1,76.4999976654053,6|0,0:0|0:0,0:0:0:0:
52,151,27767,1,8,0:0:0:0:
52,151,27847,1,8,0:0:0:0:
52,151,27928,1,0,0:0:0:0:
227,87,28089,1,8,0:0:0:0:
230,202,28251,1,4,0:0:0:0:
116,56,28412,1,0,0:0:0:0:
329,142,28573,1,0,0:0:0:0:
124,243,28735,5,6,0:0:0:0:
328,332,28896,2,0,P|334:294|330:256,1,76.4999976654053,8|8,0:3|0:3,0:0:0:0:
237,135,29218,2,0,P|223:210|231:285,2,152.999995330811,2|12|8,0:0|0:0|0:0,0:0:0:0:
192,6,30025,6,0,B|268:-2|268:-2|337:39,1,152.999995330811,2|0,0:0|0:0,0:0:0:0:
237,135,30509,1,0,0:0:0:0:
27,35,30831,1,8,0:0:0:0:
28,57,30912,1,8,0:0:0:0:
29,80,30993,1,8,0:0:0:0:
31,101,31073,1,8,0:0:0:0:
34,124,31154,1,8,0:0:0:0:
35,146,31235,1,8,0:0:0:0:
39,168,31315,6,0,L|32:255,1,76.4999976654053,6|0,0:0|0:0,0:0:0:0:
92,314,31638,1,8,0:0:0:0:
207,266,31799,2,0,P|278:242|352:257,1,152.999995330811,2|0,0:0|0:0,0:0:0:0:
486,188,32283,2,0,P|448:181|415:163,1,76.4999976654053,8|0,0:0|0:0,0:0:0:0:
308,0,32606,5,2,0:0:0:0:
475,11,32767,2,0,L|487:86,1,76.4999976654053,2|8,0:0|0:0,0:0:0:0:
332,197,33089,2,0,B|317:161|330:125|330:125|317:46,1,152.999995330811,2|0,0:0|0:0,0:0:0:0:
415,163,33573,2,0,L|427:238,1,76.4999976654053,8|0,0:0|0:0,0:0:0:0:
316,358,33896,5,10,0:0:0:0:
337,216,34057,1,0,0:0:0:0:
223,310,34218,5,10,0:0:0:0:
207,160,34380,1,0,0:0:0:0:
138,380,34541,5,10,0:0:0:0:
159,231,34702,1,0,0:0:0:0:
42,318,34864,5,10,0:0:0:0:
34,144,35025,1,0,0:0:0:0:
188,313,35186,6,0,B|240:326|240:326|333:291,1,152.999995330811,2|0,0:0|0:0,0:0:0:0:
445,342,35616,1,8,0:0:0:0:
445,342,35724,1,8,0:0:0:0:
445,342,35831,6,8,P|469:348|493:358,2,50.9999984436036
466,230,36154,2,8,P|441:236|417:246,2,50.9999984436036,8|8|8,0:3|0:3|0:3,0:3:0:0:
492,129,36477,5,6,0:0:0:0:
202,73,37767,1,2,0:0:0:0:
299,353,38735,5,0,0:0:0:0:
299,353,39057,2,0,B|319:279|271:279|299:204,1,152.999995330811,6|0,0:0|0:0,0:0:0:0:
402,134,39541,1,0,0:0:0:0:
402,134,39702,2,0,L|478:126,1,76.4999976654053,2|0,0:0|0:0,0:0:0:0:
333,29,40025,2,0,L|256:21,1,76.4999976654053,2|0,0:0|0:0,0:0:0:0:
239,219,40347,5,6,0:0:0:0:
114,114,40509,1,0,0:0:0:0:
104,324,40670,2,0,P|154:327|203:313,1,101.999996887207,4|0,0:0|0:0,0:0:0:0:
306,119,40993,2,0,P|255:115|206:129,1,101.999996887207,10|0,0:0|0:0,0:0:0:0:
283,360,41315,1,8,0:0:0:0:
333,368,41395,1,8,0:0:0:0:
384,367,41476,1,8,0:0:0:0:
434,357,41556,1,8,0:0:0:0:
482,338,41638,6,0,B|494:197|494:197|472:138,1,203.999993774414,6|8,0:0|0:0,0:0:0:0:
246,257,42122,2,0,P|195:258|148:240,1,101.999996887207,2|0,0:0|0:0,0:0:0:0:
57,93,42444,1,0,0:0:0:0:
308,129,42606,2,0,P|265:155|215:163,1,101.999996887207,10|0,0:0|0:0,0:0:0:0:
172,351,42928,6,0,P|248:288|345:305,1,203.999993774414,2|8,0:0|0:0,0:0:0:0:
455,214,43412,2,0,L|471:113,1,101.999996887207,2|0,0:0|0:0,0:0:0:0:
476,350,43735,1,0,0:0:0:0:
358,215,43896,2,0,L|374:114,1,101.999996887207,10|0,0:0|0:0,0:0:0:0:
146,162,44218,6,0,P|196:161|245:147,1,101.999996887207,2|0,0:0|0:0,0:0:0:0:
99,55,44541,2,0,P|50:40|0:40,1,101.999996887207,10|0,0:0|0:0,0:0:0:0:
62,255,44864,2,0,P|108:276|158:283,1,101.999996887207,2|0,0:0|0:0,0:0:0:0:
425,274,45186,2,0,P|389:238|345:214,1,101.999996887207,10|0,0:0|0:0,0:0:0:0:
293,341,45509,5,2,0:0:0:0:
293,341,45670,1,0,0:0:0:0:
501,333,45831,2,0,L|512:231,1,101.999996887207,10|0,0:0|0:0,0:0:0:0:
449,51,46154,1,2,0:0:0:0:
432,168,46315,1,8,0:0:0:0:
347,39,46477,2,0,B|284:17|296:62|227:41|227:41|198:48,1,152.999995330811,12|0,0:0|0:0,0:0:0:0:
118,73,46799,5,2,0:0:0:0:
91,209,46960,1,0,0:0:0:0:
6,123,47122,5,10,0:0:0:0:
49,291,47283,1,0,0:0:0:0:
184,198,47444,5,2,0:0:0:0:
142,365,47606,1,0,0:0:0:0:
11,210,47767,5,10,0:0:0:0:
231,345,47928,1,0,0:0:0:0:
93,112,48089,5,2,0:0:0:0:
32,326,48251,1,0,0:0:0:0:
145,38,48412,5,10,0:0:0:0:
206,252,48574,1,0,0:0:0:0:
188,121,48735,5,2,0:0:0:0:
127,335,48897,1,0,0:0:0:0:
54,32,49057,5,10,0:0:0:0:
212,338,49218,1,0,0:0:0:0:
283,121,49380,6,0,P|333:112|384:113,1,101.999996887207,6|0,0:0|0:0,0:0:0:0:
493,292,49702,1,8,0:0:0:0:
493,292,49864,1,0,0:0:0:0:
451,77,50025,2,0,P|400:68|349:69,1,101.999996887207,2|0,0:0|0:0,0:0:0:0:
183,191,50347,2,0,P|233:199|284:198,1,101.999996887207,8|0,0:0|0:0,0:0:0:0:
141,21,50670,6,0,P|90:12|39:13,1,101.999996887207,2|0,0:0|0:0,0:0:0:0:
51,149,50993,1,8,0:0:0:0:
239,90,51154,1,0,0:0:0:0:
67,27,51315,5,8,0:3:0:0:
50,191,51477,1,8,0:3:0:0:
33,355,51638,1,8,0:0:0:0:
49,333,51960,5,6,0:0:0:0:
108,263,52122,1,0,0:0:0:0:
198,279,52283,1,10,0:0:0:0:
44,365,52444,5,2,0:0:0:0:
77,178,52606,1,0,0:0:0:0:
222,300,52767,1,2,0:0:0:0:
336,337,52928,5,10,0:0:0:0:
108,263,53089,1,0,0:0:0:0:
401,140,53251,5,6,0:0:0:0:
423,302,53412,1,0,0:0:0:0:
271,240,53573,1,10,0:0:0:0:
452,160,53735,5,2,0:0:0:0:
380,336,53896,1,0,0:0:0:0:
262,185,54057,1,2,0:0:0:0:
446,70,54218,5,10,0:0:0:0:
465,306,54380,1,0,0:0:0:0:
231,101,54541,6,0,L|241:0,1,101.999996887207,6|0,0:0|0:0,0:0:0:0:
35,90,54864,2,0,L|45:191,1,101.999996887207,10|0,0:0|0:0,0:0:0:0:
330,190,55186,2,0,L|340:88,1,101.999996887207,2|0,0:0|0:0,0:0:0:0:
156,256,55509,2,0,L|166:357,1,101.999996887207,10|0,0:0|0:0,0:0:0:0:
297,323,55831,5,2,0:0:0:0:
198,116,55993,1,0,0:0:0:0:
297,323,56154,1,8,0:0:0:0:
326,336,56477,1,2,0:0:0:0:
366,200,56638,1,8,0:0:0:0:
366,200,56718,1,8,0:0:0:0:
366,200,56799,1,8,0:0:0:0:
476,308,56960,1,8,0:0:0:0:
476,308,57040,1,8,0:0:0:0:
476,308,57122,6,0,L|379:274,1,101.999996887207,6|0,0:0|0:0,0:0:0:0:
274,103,57444,2,0,L|370:69,1,101.999996887207,10|2,0:0|0:0,0:0:0:0:
324,355,57767,2,0,L|227:321,1,101.999996887207,2|0,0:0|0:0,0:0:0:0:
122,56,58089,2,0,L|218:22,1,101.999996887207,8|0,0:0|0:0,0:0:0:0:
199,184,58412,5,2,0:0:0:0:
1,237,58573,1,0,0:0:0:0:
188,261,58735,1,10,0:0:0:0:
11,159,58896,1,0,0:0:0:0:
126,309,59057,1,2,0:0:0:0:
73,111,59218,1,0,0:0:0:0:
48,299,59380,1,10,0:0:0:0:
151,121,59541,1,0,0:0:0:0:
328,223,59702,6,0,P|332:274|329:325,1,101.999996887207,2|0,0:0|0:0,0:0:0:0:
100,292,60025,2,0,P|96:241|99:190,1,101.999996887207,8|0,0:0|0:0,0:0:0:0:
230,75,60347,1,2,0:0:0:0:
215,262,60509,1,0,0:0:0:0:
230,75,60670,2,0,L|396:53,1,152.999995330811,8|0,0:0|0:0,0:0:0:0:
461,122,60993,6,0,P|458:172|436:218,1,101.999996887207,6|8,0:0|0:0,0:0:0:0:
420,236,61235,1,8,0:0:0:0:
420,236,61315,1,8,0:0:0:0:
163,193,61477,2,0,B|138:52|138:52|175:3,1,203.999993774414,14|0,0:0|0:0,0:0:0:0:
230,75,61960,1,8,0:0:0:0:
243,270,62122,1,0,0:0:0:0:
68,183,62283,6,0,L|43:31,2,152.999995330811,6|0|8,0:0|0:0|0:0,0:0:0:0:
76,363,63251,1,0,0:0:0:0:
228,266,63412,1,8,0:0:0:0:
228,266,63493,1,8,0:0:0:0:
228,266,63573,5,2,0:0:0:0:
180,358,63735,1,8,0:0:0:0:
171,178,63896,2,0,P|206:162|244:163,1,76.4999976654053,2|0,0:0|0:0,0:0:0:0:
123,271,64218,2,0,P|72:217|72:142,1,152.999995330811,8|0,0:0|0:0,0:0:0:0:
169,74,64702,1,2,0:0:0:0:
324,136,64864,6,0,L|314:216,1,76.4999976654053,2|0,0:0|0:0,0:0:0:0:
171,178,65186,2,0,L|180:102,1,76.4999976654053
407,106,65509,2,0,L|387:266,1,152.999995330811,8|0,0:0|0:0,0:0:0:0:
248,301,65993,1,0,0:0:0:0:
248,301,66073,1,0,0:0:0:0:
248,301,66154,6,0,P|210:293|175:277,1,76.4999976654053,2|0,0:0|0:0,0:0:0:0:
21,258,66477,2,0,P|55:242|93:234,1,76.4999976654053
266,316,66799,1,8,0:0:0:0:
90,346,66960,1,8,0:3:0:0:
222,323,67122,1,8,0:3:0:0:
134,338,67283,1,0,0:0:0:0:
137,309,67364,1,0,0:0:0:0:
140,279,67444,6,0,L|131:143,1,136,0|0,3:0|0:0,0:0:0:0:
218,233,67928,1,0,0:0:0:0:
218,233,68089,2,0,L|209:97,1,136,2|0,0:0|0:0,0:0:0:0:
131,58,68573,1,0,0:0:0:0:
89,153,68735,6,0,P|154:137|208:97,1,136,0|0,3:0|0:0,0:0:0:0:
0,164,69218,1,0,0:0:0:0:
54,237,69380,2,0,P|111:272|178:282,1,136,2|0,0:0|0:0,0:0:0:0:
256,231,69864,1,0,0:0:0:0:
458,237,70025,6,0,B|400:272|400:272|333:282,1,136,0|0,3:0|0:0,0:0:0:0:
274,136,70670,2,0,B|331:100|331:100|398:90,1,136,2|0,0:0|0:0,0:0:0:0:
476,142,71154,1,0,0:0:0:0:
234,209,71315,6,0,L|220:73,1,136,0|0,3:0|0:0,0:0:0:0:
80,40,71799,1,0,0:0:0:0:
80,40,71960,2,0,L|93:175,1,136,2|0,0:0|0:0,0:0:0:0:
77,295,72444,1,0,0:0:0:0:
77,295,72525,1,0,0:0:0:0:
77,295,72606,6,0,P|98:297|119:295,1,42.5,2|0,0:0|0:0,0:0:0:0:
201,220,72928,2,0,P|180:218|159:220,1,42.5,2|0,0:0|0:0,0:0:0:0:
240,296,73251,2,0,P|261:298|282:296,1,42.5,2|0,0:0|0:0,0:0:0:0:
364,221,73573,2,0,P|343:219|322:221,1,42.5,2|0,0:0|0:0,0:0:0:0:
446,253,73815,1,0,0:0:0:0:
446,253,73896,6,0,L|434:168,1,85,2|0,0:0|0:0,0:0:0:0:
367,53,74380,1,0,0:0:0:0:
367,53,74541,2,0,L|355:137,1,85,8|0,0:0|0:0,0:0:0:0:
280,222,75186,6,0,B|232:250|198:238|198:238|205:224,1,101.999996887207,6|0,0:0|0:0,0:0:0:0:
47,150,75831,6,0,B|102:182|142:168|142:168|133:152,1,118.999996368408,4|0,0:0|0:0,0:0:0:0:
361,273,76477,6,0,B|217:356|115:320|115:320|137:279,1,305.999990661621,4|6,3:0|0:0,0:0:0:0:
26,122,77767,6,0,B|134:89|134:89|172:98,1,152.999995330811,6|0,0:0|0:0,0:0:0:0:
136,210,78251,1,8,0:0:0:0:
136,210,78331,1,8,0:0:0:0:
136,210,78412,1,8,0:0:0:0:
285,120,78573,2,0,P|285:81|273:45,1,76.4999976654053,8|2,0:0|0:0,0:0:0:0:
248,231,78896,1,0,0:0:0:0:
349,10,79057,6,0,L|196:22,1,152.999995330811,6|0,0:0|0:0,0:0:0:0:
54,95,79541,1,0,0:0:0:0:
54,95,79702,2,0,L|130:101,1,76.4999976654053,8|0,0:0|0:0,0:0:0:0:
212,169,80025,1,2,0:0:0:0:
177,266,80186,1,8,0:0:0:0:
13,238,80347,5,2,0:0:0:0:
177,266,80509,2,0,L|252:256,1,76.4999976654053
118,204,80831,2,0,P|93:273|131:337,2,152.999995330811,2|10|8,0:0|0:0|0:0,0:0:0:0:
213,48,81638,6,0,B|245:104|229:165|229:165|258:154,1,152.999995330811,6|0,0:0|0:0,0:0:0:0:
374,118,82122,2,0,B|342:174|357:235|357:235|328:224,1,152.999995330811,4|0,0:0|0:0,0:0:0:0:
271,309,82606,1,2,0:0:0:0:
473,195,82928,6,0,L|476:131,1,63.7500024318696,2|0,0:0|0:0,0:0:0:0:
366,127,83251,2,0,L|362:63,1,63.7500024318696,2|0,0:0|0:0,0:0:0:0:
230,177,83573,2,0,L|248:115,1,63.7500024318696,10|0,0:0|0:0,0:0:0:0:
121,120,83896,2,0,L|102:58,1,63.7500024318696,2|0,0:0|0:0,0:0:0:0:
44,213,84218,6,0,P|44:244|52:275,1,63.7500024318696,2|8,0:0|0:0,0:0:0:0:
145,378,84541,2,0,P|152:347|153:315,1,63.7500024318696,2|0,0:0|0:0,0:0:0:0:
245,187,84864,2,0,P|240:218|242:250,1,63.7500024318696,10|0,0:0|0:0,0:0:0:0:
350,366,85186,2,0,P|354:334|352:302,1,63.7500024318696,2|0,0:0|0:0,0:0:0:0:
477,197,85509,6,0,B|445:202|445:202|414:196,1,63.7500024318696,2|0,0:0|0:0,0:0:0:0:
329,226,85831,2,0,B|324:194|324:194|329:163,1,63.7500024318696,2|0,0:0|0:0,0:0:0:0:
300,78,86154,2,0,B|332:73|332:73|362:78,1,63.7500024318696,10|0,0:0|0:0,0:0:0:0:
448,49,86477,2,0,B|453:81|453:81|447:111,1,63.7500024318696,2|0,0:0|0:0,0:0:0:0:
412,224,86799,6,0,B|381:212|381:212|358:191,1,63.7500024318696,2|8,0:0|0:0,0:0:0:0:
278,105,87122,2,0,B|303:84|303:84|332:74,1,63.7500024318696,2|0,0:0|0:0,0:0:0:0:
447,111,87444,1,10,0:0:0:0:
473,228,87606,1,8,0:3:0:0:
358,191,87767,1,10,0:3:0:0:
447,111,87928,1,8,0:3:0:0:
384,308,88089,5,6,0:0:0:0:
61,272,89380,1,6,0:0:0:0:
253,10,90347,1,2,0:0:0:0:
253,10,90670,6,0,B|271:76|237:75|251:135,1,127.500004863739,6|0,0:0|0:0,0:0:0:0:
312,216,91154,1,0,0:0:0:0:
312,216,91315,2,0,P|314:247|311:279,1,63.7500024318696,2|0,0:0|0:0,0:0:0:0:
410,282,91638,2,0,P|403:313|392:343,1,63.7500024318696,2|0,0:0|0:0,0:0:0:0:
217,310,91960,5,2,0:0:0:0:
196,301,92040,1,0,0:0:0:0:
174,296,92121,1,2,0:0:0:0:
152,294,92201,1,0,0:0:0:0:
130,295,92282,1,2,0:0:0:0:
108,299,92363,1,0,0:0:0:0:
86,306,92443,1,2,0:0:0:0:
66,316,92524,1,0,0:0:0:0:
48,328,92606,2,0,L|37:198,1,127.500004863739,2|2,0:0|0:0,0:0:0:0:
23,71,93251,5,6,0:0:0:0:
71,96,103573,6,0,B|83:64|130:56|130:56|170:113|140:161,1,187.000005706787,2|8,0:0|0:0,0:0:0:0:
49,184,104541,2,0,L|-8:196,1,46.7500014266968
177,249,104864,2,0,B|238:237|238:237|301:210|305:243|358:212,1,187.000005706787,2|8,0:0|0:0,0:0:0:0:
307,133,105831,1,0,0:0:0:0:
453,213,106154,6,0,P|442:258|411:291,1,93.5000028533936,2|0,0:0|0:0,0:0:0:0:
407,129,106799,2,0,P|451:115|496:125,1,93.5000028533936,8|0,0:0|0:0,0:0:0:0:
358,211,107444,6,0,L|312:220,1,46.7500014266968,2|0,0:0|0:0,0:0:0:0:
272,302,107767,2,0,L|317:311,1,46.7500014266968,2|0,0:0|0:0,0:0:0:0:
229,180,108089,2,0,L|183:189,1,46.7500014266968,8|0,0:0|0:0,0:0:0:0:
201,358,108412,1,2,0:0:0:0:
201,358,108573,1,0,0:0:0:0:
430,341,108735,6,0,P|426:294|416:248,1,93.5000028533936,2|0,0:0|0:0,0:0:0:0:
474,175,109380,2,0,P|462:129|445:86,1,93.5000028533936,8|0,0:0|0:0,0:0:0:0:
347,81,109864,2,2,L|350:57,1,23.3750007133484
357,28,110025,5,2,0:0:0:0:
249,56,110347,1,0,0:0:0:0:
199,186,110670,1,8,0:0:0:0:
331,325,110993,1,0,0:0:0:0:
497,229,111315,6,0,L|485:76,1,152.999995330811,6|0,0:0|0:0,0:0:0:0:
182,299,111960,2,0,L|193:146,1,152.999995330811,6|0,0:0|0:0,0:0:0:0:
0,241,112606,6,0,P|48:253|97:238,1,101.999996887207,14|8,0:0|0:0,0:0:0:0:
120,221,112847,1,8,0:0:0:0:
120,221,112928,1,8,0:0:0:0:
321,84,113089,2,0,B|183:60|183:60|123:84,1,203.999993774414,8|0,0:0|0:0,0:0:0:0:
172,305,113573,1,10,0:0:0:0:
195,159,113735,1,0,0:0:0:0:
166,332,113896,6,0,L|265:311,1,101.999996887207,8|8,0:0|0:0,0:0:0:0:
300,320,114138,1,8,0:0:0:0:
300,320,114218,1,8,0:0:0:0:
425,225,114380,2,0,P|408:128|320:83,1,203.999993774414,8|0,0:0|0:0,0:0:0:0:
144,109,114864,1,8,0:0:0:0:
320,193,115025,1,0,0:0:0:0:
163,20,115186,6,0,B|112:30|112:30|69:56,1,101.999996887207,10|8,0:0|0:0,0:0:0:0:
39,76,115428,1,8,0:0:0:0:
39,76,115509,1,8,0:0:0:0:
107,302,115670,2,0,B|121:241|121:241|167:189|143:108,1,203.999993774414,8|0,0:0|0:0,0:0:0:0:
13,159,116154,1,8,0:0:0:0:
210,282,116315,1,0,0:0:0:0:
209,46,116477,5,10,0:0:0:0:
224,65,116799,2,0,L|323:43,1,101.999996887207,10|0,0:0|0:0,0:0:0:0:
460,138,117122,1,8,0:0:0:0:
469,178,117202,1,8,0:0:0:0:
466,219,117283,1,8,0:0:0:0:
451,257,117363,1,8,0:0:0:0:
425,288,117444,1,8,0:0:0:0:
392,311,117525,1,8,0:0:0:0:
353,324,117605,1,8,0:0:0:0:
313,324,117686,1,8,0:0:0:0:
273,313,117767,6,0,P|175:292|78:322,1,203.999993774414,6|8,0:0|0:0,0:0:0:0:
7,224,118251,2,0,P|44:189|91:168,1,101.999996887207,2|0,0:0|0:0,0:0:0:0:
229,127,118573,1,2,0:0:0:0:
20,35,118735,2,0,P|68:19|119:21,1,101.999996887207,10|0,0:0|0:0,0:0:0:0:
383,324,119057,6,0,P|282:324|200:267,1,203.999993774414,6|8,0:0|0:0,0:0:0:0:
11,297,119541,2,0,L|31:196,1,101.999996887207,2|0,0:0|0:0,0:0:0:0:
178,79,119864,1,2,0:0:0:0:
133,344,120025,2,0,L|112:243,1,101.999996887207,10|0,0:0|0:0,0:0:0:0:
118,20,120347,6,0,P|164:0|215:0,1,101.999996887207,2|0,0:0|0:0,0:0:0:0:
157,275,120670,2,0,P|110:294|59:294,1,101.999996887207,8|0,0:0|0:0,0:0:0:0:
178,79,120993,2,0,P|228:80|274:102,1,101.999996887207,2|0,0:0|0:0,0:0:0:0:
97,216,121315,2,0,P|46:214|0:192,1,101.999996887207,8|0,0:0|0:0,0:0:0:0:
102,21,121638,5,2,0:0:0:0:
173,274,121799,1,0,0:0:0:0:
178,79,121960,2,0,L|279:67,1,101.999996887207,8|0,0:0|0:0,0:0:0:0:
308,222,122283,1,2,0:0:0:0:
369,21,122444,1,0,0:0:0:0:
502,156,122606,2,0,L|350:138,1,152.999995330811,8|0,0:0|0:0,0:0:0:0:
227,282,122928,5,6,0:0:0:0:
399,262,123089,1,0,0:0:0:0:
171,201,123251,5,10,0:0:0:0:
324,218,123412,1,0,0:0:0:0:
127,335,123573,5,2,0:0:0:0:
313,298,123735,1,0,0:0:0:0:
74,243,123896,5,10,0:0:0:0:
269,373,124057,1,0,0:0:0:0:
27,331,124218,5,2,0:0:0:0:
318,258,124380,1,0,0:0:0:0:
26,243,124541,5,10,0:0:0:0:
345,338,124702,1,0,0:0:0:0:
0,363,124864,5,2,0:0:0:0:
337,231,125025,1,0,0:0:0:0:
135,216,125186,2,0,P|133:266|151:314,1,101.999996887207,2|0,0:0|0:0,0:0:0:0:
446,290,125509,6,0,P|447:210|420:135,1,152.999995330811,6|0,0:0|0:0,0:0:0:0:
398,117,125831,1,10,0:0:0:0:
282,83,125993,1,2,0:0:0:0:
154,223,126154,2,0,L|255:209,1,101.999996887207,2|0,0:0|0:0,0:0:0:0:
112,71,126477,2,0,L|10:57,1,101.999996887207,10|2,0:0|0:0,0:0:0:0:
29,199,126799,6,0,P|26:249|50:294,1,101.999996887207,6|0,0:0|0:0,0:0:0:0:
187,382,127122,1,10,0:0:0:0:
154,223,127283,1,0,0:0:0:0:
34,384,127444,5,2,0:0:0:0:
200,353,127606,1,2,0:0:0:0:
366,322,127767,1,10,0:0:0:0:
389,308,128089,5,6,0:0:0:0:
403,211,128251,1,0,0:0:0:0:
500,225,128412,1,10,0:0:0:0:
334,350,128573,5,2,0:0:0:0:
355,204,128735,1,0,0:0:0:0:
500,225,128896,1,2,0:0:0:0:
479,371,129057,5,10,0:0:0:0:
306,352,129218,1,0,0:0:0:0:
133,333,129380,5,2,0:0:0:0:
285,263,129541,1,0,0:0:0:0:
381,126,129702,1,10,0:0:0:0:
39,270,129864,5,2,0:0:0:0:
205,285,130025,1,0,0:0:0:0:
357,214,130186,1,2,0:0:0:0:
133,174,130347,5,10,0:0:0:0:
164,361,130509,1,0,0:0:0:0:
220,115,130670,6,0,P|184:79|134:71,1,101.999996887207,6|0,0:0|0:0,0:0:0:0:
141,280,130993,2,0,P|189:266|221:228,1,101.999996887207,8|0,0:0|0:0,0:0:0:0:
38,128,131315,2,0,P|25:176|42:223,1,101.999996887207,2|0,0:0|0:0,0:0:0:0:
300,161,131638,2,0,P|312:112|295:65,1,101.999996887207,8|0,0:0|0:0,0:0:0:0:
133,174,131960,5,6,0:0:0:0:
36,358,132122,1,0,0:0:0:0:
133,174,132283,2,0,B|163:249|110:300|110:300|135:331|128:362,1,203.999993774414,8|0,0:0|0:0,0:0:0:0:
42,223,132767,1,8,0:0:0:0:
39,203,132847,1,8,0:0:0:0:
37,187,132928,1,8,0:0:0:0:
74,62,133089,1,8,0:0:0:0:
72,78,133170,1,8,0:0:0:0:
69,96,133251,6,0,P|166:78|231:151,1,203.999993774414,6|8,0:0|0:0,0:0:0:0:
133,174,133735,1,0,0:0:0:0:
308,68,133896,2,0,L|343:163,1,101.999996887207,2|0,0:0|0:0,0:0:0:0:
312,349,134218,2,0,L|276:253,1,101.999996887207,8|0,0:0|0:0,0:0:0:0:
442,122,134541,6,0,P|449:171|435:220,1,101.999996887207,2|0,0:0|0:0,0:0:0:0:
178,295,134864,2,0,P|170:245|184:196,1,101.999996887207,10|0,0:0|0:0,0:0:0:0:
343,163,135186,1,2,0:0:0:0:
276,253,135347,1,0,0:0:0:0:
171,82,135509,2,0,L|272:68,1,101.999996887207,10|0,0:0|0:0,0:0:0:0:
115,244,135831,6,0,L|14:229,1,101.999996887207,2|0,0:0|0:0,0:0:0:0:
242,177,136154,2,0,L|343:162,1,101.999996887207,8|0,0:0|0:0,0:0:0:0:
236,320,136477,1,2,0:0:0:0:
236,320,136638,1,0,0:0:0:0:
143,144,136799,2,0,P|134:93|133:42,1,101.999996887207,8|0,0:0|0:0,0:0:0:0:
357,58,137122,6,0,P|374:158|376:260,1,203.999993774414,2|8,0:0|0:0,0:0:0:0:
256,336,137606,1,0,0:0:0:0:
74,273,137767,1,8,0:0:0:0:
54,237,137847,1,8,0:0:0:0:
47,197,137928,1,8,0:0:0:0:
53,157,138008,1,8,0:0:0:0:
71,120,138089,1,8,0:0:0:0:
99,91,138170,1,8,0:0:0:0:
136,73,138250,1,8,0:0:0:0:
176,67,138331,1,8,0:0:0:0:
221,69,138412,6,0,B|326:104|321:50|421:74,1,203.999993774414,6|8,0:0|0:0,0:0:0:0:
392,277,138896,2,0,B|369:215|369:215|376:179,1,101.999996887207,2|0,0:0|0:0,0:0:0:0:
421,74,139218,1,2,0:0:0:0:
512,252,139380,2,0,B|519:287|519:287|496:349,1,101.999996887207,10|0,0:0|0:0,0:0:0:0:
253,246,139702,6,0,B|207:122|207:122|221:51,1,203.999993774414,2|8,0:0|0:0,0:0:0:0:
415,75,140186,2,0,P|372:102|322:113,1,101.999996887207,2|0,0:0|0:0,0:0:0:0:
103,60,140509,1,2,0:0:0:0:
368,224,140670,2,0,P|317:230|268:219,1,101.999996887207,10|0,0:0|0:0,0:0:0:0:
72,184,140993,6,0,L|66:82,1,101.999996887207,2|0,0:0|0:0,0:0:0:0:
222,133,141315,2,0,L|216:31,1,101.999996887207,10|0,0:0|0:0,0:0:0:0:
313,373,141638,2,0,L|318:271,1,101.999996887207,2|0,0:0|0:0,0:0:0:0:
163,322,141960,2,0,L|168:220,1,101.999996887207,10|0,0:0|0:0,0:0:0:0:
306,34,142283,5,2,0:0:0:0:
242,180,142444,1,0,0:0:0:0:
306,34,142606,2,0,B|303:101|303:101|326:166|326:166|323:241,1,203.999993774414,10|0,0:0|0:0,0:0:0:0:
193,351,143089,1,10,0:0:0:0:
471,315,143251,2,0,L|476:213,1,101.999996887207,10|0,0:0|0:0,0:0:0:0:
439,46,143573,6,0,P|388:48|344:72,1,101.999996887207,6|0,0:0|0:0,0:0:0:0:
73,196,143896,2,0,P|123:193|167:169,1,101.999996887207,10|0,0:0|0:0,0:0:0:0:
351,25,144218,2,0,P|302:37|263:68,1,101.999996887207,2|0,0:0|0:0,0:0:0:0:
159,215,144541,2,0,P|209:204|248:173,1,101.999996887207,10|0,0:0|0:0,0:0:0:0:
262,21,144864,6,0,P|215:40|181:78,1,101.999996887207,2|0,0:0|0:0,0:0:0:0:
250,221,145187,2,0,P|296:201|330:163,1,101.999996887207,10|0,0:0|0:0,0:0:0:0:
172,30,145509,2,0,P|129:58|103:101,1,101.999996887207,2|0,0:0|0:0,0:0:0:0:
340,211,145832,2,0,P|382:183|408:140,1,101.999996887207,10|0,0:0|0:0,0:0:0:0:
218,162,146154,6,0,L|230:263,1,101.999996887207,6|0,0:0|0:0,0:0:0:0:
426,351,146477,1,10,0:0:0:0:
438,249,146638,1,2,0:0:0:0:
137,230,146799,2,0,L|149:331,1,101.999996887207,2|0,0:0|0:0,0:0:0:0:
337,289,147122,2,0,L|349:187,1,101.999996887207,10|0,0:0|0:0,0:0:0:0:
170,115,147444,6,0,B|141:124|141:124|76:96|17:133|17:133|59:145,1,203.999993774414,6|8,0:0|0:0,0:0:0:0:
131,259,147928,1,0,0:0:0:0:
202,26,148089,2,0,P|156:5|106:11,1,101.999996887207,2|0,0:0|0:0,0:0:0:0:
181,188,148412,2,0,P|226:208|276:202,1,101.999996887207,10|0,0:0|0:0,0:0:0:0:
390,85,148735,5,6,0:0:0:0:
239,114,148896,1,0,0:0:0:0:
88,143,149057,1,10,0:0:0:0:
149,53,149218,5,2,0:0:0:0:
178,204,149380,1,0,0:0:0:0:
207,355,149541,1,2,0:0:0:0:
117,294,149702,5,10,0:0:0:0:
419,236,149864,1,0,0:0:0:0:
358,326,150024,5,6,0:0:0:0:
329,175,150186,1,0,0:0:0:0:
300,24,150347,1,10,0:0:0:0:
178,204,150509,5,2,0:0:0:0:
268,265,150670,1,0,0:0:0:0:
329,175,150831,1,2,0:0:0:0:
117,294,150993,5,10,0:0:0:0:
419,236,151154,1,0,0:0:0:0:
218,3,151315,6,0,P|211:54|220:104,1,101.999996887207,6|0,0:0|0:0,0:0:0:0:
117,92,151638,2,0,P|132:140|161:182,1,101.999996887207,10|0,0:0|0:0,0:0:0:0:
62,214,151960,2,0,P|96:251|140:276,1,101.999996887207,2|0,0:0|0:0,0:0:0:0:
63,347,152283,2,0,P|110:366|160:370,1,101.999996887207,10|0,0:0|0:0,0:0:0:0:
341,319,152606,6,0,B|305:273|305:273|341:207|320:131,1,203.999993774414,2|8,0:0|0:0,0:0:0:0:
256,53,153089,1,0,0:0:0:0:
167,187,153251,1,2,0:0:0:0:
408,258,153412,1,8,0:0:0:0:
440,250,153493,1,8,0:0:0:0:
472,242,153573,1,10,0:0:0:0:
344,370,153735,1,8,0:0:0:0:
376,362,153816,1,8,0:0:0:0:
408,354,153896,6,0,L|423:150,1,203.999993774414,6|8,0:0|0:0,0:0:0:0:
378,58,154380,1,2,0:0:0:0:
219,149,154541,2,0,P|270:153|320:143,1,101.999996887207,2|0,0:0|0:0,0:0:0:0:
66,197,154864,2,0,P|110:222|159:233,1,101.999996887207,10|0,0:0|0:0,0:0:0:0:
352,233,155186,5,2,0:0:0:0:
256,63,155347,1,0,0:0:0:0:
401,148,155509,1,10,0:0:0:0:
206,147,155670,1,0,0:0:0:0:
353,63,155831,1,2,0:0:0:0:
254,232,155992,1,0,0:0:0:0:
71,160,156154,1,10,0:0:0:0:
71,160,156477,6,0,B|118:129|146:169|159:215|121:243|121:243|171:249|180:305|157:345|113:342,1,305.999990661621,6|2,0:0|0:0,0:0:0:0:
273,330,157122,2,0,B|341:333|351:257|311:213|264:217|264:217|257:160|257:160|318:152,1,305.999990661621,6|2,0:0|0:0,0:0:0:0:
512,204,157767,2,0,B|531:217|582:290|518:364|440:345|394:296|425:215|453:199,2,305.999990661621,14|10|10,0:0|0:0|0:0,0:0:0:0:
488,93,159057,6,0,B|469:64|421:59|421:59|362:77|323:115,1,191.250007295609,6|0,0:0|0:0,0:0:0:0:
228,88,159702,2,0,P|233:151|247:213,1,127.500004863739,2|0,0:0|0:0,0:0:0:0:
344,317,160186,1,0,0:0:0:0:
344,317,160347,6,0,L|350:253,1,63.7500024318696,2|0,0:0|0:0,0:0:0:0:
237,315,160670,2,0,L|243:378,1,63.7500024318696,2|0,0:0|0:0,0:0:0:0:
454,301,160993,1,2,0:0:0:0:
481,168,161315,1,0,0:0:0:0:
301,70,161638,6,0,P|237:69|175:85,1,127.500004863739,2|0,0:0|0:0,0:0:0:0:
164,204,162122,1,0,0:0:0:0:
163,204,162283,2,0,P|194:200|225:193,1,63.7500024318696,2|2,0:0|0:0,0:0:0:0:
121,308,162606,2,0,P|152:312|184:313,1,63.7500024318696,2|2,0:0|0:0,0:0:0:0:
317,286,162928,5,2,0:0:0:0:
320,270,163089,1,0,0:0:0:0:
401,295,163251,5,2,0:0:0:0:
406,333,163412,1,0,0:0:0:0:
481,305,163573,5,2,0:0:0:0:
503,225,163735,1,2,0:0:0:0:
401,192,163896,5,2,0:0:0:0:
430,375,164057,1,2,0:0:0:0:
471,138,164218,6,0,P|371:107|313:194,1,223.124993190766,2|0,0:0|0:0,0:0:0:0:
315,211,165468,2,2,L|320:222,1,7.43749977302552
256,192,165670,12,0,169380,3:0:0:0:
