osu file format v14

[General]
AudioFilename: audio.ogg
AudioLeadIn: 0
PreviewTime: 40189
Countdown: 0
SampleSet: Normal
StackLeniency: 0.7
Mode: 1
LetterboxInBreaks: 0
WidescreenStoryboard: 0

[Editor]
DistanceSpacing: 2
BeatDivisor: 4
GridSize: 32
TimelineZoom: 0.8999999

[Metadata]
Title:Summoning 101
TitleUnicode:Summoning 101
Artist:Mili
ArtistUnicode:Mili
Creator:Dellvangel
Version:Kantan
Source:
Tags:Millennium Mother 3rd Album SNCL-00018 momocashew cassie wei projectmili English Pop
BeatmapID:1687870
BeatmapSetID:804107

[Difficulty]
HPDrainRate:7
CircleSize:5
OverallDifficulty:3
ApproachRate:1
SliderMultiplier:1.4
SliderTickRate:1

[Events]
//Background and Video events
0,0,"BG.jpg",0,-25
//Break Periods
//Storyboard Layer 0 (Background)
//Storyboard Layer 1 (Fail)
//Storyboard Layer 2 (Pass)
//Storyboard Layer 3 (Foreground)
//Storyboard Layer 4 (Overlay)
//Storyboard Sound Samples

[TimingPoints]
270,322.58064516129,4,1,0,70,1,0
8334,-100,4,1,0,73,0,0
9624,-100,4,1,0,77,0,0
10431,-100,4,1,0,80,0,0
16076,-100,4,1,0,70,0,0
21237,-100,4,1,0,60,0,0
25753,-100,4,1,0,80,0,0
36721,-100,4,1,0,60,0,0
40592,-100,4,1,0,80,0,0
41399,-100,4,1,0,90,0,0
41560,-100,4,1,0,90,0,1
62205,-100,4,1,0,90,0,0
62528,-100,4,1,0,80,0,0
67689,-100,4,1,0,70,0,0
77366,-100,4,1,0,80,0,0
86721,-100,4,1,0,70,0,0
87044,-100,4,1,0,60,0,0
87689,-100,4,1,0,80,0,0
88334,-100,4,1,0,60,0,0
92850,-100,4,1,0,55,0,0
103173,-100,4,1,0,50,0,0
110915,-100,4,1,0,60,0,0
111560,-100,4,1,0,70,0,0
112205,-100,4,1,0,80,0,0
117528,-100,4,1,0,90,0,0
117689,-100,4,1,0,90,0,1
158979,-100,4,1,0,90,0,0
159302,-100,4,1,0,70,0,0
162528,-100,4,1,0,60,0,0

[HitObjects]
256,192,270,5,4,0:0:0:0:
256,192,753,1,4,0:0:0:0:
256,192,1237,1,12,0:0:0:0:
256,192,2850,1,12,0:0:0:0:
256,192,3334,1,12,0:0:0:0:
256,192,3818,1,4,0:0:0:0:
256,192,4786,1,0,0:0:0:0:
256,192,5108,1,8,0:0:0:0:
256,192,5431,1,4,0:0:0:0:
256,192,5915,1,4,0:0:0:0:
256,192,6399,1,12,0:0:0:0:
256,192,7366,1,8,0:0:0:0:
256,192,8011,1,4,0:0:0:0:
256,192,8657,1,8,0:0:0:0:
256,192,8979,1,8,0:0:0:0:
256,192,9302,1,12,0:0:0:0:
256,192,9947,1,0,0:0:0:0:
256,192,10269,1,8,0:0:0:0:
256,192,10592,1,4,0:0:0:0:
256,192,11237,1,8,0:0:0:0:
256,192,11882,1,0,0:0:0:0:
256,192,12850,1,8,0:0:0:0:
256,192,13173,1,8,0:0:0:0:
256,192,13818,1,0,0:0:0:0:
256,192,14463,1,8,0:0:0:0:
256,192,15753,1,4,0:0:0:0:
256,192,17044,1,0,0:0:0:0:
256,192,18334,1,0,0:0:0:0:
256,192,18979,1,8,0:0:0:0:
256,192,19624,1,0,0:0:0:0:
256,192,20269,1,8,0:0:0:0:
256,192,20592,1,0,0:0:0:0:
256,192,20915,1,4,0:0:0:0:
256,192,22205,1,0,0:0:0:0:
256,192,22850,1,0,0:0:0:0:
256,192,23495,1,8,0:0:0:0:
256,192,24140,1,8,0:0:0:0:
256,192,24786,1,0,0:0:0:0:
256,192,26076,1,4,0:0:0:0:
256,192,26882,1,12,0:0:0:0:
256,192,27366,1,4,0:0:0:0:
256,192,28173,1,4,0:0:0:0:
256,192,28657,1,12,0:0:0:0:
256,192,29463,1,12,0:0:0:0:
256,192,29947,1,4,0:0:0:0:
256,192,30431,1,12,0:0:0:0:
256,192,31237,1,4,0:0:0:0:
256,192,32205,1,8,0:0:0:0:
256,192,32528,1,4,0:0:0:0:
256,192,33495,1,8,0:0:0:0:
256,192,33818,1,12,0:0:0:0:
256,192,34463,1,8,0:0:0:0:
256,192,35108,1,12,0:0:0:0:
256,192,35753,1,0,0:0:0:0:
256,192,36399,1,12,0:0:0:0:
256,192,37689,1,4,0:0:0:0:
256,192,38657,1,0,0:0:0:0:
256,192,38979,1,12,0:0:0:0:
256,192,40915,1,8,0:0:0:0:
256,192,41237,1,8,0:0:0:0:
256,192,41560,1,4,0:0:0:0:
256,192,42044,1,4,0:0:0:0:
256,192,42850,1,12,0:0:0:0:
256,192,43334,1,12,0:0:0:0:
256,192,44140,1,4,0:0:0:0:
256,192,44786,1,8,0:0:0:0:
256,192,45108,1,8,0:0:0:0:
256,192,45431,1,0,0:0:0:0:
256,192,46721,1,4,0:0:0:0:
256,192,47366,1,0,0:0:0:0:
256,192,47689,1,8,0:0:0:0:
256,192,48011,1,0,0:0:0:0:
256,192,48657,1,8,0:0:0:0:
256,192,48979,1,8,0:0:0:0:
256,192,49302,1,0,0:0:0:0:
256,192,49947,1,8,0:0:0:0:
256,192,50592,1,0,0:0:0:0:
256,192,51237,1,0,0:0:0:0:
256,192,51882,1,12,0:0:0:0:
256,192,52366,1,12,0:0:0:0:
256,192,53173,1,12,0:0:0:0:
256,192,53657,1,12,0:0:0:0:
256,192,54463,1,4,0:0:0:0:
256,192,55108,1,8,0:0:0:0:
256,192,55431,1,8,0:0:0:0:
256,192,55753,1,0,0:0:0:0:
256,192,57044,1,4,0:0:0:0:
256,192,57689,1,8,0:0:0:0:
256,192,58334,1,0,0:0:0:0:
256,192,58657,1,8,0:0:0:0:
256,192,58979,1,8,0:0:0:0:
256,192,59624,1,0,0:0:0:0:
256,192,60269,1,0,0:0:0:0:
256,192,60592,1,8,0:0:0:0:
256,192,60915,1,0,0:0:0:0:
256,192,62205,1,4,0:0:0:0:
256,192,62850,1,8,0:0:0:0:
256,192,63495,1,0,0:0:0:0:
256,192,64463,1,0,0:0:0:0:
256,192,64786,1,8,0:0:0:0:
256,192,65431,1,8,0:0:0:0:
256,192,65753,1,8,0:0:0:0:
256,192,66076,1,0,0:0:0:0:
256,192,66721,1,8,0:0:0:0:
256,192,67044,1,0,0:0:0:0:
256,192,67366,1,4,0:0:0:0:
256,192,68656,1,8,0:0:0:0:
256,192,69946,1,0,0:0:0:0:
256,192,70591,1,8,0:0:0:0:
256,192,71236,1,0,0:0:0:0:
256,192,71882,1,8,0:0:0:0:
256,192,72527,1,4,0:0:0:0:
256,192,73818,1,8,0:0:0:0:
256,192,74463,1,8,0:0:0:0:
256,192,75108,1,4,0:0:0:0:
256,192,75753,1,12,0:0:0:0:
256,192,76398,1,4,0:0:0:0:
256,192,77689,1,4,0:0:0:0:
256,192,78495,1,12,0:0:0:0:
256,192,78979,1,4,0:0:0:0:
256,192,79786,1,4,0:0:0:0:
256,192,80270,1,12,0:0:0:0:
256,192,81076,1,12,0:0:0:0:
256,192,81560,1,4,0:0:0:0:
256,192,82044,1,12,0:0:0:0:
256,192,82850,12,0,87044,0:0:0:0:
256,192,88011,5,12,0:0:0:0:
256,192,89302,1,4,0:0:0:0:
256,192,90592,1,12,0:0:0:0:
256,192,91882,1,0,0:0:0:0:
256,192,92205,1,0,0:0:0:0:
256,192,92528,1,8,0:0:0:0:
256,192,93173,1,8,0:0:0:0:
256,192,94463,1,8,0:0:0:0:
256,192,95753,1,0,0:0:0:0:
256,192,96399,1,8,0:0:0:0:
256,192,97044,1,0,0:0:0:0:
256,192,98334,1,8,0:0:0:0:
256,192,99624,1,8,0:0:0:0:
256,192,100269,1,8,0:0:0:0:
256,192,100915,1,0,0:0:0:0:
256,192,101560,1,0,0:0:0:0:
256,192,102205,1,8,0:0:0:0:
256,192,103495,1,0,0:0:0:0:
256,192,104786,1,8,0:0:0:0:
256,192,106076,1,0,0:0:0:0:
256,192,106721,1,8,0:0:0:0:
256,192,107366,1,8,0:0:0:0:
256,192,108657,1,0,0:0:0:0:
256,192,109947,1,8,0:0:0:0:
256,192,110592,1,8,0:0:0:0:
256,192,111237,1,4,0:0:0:0:
256,192,111882,1,12,0:0:0:0:
256,192,112528,1,4,0:0:0:0:
256,192,113495,1,0,0:0:0:0:
256,192,113818,1,8,0:0:0:0:
256,192,114786,1,0,0:0:0:0:
256,192,115108,1,0,0:0:0:0:
256,192,116076,1,0,0:0:0:0:
256,192,116399,1,0,0:0:0:0:
256,192,117044,1,8,0:0:0:0:
256,192,117366,1,8,0:0:0:0:
256,192,117689,1,4,0:0:0:0:
256,192,118173,1,4,0:0:0:0:
256,192,118979,1,12,0:0:0:0:
256,192,119463,1,12,0:0:0:0:
256,192,120269,1,4,0:0:0:0:
256,192,120915,1,8,0:0:0:0:
256,192,121237,1,8,0:0:0:0:
256,192,121560,1,0,0:0:0:0:
256,192,122850,1,4,0:0:0:0:
256,192,123495,1,0,0:0:0:0:
256,192,123818,1,8,0:0:0:0:
256,192,124140,1,0,0:0:0:0:
256,192,124786,1,8,0:0:0:0:
256,192,125108,1,8,0:0:0:0:
256,192,125431,1,0,0:0:0:0:
256,192,126076,1,8,0:0:0:0:
256,192,126721,1,0,0:0:0:0:
256,192,127366,1,0,0:0:0:0:
256,192,128011,1,12,0:0:0:0:
256,192,128495,1,12,0:0:0:0:
256,192,129302,1,12,0:0:0:0:
256,192,129786,1,12,0:0:0:0:
256,192,130592,1,4,0:0:0:0:
256,192,131237,1,8,0:0:0:0:
256,192,131560,1,8,0:0:0:0:
256,192,131882,1,0,0:0:0:0:
256,192,133173,1,4,0:0:0:0:
256,192,133818,1,8,0:0:0:0:
256,192,134463,1,0,0:0:0:0:
256,192,134786,1,8,0:0:0:0:
256,192,135108,1,8,0:0:0:0:
256,192,135753,1,0,0:0:0:0:
256,192,136399,1,8,0:0:0:0:
256,192,137044,1,0,0:0:0:0:
256,192,137689,1,8,0:0:0:0:
256,192,138011,1,8,0:0:0:0:
256,192,138334,1,4,0:0:0:0:
256,192,138818,1,4,0:0:0:0:
256,192,139624,1,12,0:0:0:0:
256,192,140108,1,12,0:0:0:0:
256,192,140914,1,4,0:0:0:0:
256,192,141560,1,8,0:0:0:0:
256,192,141882,1,8,0:0:0:0:
256,192,142205,1,0,0:0:0:0:
256,192,143495,1,4,0:0:0:0:
256,192,144140,1,0,0:0:0:0:
256,192,144463,1,8,0:0:0:0:
256,192,144785,1,0,0:0:0:0:
256,192,145431,1,8,0:0:0:0:
256,192,145753,1,8,0:0:0:0:
256,192,146076,1,0,0:0:0:0:
256,192,146721,1,8,0:0:0:0:
256,192,147366,1,0,0:0:0:0:
256,192,148011,1,0,0:0:0:0:
256,192,148656,1,12,0:0:0:0:
256,192,149140,1,12,0:0:0:0:
256,192,149947,1,12,0:0:0:0:
256,192,150431,1,12,0:0:0:0:
256,192,151237,1,4,0:0:0:0:
256,192,151882,1,8,0:0:0:0:
256,192,152205,1,8,0:0:0:0:
256,192,152527,1,0,0:0:0:0:
256,192,153818,1,4,0:0:0:0:
256,192,154463,1,8,0:0:0:0:
256,192,155108,1,0,0:0:0:0:
256,192,155431,1,8,0:0:0:0:
256,192,155753,1,8,0:0:0:0:
256,192,156398,1,0,0:0:0:0:
256,192,157043,1,8,0:0:0:0:
256,192,157366,1,8,0:0:0:0:
256,192,157689,1,0,0:0:0:0:
256,192,158979,1,0,0:0:0:0:
256,192,159624,1,8,0:0:0:0:
256,192,160269,1,0,0:0:0:0:
256,192,161560,1,0,0:0:0:0:
256,192,162205,1,8,0:0:0:0:
256,192,162850,12,0,164140,0:0:0:0:
