osu file format v14

[General]
AudioFilename: audio.mp3
AudioLeadIn: 0
PreviewTime: 70453
Countdown: 0
SampleSet: Soft
StackLeniency: 0.7
Mode: 0
LetterboxInBreaks: 0
WidescreenStoryboard: 1

[Editor]
DistanceSpacing: 1
BeatDivisor: 6
GridSize: 8
TimelineZoom: 2.799999

[Metadata]
Title:Summoning 101
TitleUnicode:Summoning 101
Artist:Mili
ArtistUnicode:Mili
Creator:Cheri
Version:Hard
Source:
Tags:Hailie ylvy DJ Lucky English
BeatmapID:2058958
BeatmapSetID:920344

[Difficulty]
HPDrainRate:5
CircleSize:3.3
OverallDifficulty:6
ApproachRate:8
SliderMultiplier:1.35
SliderTickRate:1

[Events]
//Background and Video events
0,0,"maxresdefault.jpg",0,0
//Break Periods
//Storyboard Layer 0 (Background)
//Storyboard Layer 1 (Fail)
//Storyboard Layer 2 (Pass)
//Storyboard Layer 3 (Foreground)
//Storyboard Layer 4 (Overlay)
//Storyboard Sound Samples

[TimingPoints]
3357,322.58064516129,4,2,0,50,1,0
7550,300,4,2,0,50,1,0
7700,304.568527918782,4,2,0,50,1,0
7852,331.491712707182,4,2,0,50,1,0
8017,342.857142857143,4,2,0,50,1,0
8188,304.568527918782,4,2,0,50,1,0
8492,363.636363636364,4,2,0,50,1,0
8673,283.018867924528,4,2,0,50,1,0
8956,359.281437125748,4,2,0,50,1,0
9135,342.857142857143,4,2,0,50,1,0
9306,335.195530726257,4,2,0,50,1,0
9473,335.195530726257,4,2,0,50,1,0
9808,335.195530726257,4,2,0,50,1,0
11113,312.5,4,2,0,50,1,0
11582,315.789473684211,4,2,0,50,1,0
11741,305.343511450382,4,2,0,50,1,0
11893,319.148936170213,4,2,0,50,1,0
12052,317.460317460317,4,2,0,50,1,0
12210,335.195530726257,4,2,0,50,1,0
12377,310.880829015544,4,2,0,50,1,0
12687,319.148936170213,4,2,0,50,1,0
13003,320.855614973262,4,2,0,50,1,0
13679,322.58064516129,4,2,0,50,1,0
13679,-100,4,2,0,50,0,0
18840,-125,4,2,0,40,0,0
28518,-125,4,2,0,50,0,0
29163,-100,4,2,0,50,0,0
36905,-100,4,2,0,60,0,0
39486,-125,4,2,0,50,0,0
44647,-90.9090909090909,4,2,0,70,0,0
49486,-133.333333333333,4,2,0,50,0,0
49808,-90.9090909090909,4,2,0,70,0,0
65292,-100,4,2,0,50,0,0
70453,-100,4,2,0,40,0,0
80776,-100,4,2,0,50,0,0
85937,-142.857142857143,4,2,0,45,0,0
91098,-166.666666666667,4,2,0,40,0,0
106582,-166.666666666667,4,2,0,50,0,0
114324,-166.666666666667,4,2,0,60,0,0
115615,-100,4,2,0,60,0,0
120776,-90.9090909090909,4,2,0,80,0,0
125615,-133.333333333333,4,2,0,80,0,0
125937,-90.9090909090909,4,2,0,80,0,0
146260,-133.333333333333,4,2,0,80,0,0
146582,-90.9090909090909,4,2,0,80,0,0
161690,-90.9090909090909,4,2,0,50,0,0
162066,-133.333333333333,4,2,0,50,0,0

[Colours]
Combo1 : 107,58,252
Combo2 : 0,0,255
Combo3 : 222,250,245
Combo4 : 214,214,214

[HitObjects]
34,26,3357,6,0,P|50:82|68:171,1,135,6|0,0:0|0:0,0:0:0:0:
93,275,3840,2,0,P|147:249|235:234,1,135,6|0,3:0|0:0,0:0:0:0:
372,269,4324,2,0,P|383:104|393:-1,1,270,4|0,3:0|0:0,0:0:0:0:
418,27,5937,2,0,P|386:32|294:90,1,135,6|0,3:0|0:0,0:0:0:0:
198,133,6421,2,0,P|233:210|227:271,1,135,6|0,3:0|0:0,0:0:0:0:
71,222,6905,2,0,L|84:140,1,67.5,6|0,3:0|0:0,0:0:0:0:
223,94,7227,2,0,L|367:74,1,135,0|4,0:0|3:0,0:0:0:0:
403,195,7700,2,0,L|320:198,1,67.5,4|4,3:0|3:0,0:0:0:0:
356,75,8017,1,4,3:0:0:0:
493,120,8188,5,0,1:0:0:0:
493,120,8492,2,0,P|485:79|476:48,1,67.5,0|0,1:0|1:0,0:0:0:0:
478,54,8814,1,0,1:0:0:0:
358,32,8956,2,0,P|362:72|367:102,1,67.5,4|0,3:0|1:0,0:0:0:0:
366,98,9306,1,0,1:0:0:0:
303,188,9473,2,0,P|252:218|244:226,1,67.5,4|0,0:0|0:0,0:0:0:0:
230,269,10143,6,0,P|175:236|125:181,1,135,0|2,0:0|0:0,0:0:0:0:
131,137,10813,2,0,L|164:64,1,67.5
297,54,11113,2,0,L|217:246,1,202.5,6|0,0:0|0:0,0:0:0:0:
305,374,11741,2,0,L|279:287,1,67.5,0|0,1:0|1:0,0:0:0:0:
401,338,12052,1,0,1:0:0:0:
379,216,12210,1,0,1:0:0:0:
509,210,12377,1,0,1:0:0:0:
500,170,12687,2,0,L|476:129,3,33.75,0|0|0|0,1:0|1:0|1:0|1:0,0:0:0:0:
452,129,13003,2,0,L|390:134,3,33.75,0|0|0|0,1:0|1:0|1:0|1:0,0:0:0:0:
387,153,13323,1,0,1:0:0:0:
281,88,13484,1,0,1:0:0:0:
281,88,13564,1,0,1:0:0:0:
281,88,13679,6,0,P|215:93|125:91,1,135,6|0,0:0|1:0,0:0:0:0:
29,47,14163,1,0,0:0:0:0:
29,47,14324,2,0,P|16:107|38:187,1,135,4|0,3:0|1:0,0:0:0:0:
136,236,14808,1,0,0:0:0:0:
136,236,14969,2,0,L|281:221,1,135,4|0,3:0|1:0,0:0:0:0:
421,317,15615,2,0,L|498:319,1,67.5,4|0,3:0|1:0,0:0:0:0:
465,203,15937,6,0,P|430:202|397:193,1,67.5,0|0,1:0|0:0,0:0:0:0:
312,129,16260,2,0,P|292:210|309:275,1,135,4|0,3:0|1:0,0:0:0:0:
232,321,16744,1,0,0:0:0:0:
232,321,16905,2,0,P|169:323|149:324,1,67.5,4|0,3:0|1:0,0:0:0:0:
177,213,17227,2,0,P|174:162|179:125,1,67.5,0|0,1:0|0:0,0:0:0:0:
312,129,17550,2,0,L|471:115,1,135,4|0,3:0|1:0,0:0:0:0:
361,27,18034,2,0,L|278:42,1,67.5,0|0,0:0|3:0,0:0:0:0:
130,38,18518,2,0,P|120:97|117:115,1,67.5,0|0,1:0|0:0,0:0:0:0:
27,194,18840,6,0,P|73:188|150:286,1,162,4|0,3:0|0:0,0:0:0:0:
243,341,19486,1,0,1:0:0:0:
243,341,19808,2,0,P|283:336|318:339,1,54,0|0,0:0|1:0,0:0:0:0:
401,320,20131,2,0,L|418:203,2,108,4|4|0,3:0|3:0|1:0,0:0:0:0:
341,171,21098,2,0,L|353:104,1,54,2|0,0:0|0:0,0:0:0:0:
244,131,21421,2,0,B|246:175|246:175|244:241,2,108,4|0|0,3:0|0:0|1:0,0:0:0:0:
132,18,22389,1,0,0:0:0:0:
23,139,22711,2,0,P|4:219|97:300,1,216,4|0,3:0|1:0,0:0:0:0:
216,321,23518,2,0,L|156:325,2,54,8|4|4,3:0|3:0|3:0,0:0:0:0:
363,343,24002,5,4,0:0:0:0:
368,342,25292,1,2,0:0:0:0:
368,342,25937,1,0,0:0:0:0:
426,166,26582,1,2,0:0:0:0:
150,20,27227,1,2,0:0:0:0:
51,110,27873,1,2,0:0:0:0:
56,141,28195,2,0,L|42:176,3,27,0|0|0|0,3:0|3:0|3:0|0:0,0:0:0:0:
55,205,28518,2,0,P|68:252|85:329,1,108,2|0,0:0|0:0,0:0:0:0:
300,363,29163,6,0,P|336:329|425:311,1,135,4|4,0:0|3:0,0:0:0:0:
469,214,29647,2,0,L|486:133,2,67.5,0|0|6,1:0|1:0|3:0,0:0:0:0:
376,123,30131,1,0,0:0:0:0:
265,151,30292,1,0,1:0:0:0:
265,151,30453,2,0,P|203:153|126:148,1,135,6|4,0:0|3:0,0:0:0:0:
99,285,30937,2,0,L|179:272,1,67.5,4|0,3:0|1:0,0:0:0:0:
285,247,31260,1,4,3:0:0:0:
285,247,31421,6,0,L|276:168,1,67.5,2|0,0:0|1:0,0:0:0:0:
384,165,31744,2,0,P|386:198|387:232,1,67.5,4|0,3:0|0:0,0:0:0:0:
350,340,32066,1,8,3:0:0:0:
350,340,32227,2,0,L|275:344,1,67.5,8|0,3:0|0:0,0:0:0:0:
160,336,32550,2,0,P|132:259|107:195,1,135,0|0,1:0|1:0,0:0:0:0:
205,102,33034,2,0,P|241:70|334:53,1,135,4|0,0:0|0:0,0:0:0:0:
453,40,33518,2,0,L|475:134,1,67.5,4|0,3:0|0:0,0:0:0:0:
440,212,33840,2,0,L|436:276,5,33.75,0|0|0|0|0|0,1:0|1:0|1:0|1:0|1:0|1:0,0:0:0:0:
446,297,34324,6,0,L|359:293,1,67.5,6|0,0:0|0:0,0:0:0:0:
265,342,34647,1,0,1:0:0:0:
265,342,34808,2,0,P|251:268|227:196,1,135,4|4,3:0|3:0,0:0:0:0:
330,121,35292,2,0,L|323:198,1,67.5,0|0,1:0|0:0,0:0:0:0:
429,247,35615,2,0,L|437:170,2,67.5,4|0|0,0:0|0:0|1:0,0:0:0:0:
341,332,36098,2,0,B|266:324|248:368|178:354,1,135,4|4,3:0|3:0,0:0:0:0:
109,294,36582,1,0,1:0:0:0:
175,92,36905,6,0,L|332:100,1,135,4|0,1:0|1:0,0:0:0:0:
410,179,37389,2,0,L|329:184,1,67.5,0|0,0:0|1:0,0:0:0:0:
249,266,37711,1,4,3:0:0:0:
249,266,37873,2,0,L|167:275,1,67.5,0|0,1:0|0:0,0:0:0:0:
74,357,38195,6,0,P|59:246|50:213,1,135,4|4,0:0|3:0,0:0:0:0:
94,134,38625,2,0,L|84:77,2,45,2|0|4,3:0|0:0|3:0,0:0:0:0:
153,221,38948,2,0,L|155:299,2,45,4|0|4,3:0|0:0|0:3,0:0:0:0:
221,106,39377,1,4,3:0:0:0:
221,106,39486,6,0,L|341:88,1,108,6|0,0:0|0:0,0:0:0:0:
277,102,40776,2,0,L|386:106,1,108,4|0,0:0|0:0,0:0:0:0:
396,75,41744,1,0,0:0:0:0:
396,75,42066,2,0,L|514:86,1,108,4|0,0:0|0:0,0:0:0:0:
191,49,43356,5,0,3:0:0:0:
188,57,43679,1,0,3:0:0:0:
177,269,44002,5,0,1:0:0:0:
366,333,44324,1,0,1:0:0:0:
379,309,44405,1,0,1:0:0:0:
374,275,44486,1,0,1:0:0:0:
358,255,44566,1,0,1:0:0:0:
327,243,44647,6,0,P|327:213|399:92,1,148.50000453186,6|0,0:0|1:0,0:0:0:0:
264,99,45131,2,0,P|174:115|108:105,1,148.50000453186,4|4,3:0|3:0,0:0:0:0:
30,222,45615,2,0,L|126:213,1,74.2500022659302,0|0,1:0|0:0,0:0:0:0:
184,321,45937,2,0,B|130:317|130:317|101:356|101:356|29:343,1,148.50000453186,6|0,0:0|1:0,0:0:0:0:
30,222,46421,2,0,P|24:179|18:149,1,74.2500022659302,6|0,3:0|0:0,0:0:0:0:
148,106,46744,1,4,3:0:0:0:
148,106,46905,2,0,P|145:143|142:195,1,74.2500022659302,0|0,1:0|0:0,0:0:0:0:
273,161,47227,6,0,B|354:195|354:195|425:152,1,148.50000453186,4|0,0:0|1:0,0:0:0:0:
281,286,47873,1,4,3:0:0:0:
158,243,48034,1,4,3:0:0:0:
158,243,48195,2,0,P|154:184|148:145,1,74.2500022659302,0|0,1:0|0:0,0:0:0:0:
45,103,48518,2,0,P|49:164|49:200,1,74.2500022659302,4|0,0:0|0:0,0:0:0:0:
122,337,49002,2,0,L|43:344,1,74.2500022659302,0|4,0:0|1:3,0:0:0:0:
213,281,49324,1,0,1:0:0:0:
328,324,49486,6,0,L|424:332,1,75.9375028967858,6|0,1:3|0:0,0:0:0:0:
451,328,49808,6,0,P|451:269|474:164,1,148.50000453186,6|0,0:0|1:0,0:0:0:0:
358,102,50292,1,0,0:0:0:0:
358,102,50453,2,0,L|368:200,1,74.2500022659302,4|4,3:0|3:0,0:0:0:0:
223,141,50776,2,0,L|228:41,1,74.2500022659302,0|0,1:0|0:0,0:0:0:0:
127,112,51098,6,0,P|84:121|40:125,1,74.2500022659302,4|4,3:0|3:0,0:0:0:0:
129,236,51421,2,0,P|187:226|250:299,1,148.50000453186,0|4,1:0|3:0,0:0:0:0:
349,205,51905,1,4,3:0:0:0:
349,205,52066,6,0,L|331:120,1,74.2500022659302,0|0,1:0|0:0,0:0:0:0:
442,225,52389,2,0,B|422:280|421:343|481:363,1,148.50000453186,6|0,0:0|1:0,0:0:0:0:
329,321,52873,1,0,0:0:0:0:
329,321,53034,2,0,P|289:333|231:336,1,74.2500022659302,4|4,3:0|3:0,0:0:0:0:
112,331,53356,2,0,P|108:288|100:253,1,74.2500022659302,0|0,1:0|0:0,0:0:0:0:
189,144,53679,2,0,P|175:198|181:237,1,74.2500022659302,4|0,0:0|0:0,0:0:0:0:
279,227,54002,1,0,1:0:0:0:
367,137,54163,1,0,0:0:0:0:
406,257,54324,2,0,P|445:291|379:354,1,148.50000453186,4|0,3:0|1:0,0:0:0:0:
178,341,54969,6,0,P|93:336|20:342,1,148.50000453186,4|0,0:0|1:0,0:0:0:0:
116,224,55453,2,0,P|179:236|264:232,1,148.50000453186,4|0,0:0|0:0,0:0:0:0:
285,115,55937,6,0,L|211:123,1,74.2500022659302,0|0,1:0|0:0,0:0:0:0:
116,224,56260,2,0,P|104:160|84:77,1,148.50000453186,4|0,0:0|0:0,0:0:0:0:
211,122,56744,2,0,P|201:216|200:277,1,148.50000453186,4|0,0:0|0:0,0:0:0:0:
288,362,57227,6,0,P|321:345|358:346,1,74.2500022659302,0|0,1:0|0:0,0:0:0:0:
479,275,57550,2,0,P|430:229|430:125,1,148.50000453186,4|0,3:0|1:0,0:0:0:0:
283,118,58034,1,0,0:0:0:0:
283,118,58195,2,0,P|238:126|204:152,1,74.2500022659302,4|4,3:0|3:0,0:0:0:0:
96,231,58518,2,0,P|70:174|43:145,1,74.2500022659302,0|0,1:0|0:0,0:0:0:0:
22,288,58840,2,0,L|188:275,1,148.50000453186,6|0,0:0|1:0,0:0:0:0:
347,288,59486,1,4,3:0:0:0:
427,210,59647,2,0,L|472:176,2,37.1250011329651,0|0|0,1:0|1:0|1:0,0:0:0:0:
404,88,59969,1,0,1:0:0:0:
404,88,60131,6,0,P|341:89|248:64,1,148.50000453186,6|0,0:0|1:0,0:0:0:0:
130,90,60615,1,0,0:0:0:0:
130,90,60776,2,0,P|116:61|90:24,1,74.2500022659302,4|4,3:0|3:0,0:0:0:0:
48,152,61098,2,0,P|75:174|114:205,1,74.2500022659302,0|0,1:0|1:0,1:0:0:0:
224,162,61421,2,0,P|231:112|245:68,1,74.2500022659302,4|0,3:0|0:0,0:0:0:0:
331,175,61744,2,0,P|334:223|336:270,1,74.2500022659302,0|0,1:0|0:0,0:0:0:0:
453,282,62066,2,0,P|463:198|479:131,1,148.50000453186,4|0,3:0|1:0,0:0:0:0:
347,65,62550,1,0,0:0:0:0:
347,65,62711,6,0,L|264:74,1,74.2500022659302,4|0,3:0|0:0,0:0:0:0:
259,182,63034,2,0,L|349:179,1,74.2500022659302,0|0,1:0|0:0,0:0:0:0:
220,284,63356,1,4,3:0:0:0:
220,284,63518,2,0,P|184:220|139:148,1,148.50000453186,4|0,3:0|0:0,0:0:0:0:
28,140,64002,1,4,3:0:0:0:
188,56,64244,2,0,L|225:32,1,37.1250011329651,0|0,1:0|0:0,0:0:0:0:
311,90,64486,2,0,L|391:60,1,74.2500022659302,0|0,0:0|0:0,0:0:0:0:
432,100,64808,5,4,3:0:0:0:
382,221,64969,1,0,1:0:0:0:
345,236,65292,6,0,P|279:241|183:263,1,135,4|0,0:0|0:0,0:0:0:0:
101,213,65776,1,0,0:0:0:0:
101,213,65937,2,0,P|44:208|49:137,1,135,0|0,1:0|0:0,0:0:0:0:
187,127,66421,1,0,1:0:0:0:
187,127,66582,2,0,L|190:273,1,135,4|4,3:0|3:0,0:0:0:0:
313,362,67228,2,0,L|220:368,1,67.5,0|0,1:0|0:0,0:0:0:0:
283,265,67550,6,0,P|319:267|353:268,1,67.5,2|0,0:0|0:0,0:0:0:0:
466,208,67873,2,0,L|476:58,2,135,4|0|0,3:0|0:0|1:0,0:0:0:0:
372,205,68679,1,0,0:0:0:0:
372,205,68840,2,0,P|377:153|385:116,1,67.5,0|0,0:0|1:0,0:0:0:0:
251,110,69163,2,0,L|107:132,1,135,4|4,3:0|3:0,0:0:0:0:
14,167,69647,2,0,L|16:249,1,67.5,0|0,0:0|1:0,0:0:0:0:
118,131,69969,1,8,3:0:0:0:
118,131,70131,2,0,P|108:72|105:54,1,67.5,4|4,3:0|3:0,0:0:0:0:
221,143,70453,6,0,P|259:196|379:163,1,202.5,4|0,0:0|0:0,0:0:0:0:
417,65,71099,1,2,0:0:0:0:
417,65,71421,2,0,P|380:51|340:52,1,67.5,0|0,3:0|3:0,0:0:0:0:
222,36,71744,2,0,L|86:22,2,135,4|0|0,3:0|0:0|3:0,0:0:0:0:
104,146,72711,2,0,L|36:144,1,67.5,2|0,0:0|0:0,0:0:0:0:
62,252,73034,2,0,P|123:238|211:266,2,135,4|0|2,3:0|0:0|3:0,0:0:0:0:
208,346,74002,1,0,0:0:0:0:
313,306,74163,1,0,0:0:0:0:
313,306,74244,1,0,0:0:0:0:
313,306,74324,2,0,P|338:173|377:91,1,202.5,4|0,3:0|0:0,0:0:0:0:
250,89,74969,2,0,L|253:161,2,67.5,0|0|0,1:0|0:0|3:0,0:0:0:0:
442,48,75615,5,4,3:0:0:0:
452,57,76905,1,2,0:0:0:0:
194,26,77550,1,0,3:0:0:0:
144,138,78195,1,4,0:0:0:0:
181,279,78840,1,4,0:0:0:0:
334,337,79486,1,4,3:0:0:0:
386,324,79808,2,0,L|388:369,3,33.75
436,303,80131,2,0,P|444:249|466:151,1,135,2|0,3:0|0:0,0:0:0:0:
229,94,80776,6,0,P|163:83|112:41,1,135,6|0,0:0|1:0,0:0:0:0:
55,148,81260,2,0,L|-28:155,2,67.5,0|0|4,1:0|1:0|3:0,0:0:0:0:
141,242,81744,1,0,0:0:0:0:
247,217,81905,1,0,1:0:0:0:
247,217,82066,2,0,P|271:277|286:354,1,135,6|4,0:0|3:0,0:0:0:0:
403,324,82550,2,0,L|393:250,1,67.5,4|0,3:0|1:0,0:0:0:0:
462,140,82873,1,4,3:0:0:0:
462,140,83034,6,0,P|451:98|427:67,1,67.5,2|0,0:0|1:0,0:0:0:0:
304,42,83357,2,0,P|287:61|231:95,1,67.5,4|0,3:0|0:0,0:0:0:0:
146,44,83679,1,8,3:0:0:0:
146,44,83840,2,0,L|172:131,1,67.5,8|0,3:0|0:0,0:0:0:0:
85,192,84163,2,0,P|68:115|43:51,1,135,0|0,1:0|1:0,0:0:0:0:
165,108,84647,2,0,L|248:97,1,67.5,6|0,0:0|0:0,0:0:0:0:
403,167,85131,2,0,L|322:162,1,67.5,6|0,3:0|0:0,0:0:0:0:
350,268,85615,1,0,3:0:0:0:
336,294,85937,6,0,P|264:314|229:333,1,94.4999971160889,4|2,0:0|0:0,0:0:0:0:
128,337,86421,2,0,B|106:365|107:364|93:386,2,47.2499985580445,0|0|0,0:0|1:0|0:0,0:0:0:0:
176,247,86905,2,0,L|118:236,1,47.2499985580445,2|0,0:0|0:0,0:0:0:0:
180,151,87227,1,4,3:0:0:0:
180,151,87389,2,0,P|238:154|291:161,1,94.4999971160889,0|0,1:0|0:0,0:0:0:0:
175,58,87873,2,0,L|75:44,1,94.4999971160889,0|0,1:0|0:0,0:0:0:0:
320,42,88518,6,0,P|374:71|421:101,1,94.4999971160889,4|2,0:3|0:0,0:0:0:0:
481,183,89163,2,0,P|483:232|487:251,2,47.2499985580445,0|0|2,1:0|0:0|0:0,0:0:0:0:
394,257,89647,1,4,3:0:0:0:
394,257,89808,2,0,P|336:269|295:284,1,94.4999971160889,4|4,3:0|3:0,0:0:0:0:
214,347,90292,1,0,0:0:0:0:
214,347,90453,2,0,L|155:366,2,47.2499985580445,0|4|4,1:0|3:0|3:0,0:0:0:0:
156,243,90937,1,4,3:0:0:0:
156,243,91098,6,0,P|263:244|329:229,1,161.999995056153,4|0,0:0|0:0,0:0:0:0:
472,58,92389,2,0,P|400:49|308:68,1,161.999995056153,4|0,0:0|0:0,0:0:0:0:
143,136,93356,1,2,0:0:0:0:
143,136,93679,2,0,P|151:219|155:309,1,161.999995056153,4|0,0:0|0:0,0:0:0:0:
232,310,94486,2,0,L|234:360,3,40.4999987640381,2|2|2|0,0:0|0:0|0:0|0:0,0:0:0:0:
383,292,95292,1,2,0:0:0:0:
396,138,95615,2,0,B|384:102|354:63,1,80.9999975280763,2|0,0:0|0:0,0:0:0:0:
200,50,96260,5,2,0:0:0:0:
7,92,97227,2,0,B|-4:153|-3:146,1,40.4999987640381,2|0,0:0|0:0,0:0:0:0:
20,224,97550,2,0,P|66:242|186:242,1,161.999995056153,2|0,0:0|0:0,0:0:0:0:
313,168,98518,2,0,L|311:111,1,40.4999987640381,2|0,0:0|0:0,0:0:0:0:
423,106,98840,2,0,L|424:204,2,80.9999975280763,2|0|2,0:0|0:0|0:0,0:0:0:0:
502,193,99808,2,0,L|502:248,1,40.4999987640381
502,339,100131,2,0,P|437:328|421:318,2,80.9999975280763,2|2|0,0:0|0:0|0:0,0:0:0:0:
263,347,101098,2,0,P|243:350|216:358,1,40.4999987640381,2|0,0:0|0:0,0:0:0:0:
137,308,101421,6,0,P|126:266|135:214,1,80.9999975280763,2|0,0:0|0:0,0:0:0:0:
187,152,101905,2,0,P|209:152|242:145,1,40.4999987640381,0|0,0:0|0:0,0:0:0:0:
391,54,102389,1,2,0:0:0:0:
391,54,102711,2,0,P|397:123|399:148,1,80.9999975280763,2|0,0:0|0:0,0:0:0:0:
464,283,103356,2,0,P|432:266|389:260,1,80.9999975280763,2|0,0:0|0:0,0:0:0:0:
223,337,104002,2,0,P|181:369|153:371,2,80.9999975280763,2|0|2,0:0|0:0|0:0,0:0:0:0:
76,344,104969,1,0,0:0:0:0:
76,344,105292,2,0,P|56:258|31:178,1,161.999995056153,2|2,0:0|3:0,0:0:0:0:
368,56,106582,6,0,P|390:51|444:74,1,80.9999975280763,4|0,3:0|0:0,0:0:0:0:
510,34,107227,1,0,3:0:0:0:
500,216,107550,2,0,P|475:250|470:265,1,40.4999987640381,0|0,0:0|0:0,0:0:0:0:
423,337,107873,2,0,P|414:290|396:250,1,80.9999975280763,2|2,3:0|0:0,0:0:0:0:
348,124,108356,1,0,0:0:0:0:
348,124,108518,2,0,L|392:50,1,80.9999975280763,0|0,3:0|0:0,0:0:0:0:
222,151,109163,2,0,P|206:201|193:229,1,80.9999975280763,4|2,3:0|0:0,0:0:0:0:
62,310,109808,1,0,3:0:0:0:
11,186,110131,1,2,0:0:0:0:
112,99,110453,1,0,3:0:0:0:
31,46,110615,2,0,P|15:27|-11:7,2,40.4999987640381,0|2|0,0:0|0:0|0:0,0:0:0:0:
112,99,111098,2,0,P|152:106|208:107,1,80.9999975280763,0|2,3:0|0:0,0:0:0:0:
352,95,111582,1,2,0:0:0:0:
352,95,111744,6,0,P|308:27|294:17,1,80.9999975280763,4|0,3:0|0:0,0:0:0:0:
425,193,112389,2,0,P|415:228|411:288,1,80.9999975280763,0|2,3:0|0:0,0:0:0:0:
495,255,112873,1,0,3:0:0:0:
495,255,113034,2,0,L|503:306,1,40.4999987640381,2|0,3:0|0:0,0:0:0:0:
405,343,113356,2,0,L|406:386,1,40.4999987640381,0|0,0:0|0:0,0:0:0:0:
292,274,113679,2,0,L|198:278,1,80.9999975280763,2|2,3:0|0:0,0:0:0:0:
48,173,114324,2,0,P|52:118|62:7,1,161.999995056153,6|4,0:0|3:0,0:0:0:0:
48,173,115292,2,0,L|43:230,1,40.4999987640381,2|0,0:0|0:0,0:0:0:0:
229,99,115615,6,0,L|371:85,1,135,0|0,1:0|1:0,0:0:0:0:
347,202,116098,2,0,L|268:199,1,67.5,4|4,3:0|3:0,0:0:0:0:
171,273,116421,1,0,1:0:0:0:
75,219,116582,1,4,3:0:0:0:
152,135,116744,1,0,0:0:0:0:
26,124,116905,6,0,P|16:83|101:32,1,135,2|0,1:2|1:0,0:0:0:0:
210,37,117389,1,0,1:0:0:0:
210,37,117550,2,0,L|291:34,1,67.5,4|0,3:0|1:0,0:0:0:0:
412,25,117873,1,4,3:0:0:0:
399,132,118034,1,0,1:0:0:0:
482,217,118195,6,0,P|467:288|467:298,1,67.5,2|0,1:2|1:0,0:0:0:0:
385,252,118518,1,0,1:0:0:0:
307,336,118679,1,0,1:0:0:0:
307,336,118840,2,0,P|301:285|292:245,1,67.5,4|0,0:3|1:0,0:0:0:0:
216,231,119163,1,4,3:0:0:0:
138,316,119324,1,0,1:0:0:0:
103,197,119486,2,0,P|92:157|137:75,1,135,2|0,1:2|1:0,0:0:0:0:
310,118,120131,1,0,1:0:0:0:
428,79,120292,1,0,1:0:0:0:
428,79,120373,1,0,1:0:0:0:
428,79,120453,2,0,L|434:33,3,33.75,0|0|0|0,1:0|1:0|1:0|1:0,0:0:0:0:
469,26,120776,6,0,P|443:105|422:192,1,148.50000453186,6|0,0:0|1:0,0:0:0:0:
458,309,121260,2,0,P|388:282|311:270,1,148.50000453186,4|4,3:0|3:0,0:0:0:0:
205,217,121744,2,0,L|225:129,1,74.2500022659302,0|0,1:0|0:0,0:0:0:0:
129,71,122066,2,0,B|110:125|110:125|73:164|73:164|56:221,1,148.50000453186,6|0,0:0|1:0,0:0:0:0:
24,297,122550,2,0,P|45:300|104:292,1,74.2500022659302,6|0,3:0|0:0,0:0:0:0:
204,261,122873,1,4,3:0:0:0:
204,261,123034,2,0,P|201:224|198:172,1,74.2500022659302,0|0,1:0|0:0,0:0:0:0:
188,82,123356,6,0,B|149:93|149:93|117:79,1,74.2500022659302,4|0,0:0|0:0,0:0:0:0:
230,151,123679,2,0,B|269:143|269:143|311:148,1,74.2500022659302,0|0,1:0|0:0,0:0:0:0:
387,60,124002,1,4,3:0:0:0:
476,146,124163,1,4,3:0:0:0:
476,146,124324,2,0,P|478:188|479:223,1,74.2500022659302,0|0,1:0|0:0,0:0:0:0:
512,340,124647,2,0,P|434:321|356:345,1,148.50000453186,4|0,0:0|1:0,0:0:0:0:
267,384,125131,2,0,P|258:336|260:294,1,74.2500022659302,0|4,0:0|1:3,0:0:0:0:
302,206,125453,1,0,1:0:0:0:
148,190,125615,6,0,L|160:283,1,75.9375028967858,6|0,1:3|0:0,0:0:0:0:
104,325,125937,6,0,P|116:248|136:160,1,148.50000453186,6|0,0:0|1:0,0:0:0:0:
27,70,126421,1,0,0:0:0:0:
27,70,126582,2,0,L|37:168,1,74.2500022659302,4|4,3:0|3:0,0:0:0:0:
144,81,126905,2,0,L|239:57,1,74.2500022659302,0|0,1:0|0:0,0:0:0:0:
319,147,127227,6,0,P|277:141|233:145,1,74.2500022659302,4|4,3:0|3:0,0:0:0:0:
155,172,127550,2,0,P|194:145|134:84,1,148.50000453186,0|4,1:0|3:0,0:0:0:0:
55,182,128034,1,4,3:0:0:0:
55,182,128195,6,0,L|48:265,1,74.2500022659302,0|0,1:0|0:0,0:0:0:0:
145,334,128518,2,0,B|221:328|221:328|313:334,1,148.50000453186,6|0,0:0|1:0,0:0:0:0:
439,344,129002,1,0,0:0:0:0:
439,344,129163,2,0,P|443:307|452:262,1,74.2500022659302,4|4,3:0|3:0,0:0:0:0:
346,172,129485,2,0,P|342:215|336:259,1,74.2500022659302,0|0,1:0|0:0,0:0:0:0:
335,354,129808,2,0,P|291:356|260:361,1,74.2500022659302,4|0,0:0|0:0,0:0:0:0:
169,347,130131,1,0,1:0:0:0:
155,231,130292,1,0,0:0:0:0:
45,272,130453,2,0,P|55:210|34:97,1,148.50000453186,4|0,3:0|1:0,0:0:0:0:
219,78,131098,6,0,P|281:123|356:129,1,148.50000453186,4|0,0:0|1:0,0:0:0:0:
487,134,131582,2,0,P|480:172|478:287,1,148.50000453186,4|0,0:0|0:0,0:0:0:0:
368,339,132066,6,0,L|365:256,1,74.2500022659302,0|0,1:0|0:0,0:0:0:0:
269,197,132389,2,0,P|257:261|253:300,1,74.2500022659302,4|0,0:0|0:0,0:0:0:0:
141,355,132711,1,0,0:0:0:0:
141,355,132873,2,0,B|140:290|140:290|124:261|124:261|122:204,1,148.50000453186,4|0,0:0|0:0,0:0:0:0:
63,89,133356,6,0,P|95:72|132:72,1,74.2500022659302,0|0,1:0|0:0,0:0:0:0:
267,87,133679,2,0,P|335:77|427:69,1,148.50000453186,4|0,3:0|1:0,0:0:0:0:
486,159,134163,1,0,0:0:0:0:
486,159,134324,2,0,P|441:167|407:193,1,74.2500022659302,4|4,3:0|3:0,0:0:0:0:
315,238,134647,2,0,L|301:143,1,74.2500022659302,0|0,1:0|0:0,0:0:0:0:
261,64,134969,2,0,B|313:85|346:41|394:40|413:58,1,148.50000453186,6|0,0:0|1:0,0:0:0:0:
316,236,135615,1,4,3:0:0:0:
412,325,135776,2,0,L|418:368,2,37.1250011329651,0|0|0,1:0|1:0|1:0,0:0:0:0:
312,366,136098,1,0,1:0:0:0:
312,366,136260,6,0,P|249:367|140:382,1,148.50000453186,6|0,0:0|1:0,0:0:0:0:
82,293,136744,1,0,0:0:0:0:
82,293,136905,2,0,P|68:264|42:227,1,74.2500022659302,4|4,3:0|3:0,0:0:0:0:
175,233,137227,1,0,1:0:0:0:
221,134,137389,1,0,0:0:0:0:
348,108,137550,2,0,P|332:161|396:192,1,111.375003398895,4|0,3:0|0:0,0:0:0:0:
442,149,137873,2,0,P|440:111|437:74,1,74.2500022659302,0|0,1:0|0:0,0:0:0:0:
305,25,138195,2,0,P|246:49|140:41,1,148.50000453186,4|0,3:0|1:0,0:0:0:0:
48,125,138679,1,0,0:0:0:0:
48,125,138840,6,0,L|43:209,1,74.2500022659302,4|0,3:0|0:0,0:0:0:0:
150,296,139163,2,0,L|147:209,1,74.2500022659302,0|0,1:0|0:0,0:0:0:0:
262,316,139485,1,4,3:0:0:0:
262,316,139647,2,0,P|310:311|424:322,1,148.50000453186,4|0,3:0|0:0,0:0:0:0:
406,198,140131,2,2,B|354:211|354:211|321:189|321:189|259:202,1,148.50000453186,4|0,3:0|1:0,0:0:0:0:
104,104,140776,5,0,1:0:0:0:
221,104,140937,2,0,L|244:54,2,37.1250011329651,0|0|0,1:0|1:0|1:0,0:0:0:0:
166,205,141260,1,0,1:0:0:0:
174,213,141340,1,0,1:0:0:0:
174,213,141421,6,0,P|241:217|304:168,1,148.50000453186,6|0,0:0|1:0,0:0:0:0:
424,129,141905,2,0,P|423:198|433:285,1,148.50000453186,4|4,3:0|3:0,0:0:0:0:
330,331,142389,2,0,L|334:243,1,74.2500022659302,0|0,1:0|0:0,0:0:0:0:
243,154,142711,2,0,P|243:209|241:318,1,148.50000453186,6|0,0:0|1:0,0:0:0:0:
111,362,143195,2,0,P|96:321|99:289,1,74.2500022659302,6|0,3:0|0:0,0:0:0:0:
106,187,143518,1,4,3:0:0:0:
106,187,143679,2,0,P|68:150|34:127,1,74.2500022659302,0|0,1:0|0:0,0:0:0:0:
141,46,144001,6,0,B|181:56|181:56|238:40,1,74.2500022659302,4|0,0:0|0:0,0:0:0:0:
344,27,144324,2,0,L|363:109,1,74.2500022659302,0|0,1:0|0:0,0:0:0:0:
437,203,144647,1,4,3:0:0:0:
315,187,144808,1,4,3:0:0:0:
315,187,144969,2,0,P|267:188|225:203,1,74.2500022659302,0|0,1:0|0:0,0:0:0:0:
108,151,145292,2,0,P|106:38|83:-22,1,148.50000453186,4|0,0:0|1:0,0:0:0:0:
14,115,145776,2,0,L|21:212,1,74.2500022659302,0|4,0:0|1:3,0:0:0:0:
150,245,146098,1,0,1:0:0:0:
281,160,146260,6,0,L|205:153,1,75.9375028967858,6|0,1:3|0:0,0:0:0:0:
172,110,146582,6,0,P|235:123|336:125,1,148.50000453186,6|0,0:0|1:0,0:0:0:0:
425,89,147066,1,0,0:0:0:0:
425,89,147227,2,0,L|435:-9,1,74.2500022659302,4|4,3:0|3:0,0:0:0:0:
512,118,147550,2,0,L|502:220,1,74.2500022659302,0|0,1:0|0:0,0:0:0:0:
470,317,147872,6,0,P|419:308|375:312,1,74.2500022659302,4|4,3:0|3:0,0:0:0:0:
279,242,148195,2,0,P|283:178|313:70,1,148.50000453186,0|4,1:0|3:0,0:0:0:0:
195,75,148679,1,4,3:0:0:0:
195,75,148840,6,0,L|207:174,1,74.2500022659302,0|0,1:0|0:0,0:0:0:0:
169,276,149163,2,0,B|88:312|96:233|-4:275,1,148.50000453186,6|0,0:0|1:0,0:0:0:0:
53,126,149647,1,0,0:0:0:0:
53,126,149808,2,0,P|36:78|23:43,1,74.2500022659302,4|4,3:0|3:0,0:0:0:0:
165,99,150130,2,0,P|161:142|162:196,1,74.2500022659302,0|0,1:0|0:0,0:0:0:0:
286,222,150453,2,0,P|375:227|384:228,1,74.2500022659302,4|0,0:0|0:0,0:0:0:0:
473,179,150776,1,0,1:0:0:0:
469,319,150937,1,0,0:0:0:0:
360,225,151098,2,0,P|363:168|417:75,1,148.50000453186,4|0,3:0|1:0,0:0:0:0:
162,36,151743,6,0,P|88:61|15:67,1,148.50000453186,4|0,0:0|0:0,0:0:0:0:
39,197,152227,2,0,P|102:192|187:206,1,148.50000453186,4|0,0:0|0:0,0:0:0:0:
288,274,152711,6,0,L|300:182,1,74.2500022659302,0|0,1:0|0:0,0:0:0:0:
407,181,153034,2,0,P|395:245|430:343,1,148.50000453186,4|0,0:0|0:0,0:0:0:0:
497,234,153518,2,0,P|491:150|458:91,1,148.50000453186,4|0,0:0|0:0,0:0:0:0:
339,60,154001,6,0,P|301:60|268:78,1,74.2500022659302,0|0,1:0|0:0,0:0:0:0:
162,140,154324,2,0,P|113:94|113:-10,1,148.50000453186,4|0,3:0|1:0,0:0:0:0:
16,143,154808,1,0,0:0:0:0:
16,143,154969,2,0,L|17:230,1,74.2500022659302,4|4,3:0|3:0,0:0:0:0:
121,297,155292,2,0,P|128:251|153:201,1,74.2500022659302,0|0,1:0|0:0,0:0:0:0:
237,149,155614,2,0,L|392:162,1,148.50000453186,6|0,0:0|1:0,0:0:0:0:
429,20,156260,1,4,3:0:0:0:
320,61,156421,2,0,L|328:12,2,37.1250011329651,0|0|0,1:0|1:0|1:0,0:0:0:0:
243,164,156743,1,0,1:0:0:0:
243,164,156824,1,0,1:0:0:0:
243,164,156905,6,0,P|237:238|242:311,1,148.50000453186,6|0,0:0|1:0,0:0:0:0:
153,384,157389,1,0,0:0:0:0:
153,384,157550,2,0,P|157:356|144:303,1,74.2500022659302,4|4,3:0|3:0,0:0:0:0:
169,202,157872,1,0,1:0:0:0:
24,218,158034,1,0,0:0:0:0:
80,80,158195,2,0,P|87:26|101:-18,1,74.2500022659302,4|0,3:0|0:0,0:0:0:0:
165,128,158518,2,0,P|168:176|170:223,1,74.2500022659302,0|0,1:0|0:0,0:0:0:0:
295,255,158840,2,0,P|302:306|410:337,1,148.50000453186,4|0,3:0|1:0,0:0:0:0:
476,256,159324,1,0,0:0:0:0:
476,256,159485,6,0,L|396:273,1,74.2500022659302,4|0,3:0|0:0,0:0:0:0:
376,147,159808,2,0,L|466:144,1,74.2500022659302,0|0,1:0|0:0,0:0:0:0:
328,84,160130,1,4,3:0:0:0:
278,183,160292,1,4,3:0:0:0:
278,183,160453,2,0,L|186:196,1,74.2500022659302,0|0,1:0|0:0,0:0:0:0:
94,88,160776,1,4,3:0:0:0:
109,100,161260,2,0,L|189:70,1,74.2500022659302,4|0,1:3|0:0,0:0:0:0:
328,84,161743,1,4,1:0:0:0:
328,84,162066,6,0,P|369:133|398:183,1,101.250003862381,2|0,0:0|0:0,0:0:0:0:
444,223,162550,2,0,L|445:279,2,50.6250019311906,0|2|0,0:0|0:0|0:0,0:0:0:0:
356,351,163195,1,0,0:0:0:0:
356,351,163356,2,0,P|353:263|356:232,1,101.250003862381,2|0,0:0|0:0,0:0:0:0:
254,121,164002,2,0,P|261:182|262:232,1,101.250003862381,2|0,0:0|0:0,0:0:0:0:
131,305,164647,2,0,P|93:306|69:254,1,101.250003862381,2|0,0:0|0:0,0:0:0:0:
165,109,165292,1,2,0:0:0:0:
165,109,165453,2,0,P|254:124|283:127,1,101.250003862381,0|0,0:0|0:0,0:0:0:0:
256,192,165937,12,2,167227,0:0:0:0:
256,198,168518,5,0,0:0:0:0:
